#VERSION:0.83;
#TITLE:kawaii dake no onnanoko;
#SUBTITLE:(かわいいだけのおんなのこ);
#ARTIST:yoshimoto ojisan ;
#TITLETRANSLIT:;
#SUBTITLETRANSLIT:;
#ARTISTTRANSLIT:;
#GENRE:;
#CREDIT:;
#MUSIC:kawaii dake no onnanoko.ogg;
#BANNER:kawaii dake no onnanoko-bn.png;
#BACKGROUND:kawaii dake no onnanoko-bg.png;
#JACKET:kawaii dake no onnanoko-jacket.png;
#DISCIMAGE:;
#CDIMAGE:;
#SELECTABLE:YES;
#LYRICSPATH:;
#CDTITLE:;
#SAMPLESTART:39.304;
#SAMPLELENGTH:12;
#OFFSET:-0.031;
#BPMS:0.000000=220.000000;
#STOPS:;
#WARPS:;
#DELAYS:;
#SPEEDS:0.000000=1.000000=0.000000=0;
#SCROLLS:0.000000=1.000000;
#TICKCOUNTS:;
#TIMESIGNATURES:0.000000=4=4;
#LABELS:;
#COMBOS:;
#FAKES:;
#BGCHANGES:;
#FGCHANGES:;
#ATTACKS:;
#KEYSOUNDS:;

//---------------dance-single - ---------------
#NOTEDATA:;
#CHARTNAME:;
#CHARTSTYLE:;
#CREDIT:Sparks;
#STEPSTYPE:dance-single;
#DESCRIPTION:;
#DIFFICULTY:Hard;
#METER:14;
#METERF:14;
#RADARVALUES:0,0,0,0,0;
#NOTES:
// measure 0
0000
0000
0000
0000
,  // measure 1
0000
0000
0000
0000
,  // measure 2
1000
0000
0000
0000
1000
0000
0000
1000
,  // measure 3
0000
1000
0000
1000
0001
0000
1001
0000
,  // measure 4
1000
0100
0010
0001
1000
0000
0001
0010
,  // measure 5
0000
0010
0001
0100
0010
0000
1010
0000
,  // measure 6
0001
0100
0010
1000
0001
0000
1000
0010
,  // measure 7
0000
0010
1000
0100
0010
0000
0011
0000
,  // measure 8
0001
0100
0010
1000
0100
0000
0001
0010
,  // measure 9
0000
1000
0100
0010
0001
0000
1000
0000
,  // measure 10
0010
0010
1000
0100
0100
1000
0010
0010
,  // measure 11
0000
0100
0000
0000
0000
0100
0010
0100
,  // measure 12
0010
1000
0010
0000
0010
0001
0010
0100
,  // measure 13
0001
0010
0100
0000
0010
0000
0001
1000
,  // measure 14
0100
1000
0010
0100
0000
0001
0010
0100
,  // measure 15
0000
0000
0000
0000
0000
1000
0010
0100
,  // measure 16
0001
1000
0100
1000
0010
1000
0000
0001
,  // measure 17
0100
0001
0010
0001
1000
0010
0100
0000
,  // measure 18
0001
1000
0001
1000
0000
1100
0000
0101
,  // measure 19
0000
1000
0001
0000
1001
0000
0000
0000
,  // measure 20
0100
0001
1000
0000
0100
1000
0010
0000
,  // measure 21
0100
0001
1000
0001
0010
0100
1000
0000
,  // measure 22
0001
0000
0001
0000
0010
0001
1000
0010
,  // measure 23
0000
0010
0000
0010
0100
0000
0001
0000
,  // measure 24
1000
0000
0010
0000
1000
0100
0010
0001
,  // measure 25
1000
0000
0100
1000
0010
0100
0001
0010
,  // measure 26
0000
0001
0000
0001
0010
0000
1000
0100
,  // measure 27
0000
1000
0000
0010
0100
0000
0000
0001
,  // measure 28
0000
0001
0100
0000
1010
0000
0000
1000
,  // measure 29
0000
1000
0100
0000
0011
0000
0000
0001
,  // measure 30
0000
0001
0100
0000
1010
0000
0000
0100
,  // measure 31
0000
0100
0010
0000
1001
0000
0000
0000
,  // measure 32
1000
0000
0010
0000
1000
0100
1000
0000
,  // measure 33
0010
0000
0100
0000
0001
1000
0001
0000
,  // measure 34
0010
0000
0100
0000
1000
0000
0010
0100
,  // measure 35
0000
0010
1000
0010
0001
0000
0010
0000
,  // measure 36
0100
0000
0001
0000
0010
0100
1000
0001
,  // measure 37
0000
1000
0010
0001
0000
0010
0000
0100
,  // measure 38
0010
1000
0100
0010
0001
0100
0010
1000
,  // measure 39
0000
0000
0100
0010
0000
0010
0001
0000
,  // measure 40
0100
0001
0100
0010
0100
1000
0100
0001
,  // measure 41
0000
0001
0010
0100
0000
0100
1000
0100
,  // measure 42
0010
0010
0001
0100
0100
0001
1000
1000
,  // measure 43
0100
0010
0010
0000
0100
0000
0110
0000
,  // measure 44
0001
0000
0010
0000
0100
1000
0010
0100
,  // measure 45
0000
0001
0100
1000
0000
0100
0000
0001
,  // measure 46
1000
0100
0010
0001
0100
0001
0010
0100
,  // measure 47
0000
0000
1000
0010
0000
0010
0100
0000
,  // measure 48
0010
0100
0001
0100
1000
0100
0010
1000
,  // measure 49
0000
0100
0010
0001
0000
0100
0010
1000
,  // measure 50
0010
0010
1000
0100
0100
1000
0001
0001
,  // measure 51
0100
0010
0010
0000
0100
0000
0110
0000
,  // measure 52
0010
0000
1000
0000
0001
0000
0020
0100
,  // measure 53
0000
0001
0000
0130
1000
0000
0002
0000
,  // measure 54
0100
0000
1000
0003
0010
0000
0100
1000
,  // measure 55
0000
1000
0100
0010
0001
0000
1000
0000
,  // measure 56
0100
0000
1000
0000
0010
0000
0200
0001
,  // measure 57
0000
0010
0000
0301
1000
0000
0020
0000
,  // measure 58
0001
0000
1000
0000
0031
0000
0010
0100
,  // measure 59
0000
0100
0001
1000
0010
0000
1000
0000
,  // measure 60
0000
0100
1000
0100
0000
1000
0010
1000
,  // measure 61
0001
0100
0010
1000
0100
0000
0000
0000
,  // measure 62
1000
0000
0001
0000
0010
0001
1000
0001
,  // measure 63
0100
0010
1000
0000
0001
0000
0000
0000
,  // measure 64
0100
0001
1000
0010
0000
1000
0000
0100
,  // measure 65
0000
0100
0010
0001
1000
0000
0000
0000
,  // measure 66
0001
0100
0000
0001
0000
1000
0100
0010
,  // measure 67
0001
1000
0000
0010
1000
0000
0000
0000
,  // measure 68
0001
0000
0100
0001
0000
0001
1000
0000
0100
1000
0000
1000
,  // measure 69
0001
0000
0010
0100
0000
0100
1000
0000
0010
0100
0000
0100
,  // measure 70
0001
0000
1000
0010
0000
0010
1000
0000
0001
0010
0000
0010
,  // measure 71
0100
0000
1000
0001
0000
0001
0100
0000
0010
1000
0000
1010
,  // measure 72
0000
0000
1000
0100
0000
0000
1100
0000
0000
0000
0000
0011
,  // measure 73
0000
0000
0001
0100
0000
0000
0101
0000
0000
0000
0000
1010
,  // measure 74
0000
0000
0001
0010
0000
0010
0200
0000
0000
0000
0000
0300
,  // measure 75
0000
0010
0100
0010
0100
1000
0100
0010
,  // measure 76
0001
0100
0010
1000
0001
0100
0001
0010
,  // measure 77
0100
1000
0010
0000
0100
0000
0001
0000
0000
0000
1000
0000
0010
0000
1000
0000
,  // measure 78
0100
0010
0100
1000
0100
0001
0100
0010
,  // measure 79
0000
0010
0110
0000
2002
0000
3003
0000
,  // measure 80
0100
0000
0010
0000
1000
0010
0100
0001
,  // measure 81
0000
0001
0010
0100
0000
1000
0000
0100
,  // measure 82
0010
0100
1000
0001
0100
0001
0010
0100
,  // measure 83
0000
0000
1000
0010
0000
0100
0001
0000
,  // measure 84
1000
0100
0010
1000
0010
0001
0010
0100
,  // measure 85
0000
0100
1000
0010
0000
0100
0000
0010
,  // measure 86
1000
1000
0010
0100
0100
0001
1000
1000
,  // measure 87
0100
0010
0010
0000
0100
0000
1100
0000
,  // measure 88
0001
0000
0010
0000
0100
1000
0001
0010
,  // measure 89
0000
0001
1000
0010
0000
1000
0000
0001
,  // measure 90
1000
0010
0100
0001
1000
0100
0010
0100
,  // measure 91
0000
0000
0100
1000
0000
0001
0010
0000
,  // measure 92
0010
0001
0100
0000
0010
1000
0001
0100
,  // measure 93
0000
0001
1000
0100
0000
1000
0000
0100
,  // measure 94
0010
0010
0001
0100
0100
0001
1000
1000
,  // measure 95
0100
0010
0010
0000
0200
0000
0000
0000
,  // measure 96
1300
0000
0100
0000
1000
0000
0100
1000
,  // measure 97
0001
0100
0001
0010
,  // measure 98
0001
0000
0100
0000
0001
0000
0100
0001
,  // measure 99
1000
0100
1000
0010
,  // measure 100
0110
0000
0101
0000
1001
0000
1000
0100
,  // measure 101
1000
0010
1000
0000
0100
0000
0010
0000
,  // measure 102
0001
0100
0001
0010
0001
1000
0100
0010
,  // measure 103
0000
0001
0100
0010
1000
0000
0000
0000
,  // measure 104
0000
0002
0000
0200
,  // measure 105
0003
0020
0300
2000
,  // measure 106
0030
0200
3000
0020
,  // measure 107
0300
0002
0030
2000
,  // measure 108
0003
0020
3000
2000
,  // measure 109
0030
0200
3000
1300
,  // measure 110
1100
0000
0001
0101
0000
0010
0011
0000
,  // measure 111
2002
0000
0000
3003
,  // measure 112
0100
0000
0001
0000
0100
0001
0010
0100
,  // measure 113
0000
1000
0100
0001
0000
0100
0000
0010
,  // measure 114
0001
1000
0001
0100
0010
1000
0001
0100
,  // measure 115
0000
0000
1000
0010
0000
0010
0100
0000
,  // measure 116
0001
1000
0100
1000
0001
0010
0100
1000
,  // measure 117
0000
0001
0100
1000
0000
0100
0000
0001
,  // measure 118
0010
0010
0001
0100
0100
0001
1000
1000
,  // measure 119
0100
0010
0010
0000
0100
0000
2100
0000
,  // measure 120
3010
0010
1000
0100
0100
1000
0001
0001
,  // measure 121
0100
0010
0010
0000
0100
0000
0101
0000
,  // measure 122
0001
0100
0010
1000
0001
0000
1000
0010
,  // measure 123
0000
0100
0010
1000
0001
0000
0100
0000
,  // measure 124
0001
0010
0100
1000
0001
0000
0010
0100
,  // measure 125
0000
0010
0001
0010
0100
0000
1000
0000
,  // measure 126
0010
1000
0100
0010
0001
0000
1000
0010
,  // measure 127
0000
0001
0100
0010
1000
0000
0001
0000
,  // measure 128
0010
0010
0001
1000
1000
0100
0010
0010
,  // measure 129
0001
1010
1100
0001
,  // measure 130
0100
0001
1000
0010
1000
0000
0001
0100
,  // measure 131
0000
0001
1000
0010
0100
0000
0001
0000
,  // measure 132
1000
0100
1000
0001
0010
0000
1000
0100
,  // measure 133
0000
0010
0001
0010
0100
0000
0010
0000
,  // measure 134
0001
0100
0010
0100
0001
0000
1000
0010
,  // measure 135
0000
0010
1000
0100
1000
0000
0010
1000
,  // measure 136
0001
0001
0000
1000
1000
0000
0001
0001
,  // measure 137
1000
0000
0001
1000
1001
0000
0000
0000
;

//---------------dance-single - ---------------
#NOTEDATA:;
#CHARTNAME:;
#CHARTSTYLE:;
#CREDIT:Sparks;
#STEPSTYPE:dance-single;
#DESCRIPTION:;
#DIFFICULTY:Medium;
#METER:12;
#METERF:12;
#RADARVALUES:0,0,0,0,0;
#NOTES:
// measure 0
0000
0000
0000
0000
,  // measure 1
0000
0000
0000
0000
,  // measure 2
0001
0000
0000
0000
0001
0000
0000
0001
,  // measure 3
0000
0001
0000
0001
1000
0000
0001
0000
,  // measure 4
0100
0000
0001
0000
0010
0000
0001
0100
,  // measure 5
0000
0001
0010
0000
0100
0000
1000
0000
,  // measure 6
0010
0000
1000
0000
0100
0000
1000
0010
,  // measure 7
0000
1000
0100
0000
0010
0000
0001
0000
,  // measure 8
0100
0000
0010
0000
1000
0000
0001
1000
,  // measure 9
0000
1000
0001
0000
0010
0000
0100
0000
,  // measure 10
1100
0000
0001
0100
0000
0010
1000
0000
,  // measure 11
1001
0000
0000
0000
,  // measure 12
1000
0010
1000
0001
,  // measure 13
0010
0100
0010
0001
,  // measure 14
0100
0010
1000
0001
,  // measure 15
0100
0001
0100
0010
,  // measure 16
0010
0000
0010
0000
0010
0000
0010
1000
,  // measure 17
0100
0100
0100
0010
,  // measure 18
0110
0000
0000
0000
0000
0000
0000
1001
,  // measure 19
0000
0110
1001
0000
,  // measure 20
1000
0010
1000
0000
0001
0010
0001
0000
,  // measure 21
1000
0100
0010
0001
,  // measure 22
0100
0000
0010
0000
1000
0000
0010
0100
,  // measure 23
0000
0100
0000
0100
0001
0000
1000
0000
,  // measure 24
0100
1000
0010
0100
,  // measure 25
0001
0100
0010
1000
,  // measure 26
0001
0000
0010
0000
0100
0000
1000
0001
,  // measure 27
0000
0010
0000
0001
0100
0000
0100
0001
,  // measure 28
0000
0010
0100
0000
1000
0000
0001
0010
,  // measure 29
0000
0100
1000
0000
0010
0000
0100
0001
,  // measure 30
0000
1000
0010
0000
0100
0000
0001
0010
,  // measure 31
0000
0100
1000
0000
0001
0000
0000
0000
,  // measure 32
1000
1200
0001
2300
,  // measure 33
3010
1020
0001
1030
,  // measure 34
0010
1000
0010
1000
0100
1000
0100
1000
,  // measure 35
0001
0001
0001
0000
,  // measure 36
1000
0000
0001
0000
0100
0000
0001
0010
,  // measure 37
0000
0100
1000
0100
0000
0010
0000
0010
,  // measure 38
0001
0000
1000
0000
0010
0000
1000
0200
,  // measure 39
0000
0000
0000
0300
,  // measure 40
1000
0000
0010
0000
0100
0000
0010
1000
,  // measure 41
0000
0001
0010
0001
0000
0000
1000
0000
,  // measure 42
1100
0000
0000
1010
0000
0000
0011
0000
,  // measure 43
0000
0101
0000
0000
1001
0000
0000
0000
,  // measure 44
0001
0000
0100
0000
0001
0000
0010
0100
,  // measure 45
0000
1000
0100
1000
0000
0010
0000
1000
,  // measure 46
0100
0000
0010
0000
0001
0000
1000
0020
,  // measure 47
0000
0000
0000
0030
,  // measure 48
0100
0000
0010
0000
1000
0000
0010
0100
,  // measure 49
0000
0001
1000
0001
0000
0000
0001
0000
,  // measure 50
0101
0000
0000
1001
0000
0000
1100
0000
,  // measure 51
0000
0110
0000
0000
0011
0000
0000
0000
,  // measure 52
1000
0000
0010
0000
0100
0000
0010
1000
,  // measure 53
0000
1000
0000
1000
0100
0000
0000
0000
,  // measure 54
1000
0000
0010
0000
0100
0000
0001
0010
,  // measure 55
0000
0001
0001
0100
,  // measure 56
0001
0000
1000
0000
0100
0000
0010
0001
,  // measure 57
0000
0001
0000
0001
0100
0000
0001
0000
,  // measure 58
0010
0000
0100
0000
1000
0000
0100
1000
,  // measure 59
0000
1000
0010
0100
0001
0000
0000
0000
,  // measure 60
0200
0000
0000
0000
0010
0000
0000
0001
,  // measure 61
0000
0302
1000
0000
,  // measure 62
0010
0000
0000
0000
0100
0000
0000
0010
,  // measure 63
0000
0023
0100
0000
,  // measure 64
0001
0000
0000
0000
1000
0000
0000
0001
,  // measure 65
0000
0032
1000
0000
,  // measure 66
0010
0000
0000
0000
0100
0000
0000
1000
,  // measure 67
0000
1003
0001
0000
,  // measure 68
1000
0000
0001
0100
0000
0000
0010
0000
0000
1000
0000
0000
,  // measure 69
0001
0000
0010
0100
0000
0000
1000
0000
0000
0001
0000
0000
,  // measure 70
0100
0000
0010
1000
0000
0000
0001
0000
0000
0100
0000
0000
,  // measure 71
0010
0000
1000
0001
0000
0000
0010
0000
0000
0100
0000
0000
,  // measure 72
1000
0000
0100
1000
0000
0000
0100
0000
1000
0001
0000
0000
,  // measure 73
0100
0000
0001
0100
0000
0000
0001
0000
0100
0010
0000
0000
,  // measure 74
1000
0000
0010
1000
0000
0000
0010
0000
1000
0200
0000
0000
,  // measure 75
0000
0020
0000
0000
0000
0300
0000
0130
,  // measure 76
0000
0100
1000
0100
1000
0000
0010
0000
,  // measure 77
0100
0001
0010
0001
,  // measure 78
1000
0000
0100
0000
0010
0000
0001
0100
,  // measure 79
0000
0001
1000
0000
1000
0000
0000
0000
,  // measure 80
0001
0000
0100
0000
0001
0000
0010
0001
,  // measure 81
0000
1000
0100
1000
0000
0001
0000
0010
,  // measure 82
0100
0000
1000
0000
0010
0000
0100
0002
,  // measure 83
0000
0000
0000
0003
,  // measure 84
0100
0000
0010
0000
1000
0000
0001
0010
,  // measure 85
0000
0001
0100
0001
0000
0000
1000
0000
,  // measure 86
1010
0000
0000
0110
0000
0000
0101
0000
,  // measure 87
0000
1100
0000
0000
0101
0000
0000
0000
,  // measure 88
0001
0000
0010
0000
0100
0000
1000
0010
,  // measure 89
0000
0100
0010
1000
0000
0001
0000
1000
,  // measure 90
0001
0000
0010
0000
0100
0000
1000
0020
,  // measure 91
0000
0000
0000
0030
,  // measure 92
0100
0000
0010
0000
0100
0000
0001
0100
,  // measure 93
0000
0001
1000
0100
0000
0000
1000
0000
,  // measure 94
1100
0000
0000
1010
0000
0000
0101
0000
,  // measure 95
0000
0011
0000
0000
1001
0000
0000
0000
,  // measure 96
0001
0100
0001
0010
,  // measure 97
0100
1000
0010
1000
,  // measure 98
0100
0010
0001
0100
,  // measure 99
0010
1000
0010
0100
,  // measure 100
0010
0000
0010
0000
0010
0000
0010
1000
,  // measure 101
0001
0010
0010
0010
,  // measure 102
0001
0010
0001
0010
0100
1000
0100
1000
,  // measure 103
0000
1000
0010
0100
0001
0000
0000
0000
,  // measure 104
0000
2000
0000
0010
,  // measure 105
0000
0100
0000
0010
,  // measure 106
0000
3002
0000
0010
,  // measure 107
0000
0100
0000
0010
,  // measure 108
0000
2003
0000
0100
,  // measure 109
0000
0100
0000
3100
,  // measure 110
1100
0000
0000
0101
0000
0000
0011
0000
,  // measure 111
2002
0000
3003
0000
,  // measure 112
1000
0000
0100
0000
0010
0000
0100
1000
,  // measure 113
0000
0001
0100
0001
0000
1000
0000
0010
,  // measure 114
0100
0000
0001
0000
0010
0000
0001
2000
,  // measure 115
0000
0000
0000
3000
,  // measure 116
0001
0000
0100
0000
0001
0000
1000
0100
,  // measure 117
0000
1000
0010
1000
0000
0000
0001
0000
,  // measure 118
0101
0000
0000
0011
0000
0000
0101
0000
,  // measure 119
0000
0011
0000
0000
0101
0000
0001
0000
,  // measure 120
1100
0000
0000
1010
0000
0000
1100
0000
,  // measure 121
0000
1010
0000
0000
1100
0000
0010
0000
,  // measure 122
0001
0000
0100
0000
0010
0000
0100
0001
,  // measure 123
0000
1000
0010
0000
1000
0000
0001
0000
,  // measure 124
0010
0000
0100
0000
1000
0000
0100
0010
,  // measure 125
0000
0001
1000
0000
0100
0000
0010
0000
,  // measure 126
0001
0000
1000
0000
0010
0000
0100
0001
,  // measure 127
0000
1000
0100
0000
1000
0000
0010
0000
,  // measure 128
0100
0000
0001
0100
0000
0010
0001
0000
,  // measure 129
0011
0110
1100
0000
,  // measure 130
1000
0000
0010
0000
1000
0000
0100
0010
,  // measure 131
0000
0001
1000
0000
0100
0000
0010
0000
,  // measure 132
0001
0000
0100
0000
0010
0000
1000
0001
,  // measure 133
0000
1000
0010
0000
0100
0000
0001
0000
,  // measure 134
0010
0000
0100
0000
1000
0000
0010
1000
,  // measure 135
0000
0100
0001
0000
1000
0000
0010
0000
,  // measure 136
1010
0000
0001
0010
0000
1000
0010
0000
,  // measure 137
1001
0000
0010
0010
0010
0000
0000
0000
;

//---------------dance-single - ---------------
#NOTEDATA:;
#CHARTNAME:;
#CHARTSTYLE:;
#CREDIT:Sparks;
#STEPSTYPE:dance-single;
#DESCRIPTION:;
#DIFFICULTY:Easy;
#METER:8;
#METERF:8;
#RADARVALUES:0,0,0,0,0;
#NOTES:
// measure 0
0000
0000
0000
0000
,  // measure 1
0000
0000
0000
0000
,  // measure 2
0000
0000
0000
0000
,  // measure 3
0000
0000
0000
0000
,  // measure 4
1000
0000
0010
0000
1000
0000
0000
0001
,  // measure 5
0000
0100
0001
0001
,  // measure 6
1000
0000
0100
0000
1000
0000
0000
0001
,  // measure 7
0000
0010
0100
1000
,  // measure 8
0001
0000
0100
0000
0001
0000
0000
1000
,  // measure 9
0000
0010
0100
0100
,  // measure 10
0001
0000
0000
0001
0000
0000
0001
0000
,  // measure 11
1000
0000
0000
0000
,  // measure 12
1000
1000
0100
0100
,  // measure 13
0010
0001
1000
0010
,  // measure 14
0100
0001
0100
0020
,  // measure 15
0000
0000
0000
0030
,  // measure 16
1000
0100
0010
0001
,  // measure 17
0010
0100
1000
0010
,  // measure 18
0100
0000
0000
0001
0000
1000
0000
0100
,  // measure 19
0000
1000
0001
0000
0100
0000
0000
0000
,  // measure 20
0001
0001
1000
1000
,  // measure 21
0010
0100
0001
1000
,  // measure 22
0100
0010
0100
1000
,  // measure 23
0001
0001
0001
0010
,  // measure 24
0001
0100
0010
1000
,  // measure 25
0100
0010
0001
0010
,  // measure 26
0100
0000
1000
0000
0001
0000
0100
0001
,  // measure 27
0000
1000
0000
0010
1000
0000
0000
0000
,  // measure 28
0001
0010
0100
0000
,  // measure 29
1000
0010
0110
0000
,  // measure 30
0001
1000
0100
0000
,  // measure 31
1000
0001
0101
0000
,  // measure 32
0001
0100
0001
0010
,  // measure 33
0001
1000
0100
1000
,  // measure 34
0010
0000
0010
0000
0100
0000
0100
0010
,  // measure 35
0000
0100
0110
0000
,  // measure 36
0001
0100
0010
1000
,  // measure 37
0100
1000
0010
1000
,  // measure 38
0001
0100
0010
2000
,  // measure 39
0000
0000
0000
3000
,  // measure 40
0001
0100
0001
0010
,  // measure 41
0100
0010
0001
1000
,  // measure 42
0100
0000
0000
0100
0000
0000
0010
0000
,  // measure 43
0000
0010
0000
0000
1001
0000
0000
0000
,  // measure 44
0001
0100
0010
0100
,  // measure 45
0001
0010
0100
1000
,  // measure 46
0010
1000
0001
0020
,  // measure 47
0000
0000
0000
0030
,  // measure 48
0001
1000
0100
1000
,  // measure 49
0001
1000
0001
0100
,  // measure 50
0010
0000
0000
0010
0000
0000
1000
0000
,  // measure 51
0000
1000
0000
0000
1010
0000
0000
0000
,  // measure 52
0001
0000
1000
0000
0001
0000
0010
0001
,  // measure 53
0000
0001
0000
0001
0100
0000
0000
0000
,  // measure 54
0010
0000
0001
0000
1000
0000
0010
2000
,  // measure 55
0000
0100
3100
0000
,  // measure 56
0010
0000
0001
0000
0100
0000
0010
1000
,  // measure 57
0000
1000
0000
1000
0100
0000
1000
0000
,  // measure 58
0010
0000
1000
0000
0001
0000
0100
0020
,  // measure 59
0000
1000
1030
0000
,  // measure 60
2000
0000
0000
0000
0000
0000
0000
0010
,  // measure 61
0000
0010
0010
0000
,  // measure 62
0002
0000
0000
0000
3000
0000
0000
1000
,  // measure 63
0000
1000
1000
0000
,  // measure 64
0020
0000
0000
0000
0003
0000
0000
0100
,  // measure 65
0000
0100
0100
0000
,  // measure 66
0002
0000
0000
0000
0030
0000
0000
1000
,  // measure 67
0000
1000
1003
0000
,  // measure 68
1000
0010
1000
0000
,  // measure 69
0001
0100
0101
0000
,  // measure 70
0010
0001
0010
0000
,  // measure 71
0100
1000
1100
0000
,  // measure 72
1000
0010
0100
0001
,  // measure 73
0010
0100
1000
0001
,  // measure 74
0010
0001
0100
0001
,  // measure 75
0000
0000
0000
0000
,  // measure 76
1000
0100
1000
0010
,  // measure 77
0100
0001
0010
0001
,  // measure 78
1000
1000
0001
0001
,  // measure 79
1000
0001
1001
0000
,  // measure 80
0010
0100
1000
0010
,  // measure 81
0100
0001
0100
0010
,  // measure 82
1000
0001
0100
0020
,  // measure 83
0000
0000
0000
0030
,  // measure 84
1000
0001
0010
0100
,  // measure 85
1000
0001
0100
0001
,  // measure 86
1000
0000
0000
1000
0000
0000
0001
0000
,  // measure 87
0000
0001
0000
0000
1000
0000
0001
0000
,  // measure 88
1000
0100
0010
0100
,  // measure 89
1000
0001
0100
0010
,  // measure 90
1000
0001
0100
0002
,  // measure 91
0000
0000
0000
0003
,  // measure 92
0010
0100
0010
0001
,  // measure 93
1000
0010
0100
0001
,  // measure 94
1000
0000
0000
1000
0000
0000
0010
0000
,  // measure 95
0000
0010
0000
0000
0100
0000
0000
0000
,  // measure 96
0001
0000
0000
0000
0000
0000
0000
1000
,  // measure 97
0000
0100
1000
0000
,  // measure 98
0001
0000
0000
0000
0000
0000
0000
0100
,  // measure 99
0000
0001
1000
0000
,  // measure 100
0010
0010
0010
0010
,  // measure 101
0100
0001
1000
0100
,  // measure 102
0010
0100
0010
0200
,  // measure 103
0000
1000
1300
0000
,  // measure 104
0000
0001
0000
0100
,  // measure 105
0000
1000
0000
0010
,  // measure 106
0000
0001
0000
0010
,  // measure 107
0000
1000
0000
0100
,  // measure 108
0000
0010
0000
0001
,  // measure 109
0000
1000
0000
0010
,  // measure 110
0010
0000
0000
0010
0000
0000
0010
0000
,  // measure 111
0110
0000
0000
0000
,  // measure 112
1000
0001
1000
0100
,  // measure 113
0010
0001
1000
0100
,  // measure 114
1000
0010
0100
0002
,  // measure 115
0000
0000
0000
0003
,  // measure 116
0100
0001
0010
0100
,  // measure 117
0010
0001
0010
0100
,  // measure 118
1000
0000
0000
1000
0000
0000
0001
0000
,  // measure 119
0000
0001
0000
0000
1001
0000
0000
0000
,  // measure 120
0100
0000
0000
0100
0000
0000
0010
0000
,  // measure 121
0000
0010
0000
0000
0110
0000
0000
0000
,  // measure 122
1000
0000
0010
0000
1000
0000
0001
1000
,  // measure 123
0000
0001
0001
0000
,  // measure 124
0010
0000
0100
0000
1000
0000
0001
0010
,  // measure 125
0000
0001
0001
0000
,  // measure 126
0100
0000
0010
0000
1000
0000
0010
1000
,  // measure 127
0000
0001
0001
0000
,  // measure 128
0010
0000
0000
0100
0000
0000
1000
0000
,  // measure 129
0010
0100
2001
0000
,  // measure 130
3010
0000
0100
0000
0001
0000
1000
0001
,  // measure 131
0000
1000
1000
0000
,  // measure 132
0100
0000
0010
0000
0001
0000
0100
0001
,  // measure 133
0000
0010
0010
0001
,  // measure 134
0100
0000
0010
0000
1000
0000
0001
1000
,  // measure 135
0000
0100
0100
1000
,  // measure 136
0100
0000
0000
0100
0000
0000
0100
0000
,  // measure 137
0010
0001
1000
0000
;
