#TITLE:derealization;
#SUBTITLE:;
#ARTIST:Bloody Mercury;
#TITLETRANSLIT:;
#SUBTITLETRANSLIT:;
#ARTISTTRANSLIT:;
#GENRE:;
#CREDIT:;
#MUSIC:Bloody Mercury - derealization.ogg;
#BANNER:derealization-bn.png;
#BACKGROUND:derealization-bg.png;
#CDTITLE:;
#SAMPLESTART:39.669;
#SAMPLELENGTH:14.256;
#SELECTABLE:YES;
#OFFSET:0.008;
#BPMS:0.000=60.500
,32.000=242.000
,64.000=121.000
,65.000=242.000
,81.000=60.500
,84.500=242.000
,98.500=121.000
,99.500=242.000
,113.500=60.500
,114.000=242.000
,242.000=247.000
,246.000=249.500
,250.000=252.000
,254.000=254.500
,258.000=259.500
,262.000=262.000
,266.000=265.000
,270.000=270.000
,274.000=280.000
,278.000=285.000
,282.000=290.000
,286.000=295.000
,290.000=300.000
,294.000=305.000
,298.000=310.000
,302.000=315.000
,306.000=320.000
,310.000=330.000
,314.000=340.000
,318.000=345.000
,322.000=350.000
,326.000=355.000
,330.000=360.000
,334.000=365.000
,338.000=370.000
,342.000=375.000
,346.000=380.000
,350.000=385.000
,354.000=390.000
,358.000=395.000
,362.000=400.000
,370.000=405.000
,378.000=410.000
,386.000=415.000
,394.000=420.000
,402.000=482.000
,403.417=420.000
,406.000=410.000
,408.000=405.000
,410.000=400.000
,412.000=395.000
,414.000=390.000
,416.000=385.000
,418.000=380.000
,420.000=375.000
,422.000=370.000
,424.000=365.000
,426.000=360.000
,428.000=355.000
,430.000=330.000
,434.000=320.000
,436.000=315.000
,438.000=310.000
,440.000=305.000
,442.000=300.000
,444.000=295.000
,446.000=290.000
,448.000=285.000
,450.000=270.000
,452.000=265.000
,454.000=260.000
,456.000=255.000
,458.000=250.000
,460.000=245.000
,462.000=240.000
,464.000=235.000
,466.000=115.000
,470.000=57.500
,472.000=28.750
,473.000=14.375
,473.500=7.188
;
#STOPS:;
#DISPLAYBPM:*;
#BGCHANGES:;
#FGCHANGES:;

//--------------- dance-single - Sparks ----------------
#NOTES:
     dance-single:
     Sparks:
     Hard:
     16:
     0,0,0,0,0:
1000
0000
0001
0010
0100
1000
0001
0000
0100
0001
0000
0010
,
0001
0000
0100
0010
0000
1000
0010
0000
0000
0010
0000
0001
,
0010
0000
0000
0000
0001
0000
0100
0000
0010
0000
1000
0000
0100
0000
0000
1000
0010
0000
0100
0000
0000
0000
0001
0000
,
0010
0000
0000
0000
0000
0000
0000
0000
0100
0000
0000
0000
0001
0000
0000
0000
0000
0000
0000
0000
1000
0000
0000
0000
0200
0000
0000
0000
0000
0000
0000
0000
0000
0000
0000
0000
0010
0000
0000
0000
0000
0000
0010
0000
0000
0300
0000
0000
,
0010
0000
0100
0000
0000
0001
0000
0000
0100
0000
1000
0000
0000
0010
0000
0000
0100
0000
0001
0000
0000
0100
0000
0000
0010
0000
1000
0000
0000
0001
0000
0000
,
0010
0000
0100
0000
0000
1000
0000
0000
0100
0000
0010
0000
0000
0001
0000
0000
0101
0000
0000
0000
0000
0000
0000
0000
1100
0000
0000
0000
1001
0000
0000
0000
,
0100
0000
0001
0000
0000
0010
0000
0000
1000
0000
0010
0000
0000
0100
0000
0000
0001
0000
1000
0000
0000
0010
0000
0000
0001
0000
0010
0000
0000
1000
0000
0000
,
0100
0000
0010
0000
0000
0001
0000
0000
0100
0000
0010
0000
0000
1000
0000
0000
0002
0000
1000
0000
0000
0000
0000
0000
0010
0000
0010
0000
0010
0000
0013
0000
,
0001
1000
0100
0010
0001
0100
0010
1000
,
0001
0100
0001
0010
0001
0100
0010
1000
,
1010
0101
2010
3001
,
0011
1100
0011
1100
,
1000
0001
0100
0001
0010
0100
1000
0000
,
0001
0100
0010
0100
0001
0010
0100
1000
,
1000
0001
0010
0100
1000
0020
0100
0000
,
0001
0030
0001
0010
1000
0100
0001
0000
,
0010
0010
0001
0100
0010
0100
0001
0010
,
0100
1000
0100
0010
0100
1000
0001
0010
,
0100
0010
0010
0000
1100
0000
0011
0000
,
1010
0101
1010
0100
,
0100
0000
0000
0000
0000
0000
0000
0000
0010
0000
0100
0100
0100
0000
0001
0000
1000
0000
0100
0000
0011
0000
0110
0000
1100
0000
0010
0000
1000
0000
0100
0000
,
0000
1000
0100
1000
0010
1000
0100
0010
,
0001
0100
0010
0100
0001
0100
0010
1000
,
0001
0021
0030
1002
0003
0210
0300
1020
,
0030
0000
2100
0000
3100
0000
1000
0000
0002
0000
0010
0000
0010
0003
0001
0000
,
0100
0010
1000
0100
0010
0001
1000
0010
,
0001
0010
1000
0010
0001
0010
0100
0210
,
0300
0102
0003
0021
0030
1020
0030
0201
,
0300
1001
0001
0021
0031
0100
0010
0001
,
0010
0100
0001
0010
0100
1000
0100
0010
,
0100
1000
0100
0010
0010
0001
0010
0001
,
0010
1000
0010
1000
0010
0001
0100
0010
,
1000
0010
0100
0000
0001
1000
0100
1000
,
0001
0100
0001
1000
0010
0100
0001
1000
,
0010
1000
0100
0010
0010
0001
0100
1000
,
0100
0001
0010
1000
0010
0000
0100
0000
,
0220
0000
0000
0030
1000
1000
1000
0000
,
0001
0001
0001
0000
0010
0010
0310
0000
,
0110
0100
0110
0000
0011
0100
1000
0000
,
1010
0100
0001
0000
1100
0001
0010
0000
,
0110
0001
1000
0000
1100
0100
1100
0000
,
0011
0010
0011
0000
0110
0100
0110
0000
,
1001
0010
1001
0000
1010
0010
0100
0001
,
1001
1000
0100
0010
0011
0001
0100
0010
,
0110
0100
0001
1000
0100
0000
0010
0000
,
0100
1000
0010
0000
0100
0010
1000
0000
,
0001
0000
0100
0001
0010
1000
0010
0100
1000
0000
0000
0000
0010
0000
0000
0000
,
1000
0100
0001
0000
1000
0010
0001
0000
,
0010
0000
0100
1000
0010
0100
0001
0010
0100
0000
0000
0000
1000
0000
0000
0000
,
0100
0010
0001
0000
1000
0010
0100
0000
,
0010
0000
0100
0001
0010
0100
0010
0001
0100
0000
0010
0000
1000
0000
0100
0000
,
1100
0110
0011
1001
,
1010
0000
0000
0000
0000
0000
0000
0000
0000
0000
0000
0000
0110
0000
0000
0000
0000
0000
0000
0000
0000
0000
0000
0000
0001
0000
0000
0000
0000
0000
0000
0000
0000
0000
0000
0000
0000
0000
0000
0000
0000
0001
0000
0000
0000
0000
0000
0000
,
0000
0000
0000
0000
0000
0000
0000
0000
0000
0000
0000
0000
0000
0000
0000
0000
0000
0000
0000
0000
0000
0000
0000
0000
0001
0000
0000
0000
0000
0000
0000
0000
0000
0000
0000
0000
0000
0000
0000
0000
0000
0001
0000
0000
0000
0000
0000
0000
,
0000
0000
0000
0000
0000
0000
0000
0000
0000
0000
0000
0000
0000
0000
0000
0000
0000
0000
0000
0000
0000
0000
0000
0000
0001
0000
0000
0000
0000
0000
0000
0000
0000
0000
0000
0000
0000
0000
0000
0000
0000
0001
0000
0000
0000
0000
0000
0000
,
0000
0000
0000
0000
0000
0000
0000
0000
0000
0000
0000
0000
0000
0000
0000
0000
0000
0000
0000
0000
0000
0000
0000
0000
0001
0000
0000
0000
0000
0000
0000
0000
0000
0000
0000
0000
0000
0000
0000
0000
0000
0001
0000
0000
0000
0000
0000
0000
,
0000
0000
0000
0000
0010
1000
0010
0000
,
0100
0001
0010
0001
1000
0010
1000
0000
,
0001
0010
0100
1000
0010
1000
0010
0000
,
0100
0001
0010
0001
1000
0010
1000
0000
,
0100
1000
0001
0010
0001
0000
0100
0000
,
0010
0100
0001
1000
,
0100
0010
0011
1000
,
0010
0100
1000
0100
,
0010
1000
1010
0001
,
0100
0010
1000
0100
,
0001
0100
0110
1000
,
0010
0100
0010
1000
,
0001
0010
0011
0011
,
1001
1001
1010
1001
,
0101
1001
1100
0110
,
0011
1010
0101
0110
,
1010
0101
0011
0011
,
1000
0100
1000
0000
0001
0100
0001
0000
,
1000
0010
1000
0000
0101
0000
0101
0000
,
0010
0001
0010
0000
0100
1000
0100
0000
,
1000
0010
1000
0000
0001
0200
0010
0000
,
0000
0300
0100
0000
0001
0020
1000
0000
,
0000
0030
0010
0000
0001
2000
0010
0000
,
0000
3000
1000
0000
0001
0200
0010
0000
,
0000
0300
0100
0000
0001
0010
0001
0000
,
0000
0000
1000
0000
1000
0100
1000
0000
,
0000
0000
0010
0000
0010
0100
0001
0100
,
0001
0100
0001
0100
0001
0010
0100
1000
,
0100
0010
0001
0000
2200
0000
0000
3300
,
1000
0000
0001
0000
0202
0000
0000
0303
,
0010
0000
1000
0000
2002
0000
0000
3003
,
0010
0000
0100
0000
2200
0000
0000
3300
,
0010
0000
1000
0000
0202
0000
0000
0303
,
1000
0000
0100
0000
2200
0000
0000
3300
,
0001
0000
0000
0000
0000
0000
0000
0000
0000
0000
0000
0000
0010
0000
0000
0000
0000
0000
0000
0000
0000
0000
0000
0000
0100
0000
0000
0000
0000
0000
0000
0000
0000
0000
0000
0000
0000
0000
0000
0000
0000
1100
0000
0000
0000
0000
0000
0000
,
0000
0000
0000
0000
0000
0000
0000
0000
0000
0000
0000
0000
0000
0000
0000
0000
0000
0000
0000
0000
0000
0000
0000
0000
0010
0000
0000
0000
0000
0000
0000
0000
0000
0000
0000
0000
0000
0000
0000
0000
0000
0110
0000
0000
0000
0000
0000
0000
,
0000
0000
0000
0000
0000
0000
0000
0000
0000
0000
0000
0000
0000
0000
0000
0000
0000
0000
0000
0000
0000
0000
0000
0000
0100
0000
0000
0000
0000
0000
0000
0000
0000
0000
0000
0000
0000
0000
0000
0000
0000
1001
0000
0000
0000
0000
0000
0000
,
0000
0000
0000
0000
0000
0000
0000
0000
0000
0000
0000
0000
0000
0000
0000
0000
0000
0000
0000
0000
0000
0000
0000
0000
0010
0000
0000
0000
0000
0000
0000
0000
0000
0000
0000
0000
0000
0000
0000
0000
0000
1001
0000
0000
0000
0000
0000
0000
,
0000
0000
0000
0000
0000
0000
0000
0000
0000
0000
0000
0000
0000
0000
0000
0000
0000
0000
0000
0000
0000
0000
0000
0000
0202
0000
0000
0000
0000
0000
0000
0000
0000
0303
0000
0000
0000
0000
0000
0000
0000
0022
0000
0000
0000
0000
0000
0000
,
0000
0000
0000
0000
0000
0000
0000
0000
0000
0000
0000
0000
0000
0000
0000
0000
0000
0033
0000
0000
0000
0000
0000
0000
0202
0000
0000
0000
0000
0000
0000
0000
0000
0303
0000
0000
0000
0000
0000
0000
0000
2020
0000
0000
0000
0000
0000
0000
,
0000
0000
0000
0000
0000
0000
0000
0000
0000
0000
0000
0000
0000
0000
0000
0000
0000
3030
0000
0000
0000
0000
0000
0000
2200
0000
0000
0000
0000
0000
0000
0000
0000
3300
0000
0000
0000
0000
0000
0000
0000
0022
0000
0000
0000
0000
0000
0000
,
0000
0000
0000
0000
0000
0000
0000
0000
0000
0000
0000
0000
0000
0000
0000
0000
0000
0033
0000
0000
0000
0000
0000
0000
2020
0000
0000
0000
0000
0000
0000
0000
0000
3030
0000
0000
0000
0000
0000
0000
0000
0220
0000
0000
0000
0000
0000
0000
,
0000
0000
0000
0000
0000
0000
0000
0000
0000
0000
0000
0000
0000
0000
0000
0000
0000
0330
0000
0000
0000
0000
0000
0000
2002
0000
0000
0000
0000
0000
0000
0000
0000
3003
0000
0000
0000
0000
0000
0000
0000
0022
0000
0000
0000
0000
0000
0000
,
0000
0000
0000
0000
0000
0000
0000
0000
0000
0000
0000
0000
0000
0000
0000
0000
0000
0033
0000
0000
0000
0000
0000
0000
2200
0000
0000
0000
0000
0000
0000
0000
0000
3300
0000
0000
0000
0000
0000
0000
0000
0022
0000
0000
0000
0000
0000
0000
,
0000
0000
0000
0000
0000
0000
0000
0000
0000
0000
0000
0000
0000
0000
0000
0000
0000
0003
0000
0000
0000
0000
0000
0000
0100
0000
0000
0000
0000
0000
0000
0000
0000
0000
0000
0000
0000
0000
0000
0000
0000
0100
0000
0000
0000
0000
0000
0000
,
0000
0000
0000
0000
0000
0000
0000
0000
0000
0000
0000
0000
0000
0000
0000
0000
0000
0000
0000
0000
0000
0000
0000
0000
0001
0000
0000
0000
0000
0000
0000
0000
0000
0000
0000
0000
0000
0000
0000
0000
0000
0001
0000
0000
0000
0000
0000
0000
,
0000
0000
0000
0000
0000
0000
0000
0000
0000
0000
0000
0000
0000
0000
0000
0000
0000
0000
0000
0000
0000
0000
0000
0000
1000
0000
0000
0000
0000
0000
0000
0000
0000
0000
0000
0000
0000
0000
0000
0000
0000
1000
0000
0000
0000
0000
0000
0000
,
0000
0000
0000
0000
0000
0000
0000
0000
0000
0000
0000
0000
0000
0000
0000
0000
0000
0000
0000
0000
0000
0000
0000
0000
0001
0000
0000
0000
0000
0000
0000
0000
0000
0000
0000
0000
0000
0000
0000
0000
0000
1000
0000
0000
0000
0000
0000
0000
,
0000
0000
0000
0000
0000
0000
0000
0000
0000
0000
0000
0000
0000
0000
0000
0000
0000
0000
0000
0000
0000
0000
0000
0000
1000
0000
0000
0000
0000
0000
0000
0000
0000
0000
0000
0000
0000
0000
0000
0000
0000
0001
0000
0000
0000
0000
0000
0000
,
0000
0000
0000
0000
0000
0000
0000
0000
0000
0000
0000
0000
0000
0000
0000
0000
0000
0000
0000
0000
0000
0000
0000
0000
0100
0000
0000
0000
0000
0000
0000
0000
0000
0000
0000
0000
0000
0000
0000
0000
0000
1000
0000
0000
0000
0000
0000
0000
,
0000
0000
0000
0000
0000
0000
0000
0000
0000
0000
0000
0000
0000
0000
0000
0000
0000
0000
0000
0000
0000
0000
0000
0000
0100
0000
0000
0000
0000
0000
0000
0000
0000
0000
0000
0000
0000
0000
0000
0000
0000
0001
0000
0000
0000
0000
0000
0000
,
0000
0000
0000
0000
0000
0000
0000
0000
0000
0000
0000
0000
0000
0000
0000
0000
0000
0000
0000
0000
0000
0000
0000
0000
1000
0000
0000
0000
0000
0000
0000
0000
0000
0000
0000
0000
0000
0000
0000
0000
0000
0001
0000
0000
0000
0000
0000
0000
,
0000
0000
0000
0000
0000
0000
0000
0030
0100
0000
0000
0000
1000
0000
0000
0000
,
0010
0100
0001
1000
,
0010
0100
0001
0010
,
0100
1000
0010
0100
,
0010
1000
0100
0010
,
0100
1000
0100
0010
,
0100
1000
0100
0010
,
0001
0010
0100
0010
,
0001
0010
1100
0010
,
1100
0000
0010
0000
1001
0100
1001
0100
,
0011
0000
0100
0000
1001
0000
0010
0000
1100
1001
0101
1001
2200
0000
0000
3300
0000
0000
0000
0000
0000
0000
0000
0000
0000
0000
0000
0000
0000
0000
0000
0000
;

//--------------- dance-single - Sparks ----------------
#NOTES:
     dance-single:
     Sparks:
     Challenge:
     18:
     0.776959,1.647037,0.538908,0.205636,0.329726,767,691,76,29,0,0,0.776959,1.647037,0.538908,0.205636,0.329726,767,691,76,29,0,0:
1000
0000
0001
0100
0010
1000
0100
0000
0001
0010
0000
1000
,
0010
0000
0100
0010
0000
0100
0001
0000
0000
0100
0000
0010
,
0010
0000
0000
0000
1000
0000
0001
0000
0010
0000
0100
0000
1000
0000
0000
0010
0100
0000
0001
0000
0000
0000
0010
0000
,
0001
0000
0000
0000
1000
0000
0100
0000
0000
0000
0010
0000
1000
0000
0000
0000
0000
0000
0110
0000
0000
1010
0000
0000
,
1002
0000
0023
0000
0000
0100
0030
0000
0012
0000
2003
0000
0000
0100
3000
0000
2010
0000
3002
0000
0000
0010
0003
0000
2100
0000
3002
0000
0000
1000
0003
0000
,
0201
0000
0320
0000
0000
1000
0030
0000
1002
0000
0023
0000
0000
0100
0030
0000
1001
0000
0000
0000
0000
0000
0000
0000
1001
0000
0000
0000
0011
0000
0000
0000
,
0210
0000
1000
0300
0002
0100
0000
0003
1020
0000
0100
0030
0002
0010
0000
0003
1200
0000
0010
0300
0002
0100
0000
0003
2001
0000
0100
3000
0020
0001
0000
0030
,
2100
0000
0001
3000
0200
0010
0000
0300
2010
0000
0100
3000
2000
0010
0000
3000
0001
0000
0002
0000
0000
0000
0000
0000
0010
0000
0010
0000
0010
0000
0013
0000
,
0010
0100
0010
0001
0010
0100
1000
0100
,
0010
0001
1000
0001
0010
0100
1000
0010
,
0010
0100
0010
1000
0010
0100
0001
0010
,
0100
1000
0100
0010
0001
0010
0100
0010
,
0011
1100
0011
1001
,
0101
0000
1010
0000
0101
0000
1000
0010
,
1010
1100
1010
1100
,
0101
0000
1100
0010
0001
0020
1000
0000
,
0001
0031
0001
0010
0001
0100
0001
0010
,
0100
0010
0001
1000
0100
0010
0001
1000
,
0001
0010
0010
0001
0100
0010
1000
0001
,
0100
0001
1000
0010
0100
0001
1000
0100
,
1000
0000
0000
0000
0100
0000
0000
0000
0010
0000
0001
1000
0100
0000
1010
0000
0011
0000
0100
0000
1001
0000
0110
0000
1002
0000
0010
0000
0010
0000
0103
0000
,
0000
1000
0010
0100
0010
1000
0001
0010
,
0100
1000
0010
0001
0010
0100
0001
1000
,
0100
0100
0001
0100
1000
0010
0100
0001
,
1000
2100
3001
0102
0013
0001
0001
0010
,
0001
0100
0010
0001
0010
1000
0001
0010
,
1000
0010
0001
0100
1000
0001
0010
0010
,
0100
0001
0010
0100
0001
0100
1000
1020
,
0130
0000
0000
0000
0201
0000
0000
0000
0310
0000
0000
0000
0001
0010
2000
0000
0001
0000
3000
0000
0010
0000
0000
0000
0100
0000
0000
0000
1000
0000
0000
0000
,
0010
0100
0001
1000
0010
1000
0001
1000
,
0100
1000
0010
0100
0100
0001
0010
1000
,
0001
0100
1000
0001
1000
0010
0100
0001
,
1000
0100
1000
0000
0010
0100
0001
0010
,
0100
0001
0100
0010
0001
0100
0010
0001
,
1000
0100
0001
0010
0010
1000
0010
0001
,
1000
0010
0100
0001
0010
0000
0001
0000
,
2002
0000
3003
0000
1000
0010
1000
0010
,
0100
0001
0100
0001
0010
1000
0010
1000
,
0010
0001
0010
0001
1100
0001
1000
0001
,
1010
0100
0001
0100
1001
0100
0010
0100
,
1001
1000
0010
0000
0001
0100
0001
0100
,
2000
3000
0001
0000
0020
0030
0100
0000
0001
0000
0010
0000
0001
0000
0010
0000
,
0200
0300
1000
0000
0020
0030
0001
0000
1000
0000
0100
0000
1000
0000
0100
0000
,
0020
0030
1000
0000
0200
0300
0001
0000
1000
0000
0010
0000
1000
0000
0010
0000
,
0200
0300
1000
0000
0020
0030
0100
0000
1000
0000
0000
0000
0100
0000
0000
0000
,
0001
0100
0010
0000
0001
0010
0100
0000
,
0001
0000
0010
0001
1000
0010
0001
1000
0100
0000
0000
0000
0001
0000
0000
0000
,
1000
0010
0100
0000
1000
0100
0010
0000
,
1000
0000
0100
0010
0001
0100
0010
0001
1000
0000
0000
0000
0100
0000
0000
0000
,
0001
0010
0100
0000
0001
0010
1000
0000
,
0001
0000
0010
0001
0100
0010
0001
0010
0100
0000
1000
0000
0100
0000
0010
0000
,
1010
1100
0110
0011
,
0101
0000
0000
0000
0000
0000
0000
0000
0000
0000
0000
0000
0110
0000
0000
0000
0000
0000
0000
0000
0000
0000
0000
0000
1000
0000
0000
0000
0000
0000
0000
0000
0000
0000
0000
0000
0000
0000
0000
0000
0000
1000
0000
0000
0000
0000
0000
0000
,
0000
0000
0000
0000
0000
0000
0000
0000
0000
0000
0000
0000
0000
0000
0000
0000
0000
0000
0000
0000
0000
0000
0000
0000
1000
0000
0000
0000
0000
0000
0000
0000
0000
0000
0000
0000
0000
0000
0000
0000
0000
1000
0000
0000
0000
0000
0000
0000
,
0000
0000
0000
0000
0000
0000
0000
0000
0000
0000
0000
0000
0000
0000
0000
0000
0000
0000
0000
0000
0000
0000
0000
0000
1000
0000
0000
0000
0000
0000
0000
0000
0000
0000
0000
0000
0000
0000
0000
0000
0000
1000
0000
0000
0000
0000
0000
0000
,
0000
0000
0000
0000
0000
0000
0000
0000
0000
0000
0000
0000
0000
0000
0000
0000
0000
0000
0000
0000
0000
0000
0000
0000
1000
0000
0000
0000
0000
0000
0000
0000
0000
0000
0000
0000
0000
0000
0000
0000
0000
1000
0000
0000
0000
0000
0000
0000
,
0000
0000
0000
0000
1000
0100
1000
0001
,
0100
0001
0010
0001
1000
0010
1000
0001
,
0100
0001
0010
0001
1000
0100
1000
0001
,
0100
0001
0010
0001
1000
0010
1000
0001
,
0100
0001
0010
0001
2001
0000
3020
0000
,
0230
0302
0023
0032
,
0203
0310
0101
2000
,
3020
0230
0302
0023
,
0230
1300
0110
0002
,
0203
2300
3002
0023
,
2030
3200
0302
0203
,
2300
3020
0032
0023
,
2030
0000
3200
0000
0310
0100
0001
0100
,
0001
0100
0001
0000
0010
0100
1000
0100
,
1000
0100
1000
0000
0010
1000
0001
1000
,
0100
0010
0001
0000
1000
0001
0100
0001
,
1000
0010
0100
0000
0001
0010
0100
1000
,
0010
0100
0001
0000
1000
0100
0010
0001
,
0100
0010
1000
0000
0010
0100
0010
1000
,
0010
0100
0001
0000
1000
0010
0001
0010
,
1000
0010
0100
0000
0010
0100
0001
0010
,
0001
0100
0010
0000
1000
0100
0010
0100
,
1000
0001
0100
0000
0001
1000
0100
1000
,
0010
0100
0001
0000
0010
1000
0010
0001
,
0100
0010
1000
0000
0010
0100
0001
0010
,
0100
0001
0100
0000
0010
0100
1000
0010
,
0100
1000
0100
0000
0101
0000
0101
0000
,
0101
1001
1100
0011
,
1010
0000
1100
0000
0010
0100
0001
0000
,
0100
0000
0010
0000
1000
0100
0010
0000
,
0100
0000
1000
0000
0001
1000
0010
0000
,
1000
0000
0001
0000
0100
0001
0010
0000
,
0100
0000
1000
0000
0001
0010
0100
0000
,
0010
0000
0001
0000
0100
0001
1000
0000
,
0010
0000
0000
0000
0000
0000
0000
0000
0000
0000
0000
0000
2000
0000
0000
0000
0000
0000
0000
0000
0000
0000
0000
0000
0100
0000
0000
0000
0000
0000
0000
0000
0000
0000
0000
0000
0000
0000
0000
0000
0000
0002
0000
0000
0000
0000
0000
0000
,
3000
0000
0000
0000
0000
0000
0000
0000
0000
0000
0000
0000
0000
0010
0000
0000
0000
0000
0003
0000
0000
0000
0000
0000
0200
0000
0000
0000
0000
0000
0000
0000
0000
0000
0000
0000
0000
0000
0000
0000
0000
1000
0000
0000
0000
0000
0000
0000
,
0000
0000
0000
0000
0000
0000
0000
0000
0000
0000
0000
0000
0000
0001
0000
0000
0000
0000
0300
0000
0000
0000
0000
0000
0200
0000
0000
0000
0000
0000
0000
0000
0000
0000
0000
0000
0000
0000
0000
0000
0000
2000
0300
0000
0000
0000
0000
0000
,
0000
0000
0000
0000
0000
0000
0000
0000
0000
0000
0000
0000
0000
0020
0000
0000
0000
0000
3000
0000
0000
0000
0000
0000
0100
0000
0000
0000
0000
0000
0000
0000
0000
0000
0000
0000
0000
0000
0000
0000
0000
0001
0000
0000
0000
0000
0000
0000
,
0000
0000
0000
0000
0000
0000
0030
0000
0000
0000
0000
0000
0000
0010
0000
0000
0000
0000
0000
0000
0000
0000
0000
0000
2000
0000
0000
0000
0000
0000
0000
0000
0000
0000
0000
0000
0000
0000
0000
0000
0000
0001
0000
0000
0000
0000
0000
0000
,
0000
0000
0000
0000
0000
0000
3000
0000
0000
0000
0000
0000
0000
0100
0000
0000
0000
0000
0000
0000
0000
0000
0000
0000
0002
0000
0000
0000
0000
0000
0000
0000
0000
0000
0000
0000
0000
0000
0000
0000
0000
0020
0000
0000
0000
0000
0000
0000
,
0000
0000
0000
0000
0000
0000
0003
0000
0000
0000
0000
0000
0000
0100
0000
0000
0000
0000
0030
0000
0000
0000
0000
0000
2000
0000
0000
0000
0000
0000
0000
0000
0000
0000
0000
0000
0000
0000
0000
0000
0000
0010
0000
0000
0000
0000
0000
0000
,
0000
0000
0000
0000
0000
0000
0000
0000
0000
0000
0000
0000
0000
0100
0000
0000
0000
0000
3000
0000
0000
0000
0000
0000
0020
0000
0000
0000
0000
0000
0000
0000
0000
0000
0000
0000
0000
0000
0000
0000
0000
0100
0000
0000
0000
0000
0000
0000
,
0000
0000
0000
0000
0000
0000
0000
0000
0000
0000
0000
0000
0000
0001
0000
0000
0000
0000
0030
0000
0000
0000
0000
0000
2000
0000
0000
0000
0000
0000
0000
0000
0000
0000
0000
0000
0000
0000
0000
0000
0000
0001
0000
0000
0000
0000
0000
0000
,
0000
0000
0000
0000
0000
0000
0000
0000
0000
0000
0000
0000
0000
0010
0000
0000
0000
0000
3000
0000
0000
0000
0000
0000
0200
0000
0000
0000
0000
0000
0000
0000
0000
0000
0000
0000
0000
0000
0000
0000
0000
2000
0000
0000
0000
0000
0000
0000
,
0000
0000
0000
0000
0000
0000
3300
0000
0000
0000
0000
0000
0000
0000
0000
0000
0000
0000
0000
0000
0000
0000
0000
0000
1010
0000
0000
0000
0000
0000
0000
0000
0000
0000
0000
0000
0000
0000
0000
0000
0000
0101
0000
0000
0000
0000
0000
0000
,
0000
0000
0000
0000
0000
0000
0000
0000
0000
0000
0000
0000
0000
0000
0000
0000
0000
0000
0000
0000
0000
0000
0000
0000
1001
0000
0000
0000
0000
0000
0000
0000
0000
0000
0000
0000
0000
0000
0000
0000
0000
1010
0000
0000
0000
0000
0000
0000
,
0000
0000
0000
0000
0000
0000
0000
0000
0000
0000
0000
0000
0000
0000
0000
0000
0000
0000
0000
0000
0000
0000
0000
0000
1100
0000
0000
0000
0000
0000
0000
0000
0000
0000
0000
0000
0000
0000
0000
0000
0000
0101
0000
0000
0000
0000
0000
0000
,
0000
0000
0000
0000
0000
0000
0000
0000
0000
0000
0000
0000
0000
0000
0000
0000
0000
0000
0000
0000
0000
0000
0000
0000
0011
0000
0000
0000
0000
0000
0000
0000
0000
0000
0000
0000
0000
0000
0000
0000
0000
1100
0000
0000
0000
0000
0000
0000
,
0000
0000
0000
0000
0000
0000
0000
0000
0000
0000
0000
0000
0000
0000
0000
0000
0000
0000
0000
0000
0000
0000
0000
0000
1010
0000
0000
0000
0000
0000
0000
0000
0000
0000
0000
0000
0000
0000
0000
0000
0000
1001
0000
0000
0000
0000
0000
0000
,
0000
0000
0000
0000
0000
0000
0000
0000
0000
0000
0000
0000
0000
0000
0000
0000
0000
0000
0000
0000
0000
0000
0000
0000
0101
0000
0000
0000
0000
0000
0000
0000
0000
0000
0000
0000
0000
0000
0000
0000
0000
0101
0000
0000
0000
0000
0000
0000
,
0000
0000
0000
0000
0000
0000
0000
0000
0000
0000
0000
0000
0000
0000
0000
0000
0000
0000
0000
0000
0000
0000
0000
0000
0011
0000
0000
0000
0000
0000
0000
0000
0000
0000
0000
0000
0000
0000
0000
0000
0000
0011
0000
0000
0000
0000
0000
0000
,
0000
0000
0000
0000
0000
0000
0000
0000
0000
0000
0000
0000
0000
0000
0000
0000
0000
0000
0000
0000
0000
0000
0000
0000
1010
0000
0000
0000
0000
0000
0000
0000
0000
0000
0000
0000
0000
0000
0000
0000
0000
1010
0000
0000
0000
0000
0000
0000
,
0000
0000
0001
0100
,
0001
0010
0001
0100
,
0010
1000
0100
1000
,
0010
1000
0100
1000
,
0010
0100
0001
0010
,
0100
1000
0001
0010
,
0100
1000
0001
0010
,
0100
1000
0001
0010
,
0100
0000
1000
0000
0101
0001
0101
0001
,
0101
0000
0001
0000
0101
0000
0001
0000
0110
0100
0110
0100
0110
0100
0110
0100
,
1010
0000
0010
0000
1010
0000
0010
0000
1010
0000
0010
0000
1010
0000
0010
0000
1001
1000
1001
1000
1001
1000
1001
2000
0002
0000
0000
0000
0000
0000
0000
3003
0000
0000
0000
0000
0000
0000
0000
0000
0000
0000
0000
0000
0000
0000
0000
0000
0000
0000
0000
0000
0000
0000
0000
0000
0000
0000
0000
0000
0000
0000
0000
0000
;
