#VERSION:0.83;
#TITLE:all i want is you;
#SUBTITLE:;
#ARTIST:Rebzyyx;
#TITLETRANSLIT:;
#SUBTITLETRANSLIT:;
#ARTISTTRANSLIT:;
#GENRE:;
#CREDIT:;
#MUSIC:all i want is you.ogg;
#BANNER:all i want is you-bn.png;
#BACKGROUND:all i want is you-bg.png;
#JACKET:all i want is you-jacket.png;
#DISCIMAGE:;
#CDIMAGE:full size cover art.png;
#SELECTABLE:YES;
#LYRICSPATH:;
#CDTITLE:;
#SAMPLESTART:32.655998;
#SAMPLELENGTH:13.151000;
#OFFSET:0.002;
#BPMS:0.000000=183.000000,
17.500000=145.880005
;
#STOPS:;
#WARPS:;
#DELAYS:;
#SPEEDS:0.000000=1.000000=0.000000=0;
#SCROLLS:0.000000=1.000000;
#TICKCOUNTS:0.000000=4;
#TIMESIGNATURES:0.000000=4=4;
#LABELS:0.000000=Song Start;
#COMBOS:0.000000=1;
#FAKES:;
#BGCHANGES:0=all i want is you.mp4=0.000000=1=0=0=StretchNoLoop==CrossFade==,
99999=-nosongbg-=1.000000=0=0=0=====
;
#FGCHANGES:;
#ATTACKS:;
#PREVIEWVID:;
#KEYSOUNDS:;

//---------------dance-single - ---------------
#NOTEDATA:;
#CHARTNAME:;
#CHARTSTYLE:;
#CREDIT:Sparks;
#STEPSTYPE:dance-single;
#DESCRIPTION:;
#DIFFICULTY:Hard;
#METER:15;
#METERF:15;
#RADARVALUES:0.694912,0.767949,0.346356,0.169330,0.377144,632.000000,587.000000,45.000000,22.000000,2.000000,0.000000,0.000000,0.000000,0.000000,0.694912,0.767949,0.346356,0.169330,0.377144,632.000000,587.000000,45.000000,22.000000,2.000000,0.000000,0.000000,0.000000,0.000000;
#NOTES:
// measure 0
0000
0000
0000
0000
,  // measure 1
0000
0000
0000
0000
,  // measure 2
1000
2000
0010
0000
,  // measure 3
0000
3200
0000
1000
0000
1000
0000
0010
,  // measure 4
0000
0000
0010
0000
0000
0000
0310
0000
0000
0000
0000
0000
0110
0000
0100
0010
,  // measure 5
0002
0010
0000
1000
0000
0103
0010
1000
,  // measure 6
0010
0000
0001
0000
0010
0000
0100
0000
0001
0000
1000
0000
0100
0000
0010
0001
,  // measure 7
0010
0001
0000
1000
0000
0001
0100
0001
,  // measure 8
0001
0000
0001
0000
0100
0000
0010
0000
0010
0000
0010
0000
0100
0000
0001
0010
,  // measure 9
0200
0010
0000
1000
0000
0301
0100
1000
,  // measure 10
0001
0000
0100
0000
0010
0000
1000
0000
0100
0000
1000
0000
0001
0000
0100
0010
,  // measure 11
1000
0001
0000
1000
0000
0100
0010
0001
,  // measure 12
0001
0000
0001
0000
0010
0000
0100
0000
0100
1000
0100
0010
0001
0000
0100
0010
,  // measure 13
1000
0010
1010
0000
0011
0000
1000
0100
,  // measure 14
0010
0001
0101
0000
1100
0000
0001
0010
,  // measure 15
0100
1000
1010
0000
0011
0000
0002
0100
,  // measure 16
0100
0000
0100
0000
1000
0000
1000
0000
1003
0000
1000
0000
0100
0000
0010
0001
,  // measure 17
0010
0100
2100
0000
0010
0000
3001
0100
,  // measure 18
0001
0000
0010
0000
0012
0000
0000
0000
1000
0000
0000
0000
0013
0000
0100
1000
,  // measure 19
0100
0000
1000
0000
0010
0000
0100
0001
0100
0000
0010
0000
0200
0000
0010
0000
,  // measure 20
0010
0000
0320
0000
0100
0000
0130
0000
0100
0010
0100
0010
1000
0100
1000
0000
,  // measure 21
0010
0000
0100
0001
0100
0000
0001
0000
1000
0000
0100
0010
0100
1000
0100
0000
,  // measure 22
0010
0000
0001
0100
0010
0000
1000
0001
0100
0000
0001
1000
0100
0010
0001
0000
,  // measure 23
1000
0000
0100
1000
0010
0000
1000
0000
0100
0000
0010
0001
0100
0001
1000
0000
,  // measure 24
0100
0000
1000
0001
0100
0000
0001
1000
0010
0000
1000
0001
0010
0100
1000
0000
,  // measure 25
0100
0000
0010
0001
0100
0000
0010
0000
1000
0000
0001
0100
0001
1000
0100
0000
,  // measure 26
1000
0000
0100
1000
0010
0000
1000
0000
0100
0000
0010
0001
0100
0010
1000
0000
,  // measure 27
0010
0000
0100
0001
0100
0000
0010
0000
1000
0000
0100
0010
0001
0100
0010
0000
,  // measure 28
1000
0000
0010
0100
0001
0000
1000
0100
0010
0000
0001
2000
0010
0000
0010
0000
,  // measure 29
0001
0000
0010
3000
1010
0000
0000
0000
0011
0000
0000
0000
0102
0000
0100
0000
,  // measure 30
1000
0000
0100
0003
0101
0000
0000
0000
1100
0000
0010
0000
0001
0010
0001
0000
,  // measure 31
0001
0000
0001
0100
0001
0000
0001
0100
0001
0000
0010
0100
1000
0010
1000
0000
,  // measure 32
1000
0000
1000
0010
1000
0000
1000
0010
1000
0000
1000
0010
0100
0000
0001
0000
,  // measure 33
0010
1000
1010
0000
0011
0000
1000
0100
,  // measure 34
0001
0100
1100
0000
0102
0000
0010
0000
,  // measure 35
0103
0020
0001
0000
1000
0000
0130
0000
,  // measure 36
1000
0200
0001
0000
1000
0000
0020
0000
,  // measure 37
0330
0000
1001
0000
0000
1000
0010
0100
,  // measure 38
0001
0000
0010
0000
0001
0000
1000
0000
0010
0000
1000
0000
0100
0000
1000
0010
,  // measure 39
0100
0001
0000
0010
0000
0100
1000
1000
,  // measure 40
1000
0000
1000
0000
0001
0000
0001
0000
0001
0000
0001
0000
1000
0000
0100
0010
,  // measure 41
0001
2000
0000
3020
M000
0031
0010
0100
,  // measure 42
0001
0000
0010
0000
0100
0000
0001
0000
0100
0000
1000
0000
0001
0000
0010
0001
,  // measure 43
0100
0002
0000
0023
000M
1030
0010
0001
,  // measure 44
0100
0010
0001
1000
0100
0010
2000
0000
,  // measure 45
0000
0000
0010
0000
3001
0100
0010
1000
,  // measure 46
0100
0010
0001
0000
1000
0000
0012
0000
,  // measure 47
0000
0000
1000
0000
0013
0100
1000
0010
,  // measure 48
0100
0001
0010
0000
0001
0000
1000
0100
,  // measure 49
1000
0010
2000
0000
0100
0000
3001
0100
,  // measure 50
0001
0010
0002
0000
0100
0000
0013
0100
,  // measure 51
1000
0100
0010
0000
0010
0001
0010
0100
,  // measure 52
0010
0000
0100
0000
1000
0000
0001
0000
1000
0000
0001
0000
0100
0000
0010
1000
,  // measure 53
0000
0000
1000
0100
0000
0000
M100
0001
0000
0000
0001
0010
0000
0000
0100
0001
,  // measure 54
0000
0000
010M
1000
0000
0000
1000
0010
0000
0000
0010
0100
0000
0000
0100
0001
,  // measure 55
0000
0000
001M
1000
0000
0000
1000
0100
0000
0000
0M01
0010
0000
0000
0001
0100
,  // measure 56
0000
0000
1000
0100
0000
0000
0001
0010
0000
0000
1000
0010
0100
0000
0001
0000
,  // measure 57
0100
0010
1010
0000
0011
0000
1100
0001
,  // measure 58
0010
0100
1100
0000
0101
0000
1010
1000
,  // measure 59
0100
1000
1010
0000
0011
0000
0101
0001
,  // measure 60
0010
0000
0000
0000
0000
0000
0001
0000
0000
0000
0000
0000
0100
0000
0000
0000
0000
0000
0010
0000
0000
0000
0000
0000
1000
0000
0000
0100
0000
0000
0010
0000
0001
0000
1000
0000
0001
0000
0000
0000
0000
0000
0000
0000
0000
0000
0000
0000
,  // measure 61
1000
0000
1010
0000
1100
0000
0010
0001
,  // measure 62
0100
0000
0010
0000
1010
0000
0000
0000
0101
0000
1000
0010
0100
0001
0100
0000
,  // measure 63
0100
0000
0010
1000
0010
0000
0100
0001
0100
0000
0001
0010
0100
1000
0100
0000
,  // measure 64
0100
0000
0010
0001
0010
0000
0100
1000
0100
0000
0010
0000
0001
0000
0100
0000
,  // measure 65
0001
0010
0011
0000
1100
0000
0010
1000
,  // measure 66
0100
0000
1000
0000
1010
0000
0000
0000
0011
0000
0000
0000
0001
0100
0001
0000
,  // measure 67
0001
0000
1000
0100
1000
0000
0001
0100
0001
0000
0010
0100
1000
0010
1000
0000
,  // measure 68
1000
0000
0001
0010
0001
0000
1000
0010
1000
0000
0001
0000
0010
0000
0100
0000
,  // measure 69
1000
0010
0101
0000
1100
0000
0001
0010
,  // measure 70
0100
0000
1000
0000
1010
0000
0000
0000
0011
0000
0000
0000
1000
0001
1000
0000
,  // measure 71
1000
0000
0010
0100
0010
0000
1000
0001
1000
0000
0100
0010
0100
0010
0100
0000
,  // measure 72
0100
0000
1000
0001
1000
0000
0010
0100
0010
0000
1000
0000
0001
0000
0010
0000
,  // measure 73
0100
1000
0011
0000
1100
0000
0001
0100
,  // measure 74
0010
0000
1000
0000
0101
0000
0000
0000
1010
0000
0000
0000
1000
0100
0010
0000
,  // measure 75
0100
0000
1000
0001
0100
0000
0010
0000
1000
0000
0001
0100
0001
0010
0100
0000
,  // measure 76
1000
0000
0010
0100
0001
0000
0010
0000
0100
0010
0100
0010
0100
0000
0000
0000
;

//---------------dance-single - ---------------
#NOTEDATA:;
#CHARTNAME:;
#CHARTSTYLE:;
#CREDIT:Sparks;
#STEPSTYPE:dance-single;
#DESCRIPTION:;
#DIFFICULTY:Medium;
#METER:10;
#METERF:10;
#RADARVALUES:0,0,0,0,0;
#NOTES:
// measure 0
0000
0000
0000
0000
,  // measure 1
0000
0000
0000
0000
,  // measure 2
2000
0000
0002
0000
,  // measure 3
3003
0000
0000
0200
0000
0000
0000
0020
,  // measure 4
0000
0000
0000
0330
0000
0000
1000
0000
,  // measure 5
0001
0200
0000
0000
0000
0310
1000
0001
,  // measure 6
1000
0100
1000
0001
0100
0001
0010
0000
,  // measure 7
0000
0100
0000
0100
0000
0100
0010
0001
,  // measure 8
0010
0001
1000
0010
1000
0000
0100
0000
,  // measure 9
0010
0002
0000
0000
0000
0103
0001
1000
,  // measure 10
0100
1000
0010
0100
0001
0100
0001
0000
,  // measure 11
0000
1000
0000
1000
0000
1000
0100
1000
,  // measure 12
0100
0010
0001
0010
0100
0000
1000
0100
,  // measure 13
1000
0010
2000
0000
0001
0000
3100
0010
,  // measure 14
0001
0100
0002
0000
1000
0000
0013
0001
,  // measure 15
1000
0001
0010
0000
0010
0000
0100
1000
,  // measure 16
0010
1000
0100
0000
0100
1000
0010
0100
,  // measure 17
0010
0100
0001
0000
0001
0000
0100
0010
,  // measure 18
0100
0010
1000
0000
1000
0000
0001
0010
,  // measure 19
0100
1000
0001
0000
0001
1000
0100
0010
,  // measure 20
0001
1000
0010
0000
0010
0000
0100
0000
,  // measure 21
0001
0101
1001
0010
,  // measure 22
0100
0000
1100
0000
1001
0000
0100
1000
,  // measure 23
0010
1000
0100
0000
1001
0000
0100
0001
,  // measure 24
0010
0001
1000
0000
1000
0000
0001
0000
,  // measure 25
0010
1100
1100
0010
,  // measure 26
0100
0101
0102
1000
,  // measure 27
0103
0010
1000
0000
0100
0000
0011
0000
,  // measure 28
0100
1000
0001
0000
0100
0000
0001
0000
,  // measure 29
0010
1100
1010
1000
,  // measure 30
0100
0000
0011
0000
0101
0000
0001
0100
,  // measure 31
0010
0100
0010
0000
1000
0000
0100
0010
,  // measure 32
0100
0010
0001
0000
1000
0000
0001
0000
,  // measure 33
0100
1100
1001
0010
,  // measure 34
0100
1001
0101
1000
,  // measure 35
0001
1000
0100
0000
0010
0000
0001
0000
,  // measure 36
0001
0100
0010
0000
1000
0000
1000
0000
,  // measure 37
0010
0100
0001
0000
1000
0000
0100
0010
,  // measure 38
0001
0010
0010
1100
,  // measure 39
0110
0000
0011
0000
1000
0001
0100
0010
,  // measure 40
0010
0010
0100
0000
0001
0000
1000
0100
,  // measure 41
1000
0010
1000
0000
0001
0000
0100
0001
,  // measure 42
0010
0001
1000
0000
0100
0000
1000
0010
,  // measure 43
0100
0010
1000
0000
1000
0010
0100
0001
,  // measure 44
1000
0001
0020
0000
0000
0000
0130
0000
,  // measure 45
0100
0000
0100
0000
0100
0010
0001
0100
,  // measure 46
0010
1000
0010
0000
0010
0000
0100
0000
,  // measure 47
0100
0000
0100
0000
0100
0001
1000
0100
,  // measure 48
1000
0001
0010
0100
1000
0000
0001
0100
,  // measure 49
0001
0100
0010
0000
0010
0000
1000
0001
,  // measure 50
1000
0001
0010
0000
0010
0000
0100
1000
,  // measure 51
0001
1000
0010
0000
0100
0001
1000
0001
,  // measure 52
0010
0001
0100
0000
0001
0000
1000
0100
,  // measure 53
0000
0010
0000
0100
0000
1000
0001
0100
,  // measure 54
0000
0010
0000
1000
0000
0001
1000
0100
,  // measure 55
0000
0010
0000
0001
0000
1000
0001
0100
,  // measure 56
0000
0010
0000
1000
0000
0001
0100
0001
,  // measure 57
0000
0010
0000
0100
0000
1000
0100
1000
,  // measure 58
0000
0001
0000
1000
0000
0010
0100
0001
,  // measure 59
0000
0010
0000
0100
0000
0010
0100
1000
,  // measure 60
0001
2002
3000
0103
,  // measure 61
0001
0000
0101
0000
0101
0001
0010
0000
,  // measure 62
0100
0000
1100
0000
1100
1000
0010
1000
,  // measure 63
0100
1000
0010
0000
0010
0000
0100
0001
,  // measure 64
0010
0001
0100
0000
0100
0000
0001
0000
,  // measure 65
1000
0000
1010
0000
0011
0001
1000
0000
,  // measure 66
0100
0000
0101
0000
1100
1000
0010
0000
,  // measure 67
0100
0001
0010
0000
0001
0000
1100
0000
,  // measure 68
1000
0001
1000
0000
0010
0000
0101
0000
,  // measure 69
0001
0000
1001
0000
1001
0001
1000
0000
,  // measure 70
0100
0000
1100
0000
1100
1000
0010
0100
,  // measure 71
0001
0010
0001
0000
0001
0000
1000
0100
,  // measure 72
1000
0010
1000
0000
1000
0000
0001
0000
,  // measure 73
0100
0000
1010
0000
1001
0001
1000
0000
,  // measure 74
0100
0000
0011
0000
1001
1000
0010
0000
,  // measure 75
0010
0100
0002
0000
1000
0000
1003
0000
,  // measure 76
1000
0100
0020
0000
0100
0000
0130
0000
;

//---------------dance-single - ---------------
#NOTEDATA:;
#CHARTNAME:;
#CHARTSTYLE:;
#CREDIT:Sparks;
#STEPSTYPE:dance-single;
#DESCRIPTION:;
#DIFFICULTY:Easy;
#METER:7;
#METERF:7;
#RADARVALUES:0,0,0,0,0;
#NOTES:
// measure 0
0000
0000
0000
0000
,  // measure 1
0000
0000
0000
0000
,  // measure 2
0000
0000
0000
0000
,  // measure 3
0000
0000
0000
0000
,  // measure 4
0000
0000
0000
1000
,  // measure 5
0100
1000
1000
0001
,  // measure 6
0100
0001
0001
0010
,  // measure 7
0100
0010
0010
0001
,  // measure 8
0100
0010
0010
1000
,  // measure 9
0010
0100
0010
1000
,  // measure 10
0100
0010
0100
1000
,  // measure 11
0001
0010
0100
0010
,  // measure 12
0010
0010
0010
0001
,  // measure 13
0100
0010
0100
0001
,  // measure 14
0010
0100
0010
0001
,  // measure 15
0100
0010
1000
0100
,  // measure 16
0100
0100
0100
1000
,  // measure 17
0001
0100
0001
1000
,  // measure 18
0001
1000
0100
0010
,  // measure 19
0001
0100
0010
0100
,  // measure 20
0100
0000
0100
0000
0000
0000
0001
0100
,  // measure 21
0001
0000
0010
0000
0000
0000
1000
0100
,  // measure 22
1000
0010
0000
0100
,  // measure 23
0100
0100
0000
0010
,  // measure 24
0010
0000
0010
0000
0000
0000
1000
0100
,  // measure 25
0010
0000
0001
0000
0000
0000
1000
0010
,  // measure 26
0100
0001
0000
0010
,  // measure 27
0001
1000
0010
0000
0000
0000
0010
0000
,  // measure 28
1000
0100
0010
0000
0000
0000
0001
0010
,  // measure 29
0002
1000
0000
0100
,  // measure 30
0100
0000
0010
0000
0003
0000
1000
0010
,  // measure 31
2000
0100
0000
0010
,  // measure 32
0010
0001
3000
0100
,  // measure 33
0001
0101
0100
0010
,  // measure 34
1000
1010
0010
0200
,  // measure 35
0000
0001
0000
1000
,  // measure 36
0000
0001
0000
0310
,  // measure 37
0000
0110
0000
1000
,  // measure 38
1000
1000
0000
0001
,  // measure 39
0010
0100
1000
0010
,  // measure 40
0010
0010
0000
0100
,  // measure 41
0001
1000
1000
0100
,  // measure 42
1000
0010
0010
0100
,  // measure 43
0001
0100
0010
0100
,  // measure 44
0100
0100
0000
0001
,  // measure 45
0010
0100
0010
0001
,  // measure 46
0010
0010
0000
1000
,  // measure 47
0010
0100
0001
0100
,  // measure 48
0010
0010
0000
1000
,  // measure 49
0100
1000
0000
0001
,  // measure 50
0100
0001
0000
0010
,  // measure 51
0100
1000
0010
0100
,  // measure 52
0100
0100
0000
0001
,  // measure 53
1000
0100
1000
0001
,  // measure 54
0010
0100
0000
1000
,  // measure 55
0001
0100
0001
1000
,  // measure 56
0010
0100
0000
0100
,  // measure 57
0001
0010
0010
0100
,  // measure 58
1000
0010
0010
1000
,  // measure 59
0100
0010
0010
0001
,  // measure 60
0100
0000
0010
0000
0010
0000
0100
0001
,  // measure 61
1000
0000
0001
0000
0000
0000
0100
1000
,  // measure 62
0001
0100
0000
0010
,  // measure 63
0010
0011
0000
0010
,  // measure 64
0010
0000
1010
0000
0000
0000
0001
1000
,  // measure 65
0001
0000
0100
0000
0000
0000
1000
0001
,  // measure 66
1000
0100
0000
0010
,  // measure 67
0001
0101
0000
0010
,  // measure 68
1000
1100
0000
0001
,  // measure 69
0100
0000
0001
0000
0001
0001
1000
0000
,  // measure 70
0100
0000
1000
0000
1000
1000
0001
0100
,  // measure 71
0010
1000
0002
0000
0000
0000
1003
0010
,  // measure 72
0100
0001
2000
0000
0000
0000
3100
0000
,  // measure 73
0100
1000
1100
0001
,  // measure 74
0001
0100
0101
1000
,  // measure 75
0000
1000
1010
1001
,  // measure 76
0000
0001
0011
0110
;
