#TITLE:SHARK ATTACK;
#SUBTITLE:;
#ARTIST:ryhki;
#TITLETRANSLIT:;
#SUBTITLETRANSLIT:;
#ARTISTTRANSLIT:;
#GENRE:;
#CREDIT:;
#MUSIC:Shark Attack.ogg;
#BANNER:Shark Attack-bn.png;
#BACKGROUND:Shark Attack-bg.png;
#CDTITLE:;
#SAMPLESTART:14.547;
#SAMPLELENGTH:14.547;
#SELECTABLE:YES;
#OFFSET:0.000;
#BPMS:0.000=164.986;
#STOPS:;
#BGCHANGES:;
#FGCHANGES:;

//--------------- dance-single - Sparks ----------------
#NOTES:
     dance-single:
     Sparks:
     Challenge:
     18:
     0,0,0,0,0:
1000
1000
0001
0001
,
0100
0010
1000
0001
0100
0001
0010
0100
,
1000
0000
0000
0000
0001
0010
0100
0001
,
0100
0010
0010
0001
0011
0001
1000
1000
,
0100
1000
0010
0001
0010
1000
1000
0000
,
1000
0001
0001
0100
0001
0000
0010
0100
,
1000
0001
0010
0100
1000
0010
0100
0001
,
0010
1000
0010
0001
0100
1000
0100
0001
,
1000
0100
0010
0001
1000
0100
0010
0001
1000
0010
0100
0001
1000
0010
0100
0001
,
0010
0000
0100
0010
0100
0000
1000
0000
0001
0000
0100
0010
0000
0010
1000
0000
,
0020
0100
0100
0001
0031
0100
0001
0010
,
0100
1000
0100
0010
0001
0100
0001
1000
,
0100
0000
0020
0000
0001
0001
0100
0130
,
1000
0100
0010
0001
1000
0100
0010
0001
1000
0100
0010
0001
1000
0100
0010
0001
2000
0000
0000
0000
0000
0000
0000
0000
0100
0000
0000
0000
3100
0000
0000
0000
,
0011
0001
0101
0000
1010
0000
0110
0000
,
0010
0000
1000
0000
0001
0000
0100
0000
0000
0000
0000
0000
0101
0000
0000
0000
0000
0000
0000
0000
0000
0000
0000
0000
1010
0000
0000
0000
0000
0000
0010
0000
0000
0000
0000
0000
0100
0000
0000
0001
0000
0000
0000
0000
0000
0001
0000
0000
,
0010
0100
1000
0000
1100
0000
0000
0000
0101
0000
0000
0000
0011
0000
0000
0000
,
1000
0001
0100
0000
0010
0000
1000
0000
0100
1000
0000
0001
0010
0000
0001
0000
,
0101
0101
1001
0000
0011
0000
1100
0010
,
0001
1000
0010
0000
0100
0000
0001
0000
0010
0000
0100
0000
0001
0000
0100
0000
,
1000
1010
0001
0101
,
1000
0100
0001
0100
1000
0001
1000
0000
,
1001
0000
0000
0000
1000
0100
0010
0001
1000
0100
0010
0001
1000
0010
0100
0001
,
1000
0100
0010
0001
1000
0010
0100
0001
0010
0100
1000
0001
0100
0000
0100
0000
,
0100
0000
0000
0000
0010
1000
0001
0100
0010
1000
0001
0010
0100
1000
0001
0100
,
0010
1000
0001
0010
0100
1000
0000
0000
1010
0000
0002
0010
0000
0000
0100
0000
,
0000
0003
0010
0010
2000
0000
0100
0000
0001
0000
3010
0000
0002
0000
0100
0000
,
1003
0110
0010
0011
0010
1010
0010
0011
,
0010
0100
0000
0100
0010
0000
1000
0000
0001
0000
1000
0100
0010
0000
0000
0010
,
0000
0010
0002
0000
0000
0000
0000
0000
,
0000
0000
0000
0003
0100
0000
0001
0000
1000
0000
0100
0000
0010
0000
0100
0000
,
1000
0001
1000
0010
0100
0010
0001
0000
,
0100
0100
0001
1000
0100
1000
0001
0100
,
0001
0010
0100
1000
0010
0100
0001
0000
,
1000
1000
0010
0000
0100
0000
0010
1000
,
0001
0100
0001
1000
0200
0010
0010
0010
,
0310
0001
1000
0000
0100
1000
0000
0001
,
0100
0000
0010
1000
0020
0000
0000
0000
0000
0000
0000
0000
0030
0000
0000
0000
,
0000
0000
1002
0000
0100
0000
0023
0001
,
0000
0000
0001
0000
1030
0000
0010
0000
0001
0000
0010
0000
1010
0000
0000
1001
,
0000
0201
0001
0000
1000
0000
0310
2000
,
0000
0000
3001
0000
1000
0000
0100
0000
0010
0000
0001
0000
0101
0000
0000
1100
,
0000
1010
0020
0000
0230
0000
0010
1000
,
0000
0000
0001
0000
0301
0000
0010
0000
0100
0000
1000
0000
0011
0000
0000
0110
,
0000
1100
2000
0000
0020
3000
0230
0001
,
0000
0310
1000
0000
1000
0001
1000
0100
,
0010
0001
0100
0010
1000
0001
1000
0100
,
0010
0001
0100
1000
0100
0001
1000
0010
,
0001
0010
0110
0100
0101
0001
1001
1000
,
1100
0100
0101
0100
1100
1000
1010
0010
,
0011
0001
0011
0000
0100
0000
0001
0000
,
0010
0000
0000
0000
0000
0000
0000
0000
0001
0010
0100
1000
0001
0010
0100
1000
0001
0010
0100
1000
0001
0010
0100
1000
0002
0000
0000
0000
0000
0000
0000
0000
,
0103
0000
0010
0010
1001
0000
0000
0000
1001
0000
0000
0000
1001
0000
0000
0000
,
1001
0000
1001
0000
1001
1001
1001
0100
,
0001
0010
0100
0000
1000
0000
0010
0000
0001
0000
0010
0000
1000
0000
0100
0000
,
0001
0000
0100
0000
0000
0000
1001
0000
0101
0000
0110
0000
0100
0000
0010
1000
,
0000
1000
0100
0000
0000
0000
0010
0001
0010
0000
0100
0000
0011
0000
0001
0000
,
0101
0000
0000
0000
0000
0000
0100
0000
0000
0000
0000
0000
0010
0000
0000
0000
0000
0000
1000
0000
0010
0000
0100
0000
0001
0000
0000
0000
0000
0000
0100
0000
0000
0000
0000
0000
0010
0000
0000
0000
0000
0000
1000
0000
0000
0100
0000
0000
,
0010
0001
0000
0010
2000
0001
0001
3010
,
0002
1000
1000
0013
0100
1000
0010
1000
,
0001
0100
0010
0000
0000
0000
0000
0000
,
0010
0010
0010
0010
0010
0000
0000
0000
0000
0000
0000
0000
1010
0000
0000
1100
,
0000
0000
0010
0001
0010
0000
0000
0000
0001
0000
0010
0000
0100
0000
0010
0000
,
0001
0000
0100
0000
0010
0000
0010
0000
0010
0000
1000
0100
0020
0000
0000
0100
,
0000
0000
0031
0001
0010
0000
0000
0000
1010
0000
0000
0000
1100
0000
1000
0000
,
1010
0000
1000
0000
0002
0000
0010
0000
0013
0000
0001
0000
0110
0000
0000
1100
,
0000
0000
1000
0000
1000
0000
0100
0010
0001
0000
0000
0000
1000
0000
0010
0000
,
0001
0000
0000
0010
0000
0000
1000
0000
0010
0000
0100
0000
0001
0000
0010
0000
0001
0000
1000
0000
0010
0000
1000
0000
,
0100
0000
0000
0010
0000
0000
0001
0000
0000
1000
0000
0000
0001
0000
0100
0000
0001
0000
0100
0000
0000
0000
0000
0000
0010
0000
0000
0000
0000
0000
0000
0000
0000
0000
0000
0000
0010
0000
0000
0000
0000
0000
0000
0000
0000
0000
0000
0000
,
0010
0000
0010
0000
1000
0000
0001
0100
0001
0000
0100
0000
0001
0000
0010
0100
,
1000
0100
0000
1001
1001
0000
1000
0010
,
0010
0000
1000
0000
0100
0000
0010
0000
0001
0000
0010
0000
0100
1000
0010
0001
,
0010
0000
0001
0010
1000
0000
0000
1010
0000
0000
1100
0000
0000
0101
0000
0000
,
1001
0000
0010
1000
0100
0000
0010
0001
1000
0000
0010
1000
0100
1000
0000
1000
,
0001
0100
0001
0000
1000
0000
0000
0000
0010
0000
0100
0000
0000
0000
0100
0000
0001
0000
0000
0000
1000
0000
0001
0000
1000
0000
0100
0000
0000
0000
0100
0000
,
0010
0000
0000
0000
0001
0010
0001
0000
0100
0000
0010
0000
0100
0000
0010
0000
0100
0000
0010
0000
0100
0000
0010
0000
1000
0010
0100
0001
1000
0010
0100
0001
,
1000
0010
0100
0001
1000
0010
0100
0001
2000
0000
0000
0000
0000
0000
0000
0000
0000
0000
0000
0000
0000
0000
0000
0000
0100
0000
0000
0000
0100
0000
0000
0000
,
0100
0000
0001
0001
0001
0000
0010
0010
,
3010
0000
0000
0000
;
