#TITLE:Our garden is blue.;
#SUBTITLE:;
#ARTIST:庭師+Aoi;
#TITLETRANSLIT:;
#SUBTITLETRANSLIT:;
#ARTISTTRANSLIT:;
#GENRE:;
#CREDIT:;
#BANNER:Our garden is blue-bn.png;
#BACKGROUND:Our garden is blue-bg.png;
#LYRICSPATH:;
#CDTITLE:;
#MUSIC:Our garden is blue.ogg;
#OFFSET:0.005000;
#SAMPLESTART:77.996002;
#SAMPLELENGTH:12.600000;
#SELECTABLE:YES;
#BPMS:0.000000=200.000000
;
#STOPS:
;
#BGCHANGES:;
#KEYSOUNDS:;
#ATTACKS:;

//---------------dance-single - Sparks----------------
#NOTES:
     dance-single:
     Sparks:
     Hard:
     17:
     0.840811,1.160655,0.484307,0.087444,0.729824,875.000000,803.000000,72.000000,13.000000,0.000000,0.000000,0.840811,1.160655,0.484307,0.087444,0.729824,875.000000,803.000000,72.000000,13.000000,0.000000,0.000000:
0000
0000
0000
0000
,
0000
0000
0000
0000
,
0000
0000
0000
0000
,
0000
0000
0000
0000
,
0000
0000
0000
0100
0001
0010
0100
1000
,
0001
0000
1000
2000
0000
0000
0000
0000
,
3000
0000
0000
0000
0000
0000
0100
1000
0010
0000
0100
0000
0001
0000
1000
0000
,
0100
0000
0000
0000
0100
0000
0001
0000
0000
0000
0010
0000
0001
1000
0100
0000
,
1000
0010
0100
0000
0010
1000
0001
0010
,
0100
1000
0001
0100
1000
0100
0110
0100
,
0001
0010
0110
0010
0011
0001
1000
0010
,
0101
0000
1000
0011
0000
0001
1100
1000
,
0010
0100
0101
0000
0101
0000
1000
0000
,
0001
0100
0001
0100
0010
1000
0001
1000
0100
1000
0001
1000
0010
1000
0100
0010
,
0001
0000
0100
0101
0000
1100
0000
1000
,
0001
0010
0001
0010
0000
0000
0100
0000
0000
0100
0000
0000
1000
0000
0000
1000
0000
0000
0010
0000
0000
0010
0000
0000
,
0100
0000
0110
0000
,
1001
0000
0000
0000
0000
0000
1000
0001
,
0010
0001
0100
0001
1000
0001
0010
0100
,
0001
0000
0000
0100
0100
0000
0010
0010
,
0000
0000
0001
0000
0001
0000
0100
0001
1000
0100
1000
0010
0100
0000
0001
0000
,
0102
0000
0010
0003
,
2100
0000
0000
0000
0000
0000
0010
0000
0000
0000
3100
0010
,
0011
0000
0101
0000
,
1001
0000
0000
0001
0010
0100
1000
0010
,
0001
0000
0010
0010
1000
0001
0110
1000
,
0100
0000
0010
0000
0001
0000
1000
0100
1000
0000
0010
0000
0100
0000
1000
0000
,
0100
0000
0001
0100
0000
0001
0010
0100
,
1000
0000
0000
0001
0100
0010
1000
0100
,
1000
0000
0001
0001
1000
0100
0010
1000
,
0110
0000
1000
0000
0001
0000
0100
0001
0010
0000
0100
0000
1000
0000
0010
0000
,
0100
0000
0000
0000
1000
0000
0100
0000
0000
0000
0100
0000
0001
1000
0100
0000
,
0010
0011
0001
1001
0000
1000
1010
0000
,
0020
0000
0100
0100
0001
0000
0100
1000
,
0000
0100
0031
1000
1000
0001
0100
0010
,
0001
0000
0000
0000
0100
0000
1000
0000
0000
0000
0001
0000
0100
0001
0010
0000
,
0001
0000
0010
0000
0100
1000
0001
0000
0000
0000
0000
0000
1000
0000
0000
0000
,
1000
0000
0000
0001
0100
0010
1000
0001
,
0010
0000
0000
0000
1000
0000
0100
0000
0000
0000
0011
0000
0000
0000
0100
1000
,
1010
0011
0101
1100
,
1001
0000
0000
0000
0000
0000
0100
0000
0000
0100
0000
0000
0100
0000
0100
0000
0100
0000
0100
0000
0100
0000
0100
0000
,
0100
0000
0000
0000
1000
0000
0001
0100
0010
0000
1000
0000
0100
0000
0010
0000
,
0002
0000
0000
0100
0000
0000
1000
0000
1000
0000
0000
0000
0013
0000
0000
0000
,
1000
0000
0000
0000
0001
0010
0100
1000
0001
0000
1000
0010
1000
0000
0010
0000
,
0200
0000
0000
0001
0000
0000
1000
0000
1000
0000
0000
0000
0310
0000
0000
0000
,
0110
0000
0000
0000
1000
0010
1000
0001
0010
0001
0100
0010
1000
0001
0010
0100
,
1000
0000
0000
0000
0001
0000
0000
0010
0100
0000
0000
0000
1000
0000
0000
0000
,
1010
0000
0000
0000
0001
1000
0001
1000
0001
0000
0010
0000
0100
0000
1000
0000
,
0001
0010
0000
0000
0000
0000
0010
0100
0000
0000
0000
0000
0100
1000
0000
0000
0000
0000
1000
0001
0000
0000
0000
0000
0100
0000
0000
0000
0000
0000
0000
0000
,
0001
0000
0000
0000
1000
0000
0010
1000
0100
1000
0010
0100
0001
0010
0001
0000
,
1000
0100
1000
0001
1000
0010
1000
0000
0001
0100
0000
0001
0010
0000
0100
0000
,
1100
0000
0000
1000
0100
0010
0001
1000
0001
0100
0010
1000
0100
1000
0100
0000
,
0100
0001
0100
0001
0100
0001
0100
0000
0010
0000
0010
0000
0001
0000
0001
0000
,
1001
0000
0000
1000
0010
0000
0100
0010
0100
0000
0001
0100
0001
0000
0010
0001
,
0010
0000
0100
0000
1000
0000
0001
0010
,
0011
0000
0000
1000
0001
0100
0010
0000
0000
1000
0001
0010
,
0100
0000
0000
0001
0100
1000
0001
0100
0001
1000
0010
0100
,
0001
0000
0000
1000
0100
1000
0001
0000
0000
0100
0001
0010
,
0001
0000
0000
0000
0000
0000
0000
0000
0000
0000
0000
0000
1000
0000
0000
0000
0010
0000
0000
0000
0001
0000
0000
0000
0100
0000
0000
0000
0010
0000
0000
0000
1000
0000
0000
0000
0001
0000
0000
0100
0000
0000
0001
0000
0000
0100
0000
0000
,
0002
0010
0010
0010
,
0000
0000
0000
0000
0100
0000
0000
0000
0100
0000
0000
0000
1003
0000
0010
0200
,
1000
1000
0001
0001
,
0010
0000
0000
0000
0000
0000
0000
0000
0000
0000
0000
0000
0310
0000
0000
0000
0000
0000
0100
0000
0000
0010
0000
0000
0110
0000
0000
0000
1000
0000
0000
0000
0100
0000
0000
0000
0010
0000
0000
0000
1000
0000
0000
0000
0010
0000
0000
0000
,
0001
0100
1000
0001
0010
0100
0001
0010
0100
1000
0001
0100
,
1000
0001
0010
1000
0100
0010
0001
0000
0000
0000
0000
0000
,
1000
0000
0000
0100
0000
0000
1000
0000
1010
0000
0000
0000
0000
0000
0001
0000
,
0100
0000
0001
0010
0001
0000
1000
0010
1000
0000
0100
0010
0100
0000
0010
0001
,
0010
0000
0000
0100
0000
0000
1000
0000
0011
0000
0000
0000
0000
0000
1000
0000
,
0001
0100
0010
1000
0000
0100
0010
0001
0000
1000
0001
0100
0000
0001
0010
0100
,
0010
0000
0000
0100
0110
0000
0000
1000
,
1010
0000
0000
0001
0101
1000
0100
1000
,
0001
0000
0000
0000
0000
0000
0010
0100
1000
0000
0000
0000
0000
0000
0010
0000
,
0110
0100
0101
0001
0011
0000
1000
0000
,
0011
0000
0000
0100
0000
0000
1000
0000
1010
0000
0000
0000
0001
0000
1000
0000
,
1001
0000
0100
0001
0100
0000
0001
0010
0001
0000
1000
0100
1000
0000
0010
0100
,
0101
0000
0000
0001
0000
0000
0010
0000
1100
0000
0000
0000
0010
0000
1000
0000
,
1100
0000
0010
0001
1000
0000
0100
1000
0010
0000
0100
0001
1000
0000
0010
1000
,
1010
0000
0000
0100
0000
0000
0010
0000
0011
0000
0100
0000
1000
0000
0010
0000
,
0101
0000
0000
0010
0000
0000
1000
0000
1010
0000
0100
0000
0010
0000
0001
0000
,
1001
0000
0000
0100
0000
0000
0010
0200
0010
0000
0000
0000
0001
0000
0000
0000
,
2000
0000
0000
3300
0011
0000
0000
0000
,
0100
0001
0011
1100
,
0001
0011
1010
1100
,
1000
0000
0010
0100
0001
0100
0001
0100
0001
0000
1000
0100
0010
0100
0010
0100
,
0010
0000
0001
1000
0010
1000
0010
1000
0010
0000
0100
0001
1000
0100
1000
0100
,
1000
0010
1001
0110
,
1000
1010
0110
0101
,
1000
0010
0100
1000
0100
0010
1000
0001
0010
0100
0010
0001
,
1000
0100
0001
1000
0010
0100
1000
0010
0100
0001
1000
0100
,
0010
0000
0001
0000
0001
0010
0100
1000
,
0010
0000
1000
0000
1000
0000
0000
0000
1010
0000
0000
0000
0001
0000
0100
0010
,
1000
0000
0000
0000
0100
0000
1000
0100
0010
0000
0000
0000
0001
0000
0000
0000
,
0100
1000
1000
0000
1100
0000
0010
0000
,
1000
0000
0001
0010
0001
0000
1000
0000
0010
0000
0100
0000
0001
0100
0001
0000
,
0010
0100
1100
0110
0011
0000
1000
0000
,
0100
0000
1000
0000
0010
0000
1000
0000
0001
0100
0001
0010
0100
1000
0010
0100
,
0001
1000
0001
1000
0001
0000
0000
0000
1000
0010
1000
0010
1000
0000
0000
0000
,
0001
0010
1000
0010
0001
1000
0100
0001
0100
1000
0010
0100
,
0001
0000
1000
0000
0100
0000
1000
0000
1010
0000
0000
0110
0000
0000
0101
0000
,
0100
0010
1000
0000
0100
0000
0010
0000
0001
0000
1000
0000
0100
0000
0000
1000
0000
0000
0001
0000
0000
0010
0000
0000
,
0001
0100
0010
0000
0001
0000
0010
0000
0100
0000
0001
0000
0100
0000
0000
0001
0000
0000
1000
0000
0000
0100
0000
0000
,
1000
0010
1000
0010
0100
0010
0100
0010
0100
0001
0100
0001
1000
0100
1000
0100
,
0010
0100
1000
0000
0001
1000
0010
0000
0100
0001
0010
0000
0100
1000
0010
0000
,
0200
0000
0010
0010
0000
0000
0000
0000
,
0300
0000
0000
0001
1000
0100
0010
0001
,
0100
0000
0000
0000
0100
0000
1000
0000
0000
0000
1000
0000
0010
0100
0001
0000
,
0000
0000
0010
0000
0010
0100
0010
0000
0000
0000
0000
0000
0100
0000
0000
0000
,
0100
0000
0000
0001
0010
0100
1000
0010
,
1000
0000
0000
0001
0000
0000
0010
0000
0000
0000
0000
0000
0100
0000
0000
0000
0000
0000
0000
0000
0000
0000
0000
0000
0000
0000
0000
0000
0000
0000
0000
0000
0000
0000
0000
0000
0001
0000
0000
0000
0010
0000
0000
0000
0100
0000
0000
0000
,
1000
0000
0000
0000
0000
0100
1000
0100
,
1000
0010
0001
0100
,
1000
0000
0000
0000
0000
0000
0100
0000
0000
0000
0000
0001
0000
0000
0000
0000
,
0000
0000
0000
0000
0000
0000
0000
0000
0000
0000
0000
0000
0000
0000
0000
0000
0000
0000
0000
0000
0000
0000
0000
0000
0000
0000
0000
0000
0000
0000
0000
0000
0000
0000
0000
0000
0000
0000
0000
0000
0000
0000
0000
0000
0000
0000
0000
0000
0000
0000
0000
0000
0000
0000
0000
0000
0000
0000
0000
0000
0100
0000
0000
0010
,
0000
0200
0000
0000
0000
0000
0000
0000
0000
0000
0000
0000
0000
0000
0000
0000
0000
0000
0000
0000
0000
0000
0000
0000
0000
0000
0000
0000
0000
0000
0000
0000
,
0000
0020
0000
0000
,
0000
0000
0000
0000
,
0000
0000
0000
0000
,
0000
0000
0000
0000
,
0000
0000
0000
0000
,
0330
0000
0000
0000
;

//---------------dance-single - Sparks----------------
#NOTES:
     dance-single:
     Sparks:
     Challenge:
     19:
     1.032035,1.480836,0.591931,0.107624,1.072875,1074.000000,986.000000,88.000000,16.000000,0.000000,0.000000,1.032035,1.480836,0.591931,0.107624,1.072875,1074.000000,986.000000,88.000000,16.000000,0.000000,0.000000:
0000
0000
0000
0000
,
0000
0000
0000
0000
,
0000
0000
0000
0000
,
0000
0000
0000
0000
,
0000
0000
0000
1000
0100
0010
0001
0100
,
0010
0000
0100
0200
0000
0000
0000
0000
,
0300
0000
0000
0000
0000
0000
0010
0100
0001
0000
1000
0000
0100
0000
0001
0000
,
0100
0000
0000
0000
0010
0000
0001
0000
0000
0000
0001
0000
0100
0010
1000
0000
,
0001
1000
0100
0000
1000
0001
0100
0001
,
1000
0010
1000
0100
1000
0010
0101
0100
,
0001
0010
1010
0010
0011
0001
0100
0010
,
1010
0100
0001
0010
0001
0100
0110
0010
,
1000
0100
1100
1000
1010
0010
0100
0000
,
0100
0001
1000
0001
1000
0100
1000
0100
0010
0001
0100
0010
1000
0001
0010
0001
,
1000
0010
0100
0001
0010
0100
0010
0100
1000
0001
0010
0001
1000
0100
1000
0010
,
1000
0000
0100
0000
0010
0000
0001
0000
0000
0100
0000
0000
0001
0000
0000
1000
0000
0000
0010
0000
0000
1000
0000
0000
0100
0000
0000
0000
0000
0000
0100
0000
0000
0000
0000
0000
0001
0000
0000
0000
0000
0000
0001
0000
0000
0000
0000
0000
,
0101
0000
0000
0000
1000
0000
0000
0000
1100
0000
0000
0000
1000
0000
0010
0100
,
0010
1000
0001
0100
0010
1000
0100
0001
,
0100
0000
1000
0000
0010
0000
0001
0000
0010
0000
1000
0000
0001
0100
0010
1000
,
0001
0010
0100
1000
1000
0000
1010
1010
,
0000
0000
1001
0000
1001
0000
0100
0010
0001
0100
0010
1000
0001
0000
1000
0000
,
2100
0000
0000
0000
0000
0000
0000
0000
3010
0000
1000
0010
1000
0100
0010
0001
,
0102
0000
0000
0000
0000
0000
0000
0000
0000
0000
0000
0000
0000
0000
0000
0000
0000
0000
0000
0000
0000
0003
0000
0000
1000
0000
0000
0001
0000
0000
0010
0000
0000
0100
0000
0000
1000
0000
0000
0000
0010
0000
0000
0000
0100
0000
0000
0000
,
2002
3003
0220
0330
,
1001
0000
0000
1000
0010
1000
0001
0010
,
0001
0000
1000
0001
0010
0100
0011
1000
,
0100
0000
0010
0000
0001
0000
1000
0001
1000
0000
0010
0000
0100
0000
0001
0000
,
1010
0100
0010
0011
0100
0010
1000
1000
,
0020
0000
0000
0000
0000
0000
0100
0030
1000
0000
0100
0000
0001
0000
1000
0000
,
0100
0000
0010
0010
0001
1000
0110
0001
,
0100
0000
0010
0000
0001
0000
0010
1000
0100
0000
0001
0000
1000
0000
0010
0000
,
0011
0000
0000
0000
0100
0000
0101
0000
0000
0000
0100
0000
1000
0001
0100
0000
,
0110
0010
1000
1100
1000
0001
0101
0001
,
0010
0000
0100
0100
0010
0001
1000
0010
,
0100
1000
0001
0010
0010
0100
0001
0010
,
1000
0000
0000
0000
1000
0000
0010
0000
0000
0000
0100
0000
0010
0001
0100
0000
,
0010
0000
0100
0000
0001
1000
0100
0000
0010
0000
0000
0000
1000
0000
0000
0000
,
0100
0000
1000
0100
0010
0001
1000
0001
,
0100
0000
0000
0000
0001
0000
0010
0000
0000
0000
1000
0000
0000
0000
0010
1000
,
1100
0101
0011
0110
,
1001
0000
0000
0000
0000
0000
0000
0000
0000
0000
0000
0000
1000
0000
0000
0000
0000
0000
0010
0000
0000
1000
0000
0000
0001
0000
0000
0000
0001
0000
0000
0000
0001
0000
0000
0000
0010
0000
0000
0000
0010
0000
0000
0000
0010
0000
0000
0000
,
0100
0000
0000
0000
0010
0100
1000
0001
0010
0001
0100
0001
1000
0010
1000
0001
,
0100
0000
0010
1000
0000
0100
0001
0000
0010
0000
0000
0000
0100
0000
0000
0000
,
1000
0000
0000
0000
0001
1000
0100
0001
0100
1000
0100
1000
0010
0100
0001
0100
,
0010
0000
0010
0100
0000
0100
0001
0000
0010
0000
0000
0000
0001
0000
0000
0000
,
1000
0000
0000
0000
0001
0100
0010
0001
1000
0100
0010
0100
0001
1000
0100
0010
,
0001
0000
0000
0000
0100
0000
0000
0100
1000
0000
0000
0000
1010
0000
0000
0000
,
0101
0000
0000
0000
1000
0001
0100
1000
0001
0010
0100
0000
0001
0000
0010
0000
,
1000
0100
0000
0000
0000
0000
0001
0100
0000
0000
0000
0000
0010
0100
0000
0000
0000
0000
0001
1000
0000
0000
0000
0000
1010
0000
0000
0000
0100
0000
0001
0000
,
1000
0000
0100
1000
0010
0100
0001
1000
0010
0001
0010
1000
0001
0010
0100
1000
,
0001
0010
1000
0001
0100
1000
0001
0100
0010
0100
0001
1000
0010
0100
0001
1000
,
0100
0000
1000
0001
0010
0100
1000
0010
0100
0001
1000
0010
0100
0001
1000
0010
,
1000
0100
0010
0001
0100
0001
1000
0001
1001
0000
0101
0000
0110
0000
1010
0000
,
1100
0000
0000
0001
1000
0100
0010
0100
1000
0100
0010
0001
1000
0010
0100
0001
,
0100
0000
0000
0000
0000
0000
1001
0000
0000
0000
0000
0000
0010
0100
0001
0100
0000
0000
0001
0000
0010
0000
0100
0000
,
1001
0000
0000
0100
1000
0010
0011
0000
0000
0100
0001
1000
,
1100
0100
0010
0001
1000
0010
1000
0001
0100
0010
0100
0001
,
0011
0010
0001
0100
0010
1000
1010
0010
1000
0100
0010
0001
,
1001
0000
0000
0000
1000
0000
0000
0000
0010
0000
0000
0000
0100
0000
0000
0000
0001
0000
0000
0000
0010
0000
0000
0000
0100
0000
0000
0000
1000
0000
0000
0000
0010
0000
0000
0000
0100
0000
0000
0001
0000
0000
1000
0000
0000
0010
0000
0000
,
0200
0000
0000
0001
0001
0001
0302
0000
0000
0010
0010
0010
,
0013
0000
0000
0000
0000
0000
0001
0000
0000
0000
0000
0000
1000
0000
0000
0000
0000
0000
0010
0000
0000
1000
0001
0100
,
0010
1000
0100
0001
,
0010
0000
0000
0000
1000
0000
0001
0100
0001
0010
0200
1000
0010
0000
0001
0010
,
0000
1000
0001
0000
0001
1000
0300
1000
0020
0100
0001
0000
0001
1000
0000
0100
,
0001
0000
0100
1000
0001
0000
0001
1030
0010
0000
0000
0000
0000
0000
0000
0000
,
1001
0000
0000
0002
0000
0000
1000
0000
1000
0000
0000
0000
0000
0000
0100
0000
,
0103
0000
0001
1000
0100
0010
0001
1000
0010
0100
0001
0010
0100
1000
0001
0010
,
0001
0000
0000
0010
0000
0000
0001
0000
0001
0000
0000
0000
0010
0000
0100
0000
,
1000
0010
0001
0010
0001
0010
1000
0001
1000
0010
0100
1000
0100
0001
0010
0100
,
0010
0000
0000
0000
0000
0000
0100
0000
0000
0000
0000
0000
1000
0000
0000
0000
1100
0000
0000
0000
0000
0000
0000
0000
0001
0010
0100
1000
0001
0010
0100
2000
,
0001
0000
0000
0000
0000
0000
0010
0000
0010
3000
0100
0000
0001
0000
1000
0100
,
0010
0000
0100
0000
1000
0000
0010
0100
1000
0000
0100
0000
0001
0000
1000
0100
,
0010
0001
1000
0100
1010
0000
0011
0000
,
1001
0000
0000
0100
0000
0000
0010
0000
1001
0000
0100
0000
0010
0000
1000
0000
,
0110
0000
0010
1000
0100
0010
0001
1000
1001
0010
0100
1000
0100
0010
0100
0000
,
1100
0000
0000
0010
0000
0000
1000
0000
0101
0000
0000
0000
1000
0000
0001
0000
,
0011
0000
1000
0001
0100
0010
1000
0010
1010
0100
0001
1000
0010
1000
0100
0010
,
0110
0000
0000
0001
0000
0000
1000
0000
1001
0000
0001
1000
0100
1000
0010
0100
,
0101
0000
0000
0010
0000
0000
1000
0000
1010
0000
0010
1000
0100
0010
0001
1000
,
1001
0000
0000
0001
0000
0000
0100
0010
0110
0000
0000
0000
1000
0000
0000
0000
,
1010
0000
0100
0000
0001
0000
0010
0001
0101
0000
0010
0000
1000
0000
0100
0000
,
1000
0001
0010
0100
1001
0000
0110
0000
,
1000
0010
0101
0000
0011
0000
1010
0000
,
0010
0000
1000
0100
0010
0001
0010
0001
0100
0000
0001
1000
0010
0100
0010
0100
,
0001
0000
0010
0001
1000
0100
1000
0100
0010
0000
0001
1000
0001
0100
0001
0100
,
0010
1000
0100
0001
1100
0000
0101
0000
,
0010
0001
0101
0000
1010
0000
1001
0000
,
0100
0000
0010
0100
0001
0010
0100
0000
1000
0000
0001
0100
0001
1000
0100
1000
,
0010
0100
0001
1000
0001
0100
0010
1000
0100
0010
0001
1000
,
0001
0000
0100
0000
0100
0001
1000
0100
,
0010
0000
0000
0011
0000
0000
0011
0000
0000
0000
0000
0000
1100
0000
0000
0000
0000
0000
0010
0000
0000
0001
1000
0001
,
0100
0000
0000
0000
1000
0000
0010
1000
0100
0000
0000
0000
1000
0000
0000
0000
,
0001
0000
0100
0000
0100
0000
0010
1000
0001
0000
0000
0000
0100
0000
0000
0000
,
0010
0000
1000
0001
0010
0000
0001
0000
0101
0000
0001
0010
0100
1000
0001
0000
,
1000
0001
0101
0110
1010
0001
0100
0001
,
0010
0000
0001
0010
0001
1000
0010
0100
0100
1000
0100
1000
0100
0001
0100
0001
,
0100
0010
0001
1000
0010
0000
0100
0000
0010
1000
0001
0100
0001
0000
1000
0000
,
0001
0100
0001
1000
0100
1000
0010
0100
0010
1000
0001
1000
0001
0010
0001
1000
0100
1000
0010
0100
0001
1000
0100
0010
,
0001
0000
0100
0000
0100
0000
0000
0000
1001
0000
0000
1001
0000
0000
1001
0000
,
0100
0010
1000
0001
0100
0001
1000
0100
0010
0001
1000
0100
1000
0000
0000
0010
0000
0000
0100
0000
0000
0001
0000
0000
,
1000
0001
0100
0010
1000
0001
1000
0001
0100
0010
1000
0001
1000
0000
0000
0100
0000
0000
0010
0000
0000
0001
0000
0000
,
0100
0001
1000
0001
0010
0001
0100
0010
1000
0001
0010
0001
1000
0100
1000
0001
,
0010
0000
0001
0000
1000
0000
0100
0000
0000
0010
0000
0000
0001
0000
1000
0000
0010
0000
1000
0000
0000
0001
0000
0000
0100
0000
0001
0000
1000
0000
0100
0000
0000
1000
0000
0000
0010
0000
0100
0000
0001
0000
0100
0000
0000
0000
0000
0000
,
0001
0000
0001
0001
0000
0000
0000
0000
,
0010
0000
0000
0001
0100
0001
1000
0100
,
1000
0000
0000
0000
0010
0000
0010
0000
0000
0000
0100
0000
0010
1000
0100
0000
,
0000
0000
0010
0000
0100
1000
0001
0000
0000
0000
0000
0000
0100
0000
0000
0000
,
0100
0000
0000
0010
1000
0001
0100
0001
,
0010
0000
0000
0100
0000
0000
1000
0000
0000
0000
0000
0000
0000
0000
0000
0000
0000
0000
0010
0000
0100
0000
0010
0000
,
1000
0000
0000
0000
0000
1000
0010
1000
,
0100
0001
0010
1000
,
0010
0000
0000
0000
0000
0000
0001
0000
0000
0000
0000
0101
0000
0000
0000
0000
,
0000
0000
0000
0000
0000
0000
0000
0000
0000
0000
0000
0000
0000
0000
0000
0000
0000
0000
0000
0000
0000
0000
0000
0000
0000
0000
0000
0000
0000
0000
0000
0000
0000
0000
0000
0000
0000
0000
0000
0000
0000
0000
0000
0000
0000
0000
0000
0000
0000
0000
0000
0000
0000
0000
0000
0000
0000
0000
0000
0000
1000
0000
0000
0100
,
0000
0020
0000
0000
0000
0000
0000
0000
0000
0000
0000
0000
0000
0000
0000
0000
0000
0000
0000
0000
0000
0000
0000
0000
0000
0000
0000
0000
0000
0000
0000
0000
,
0000
0002
0000
0000
,
0000
0000
0000
0000
,
0000
0000
0000
0000
,
0000
0000
0000
0000
,
0000
0000
0000
0000
,
0033
0000
0000
0000
;
