#TITLE:MAXX UNLIMITED (MADNESS of LOVE MIX);
#SUBTITLE:;
#ARTIST:PINK STAR CHANNEL;
#TITLETRANSLIT:;
#SUBTITLETRANSLIT:;
#ARTISTTRANSLIT:;
#GENRE:;
#CREDIT:;
#MUSIC:MAXX UNLIMITED Madness of Love Mix.ogg;
#BANNER:MAXX UNLIMITED Madness of Love Mix-bn.png;
#BACKGROUND:MAXX UNLIMITED Madness of Love Mix-bg.png;
#CDTITLE:;
#SAMPLESTART:24.049;
#SAMPLELENGTH:11.850;
#SELECTABLE:YES;
#OFFSET:-0.056;
#BPMS:0.000=400.000
,96.000=200.000
,120.000=300.000
,123.000=400.000
,583.000=200.000
;
#STOPS:;
#BGCHANGES:;
#FGCHANGES:;

//--------------- dance-single - Sparks ----------------
#NOTES:
     dance-single:
     Sparks:
     Challenge:
     18:
     1.178055,1.910939,0.38424,0.325126,0.3202,837,798,39,33,0,0,1.178055,1.910939,0.38424,0.325126,0.3202,837,798,39,33,0,0:
0000
0000
0000
0000
,
0000
0000
0000
0000
,
0000
0000
0000
0000
,
0000
0000
0000
0000
,
0000
0000
0000
0000
,
0000
0000
0000
0000
,
0000
0000
0000
0000
,
0000
0000
0000
0000
,
0100
0000
0001
0010
0001
1000
0001
0000
,
0100
0000
0010
1000
0100
1000
0001
0000
,
0100
0000
0010
0100
0010
1000
0010
0000
,
0100
0000
0001
0000
1000
0000
0100
0000
0001
0000
1000
0000
,
0010
0000
0001
0100
0010
0100
0001
0000
,
0010
0000
0100
1000
0010
0100
0010
0000
,
1000
0000
0001
0010
0001
0100
0010
0000
,
0100
0000
0110
0000
,
0001
0000
1000
0100
0010
0001
0100
0000
,
0010
0000
1000
0001
0100
0001
0010
0000
,
0100
0000
1000
0001
1000
0010
0100
0000
,
0001
0000
0100
0000
0010
0000
0001
0000
0010
0000
1000
0000
,
0001
0000
1000
0100
0010
0001
0010
0000
,
0100
0000
1000
0010
0100
0010
0100
0000
,
0001
0000
1000
0100
0010
0001
0100
0000
,
0110
0000
1001
0000
,
0210
0010
0300
0012
0000
0010
0000
0013
,
0021
0001
0030
2001
0000
3001
1002
1003
,
2010
0010
0000
0010
0000
0010
0000
3010
,
0120
0130
0001
1002
1003
0100
1200
1300
,
1020
1000
0030
1002
0000
1000
0000
1003
,
1020
0130
0001
0021
0130
1000
0012
0013
,
0011
0000
0000
1001
,
0000
0000
0000
1100
,
0000
1010
0000
1002
,
0000
0010
0013
0001
,
0100
0010
0001
0010
,
1000
0001
1000
0001
,
0010
1000
0001
0100
,
1000
0001
0100
0010
,
1000
0001
1000
0010
,
0100
0001
1000
0010
,
0100
1000
0100
0001
,
0010
0000
0100
0000
1000
0010
0100
0000
,
0001
0010
1000
0010
,
0100
1000
0001
1000
,
0010
0001
1000
0100
,
0001
0010
1000
0010
,
0001
0100
0001
0100
,
0010
1000
0001
0100
,
0010
1000
0100
0010
,
1000
0000
0010
0000
0001
0100
0020
0000
,
1000
1030
2001
0001
,
3002
0010
0013
2100
,
0001
3000
0010
0000
2100
0000
0010
3000
,
0100
2001
3001
1002
,
1003
0010
0010
0001
,
0001
0100
0100
1200
,
1000
0300
0010
0000
1020
0000
0130
0000
,
0001
0000
2100
0000
3100
1000
0002
0000
,
0100
0103
0210
0010
,
0310
1000
1000
1020
,
0100
0030
0001
0000
1020
0000
0100
0030
,
0001
0101
0100
0110
,
0010
0100
0100
0001
,
0001
0010
0010
2010
,
3100
0001
0120
1030
,
0001
0000
1002
0000
0103
0010
1000
0010
,
0000
0001
0100
0000
1000
0100
0000
0001
,
0010
0000
0100
0010
0100
0000
1000
0001
,
0000
0100
0001
0000
1000
0100
0000
0010
,
0001
0000
0100
0001
0100
0000
0001
0010
,
0000
1000
0010
0000
0001
0100
0000
1000
,
0100
0000
1000
0010
1000
0000
0010
0100
,
0000
0001
0100
0000
0001
0010
0000
0100
,
0010
0000
0100
1000
0100
0010
0001
0100
,
0000
0100
0010
0000
1000
0010
0000
0001
,
0010
0000
0100
1000
0010
0000
0100
0001
,
0000
1000
0001
0000
0010
0001
0000
0100
,
1000
0000
0010
1000
0010
0000
0100
0001
,
0000
0100
1000
0000
0100
0001
0000
0100
,
1000
0000
0100
0001
0010
0000
1000
0010
,
0000
0001
0010
0000
1000
0010
0000
0001
,
0010
0000
0100
1000
0010
0000
0100
0000
,
0001
0010
0001
0010
0001
0000
1000
0000
,
0100
1000
0100
1000
0100
0000
0010
0000
,
0001
0000
0000
1000
0000
0000
0001
0000
0000
1000
0000
0000
0001
0000
0000
1000
0000
0000
0100
0000
0000
0000
0001
0000
,
0000
1000
0000
0010
0000
0001
0000
1000
0000
0001
0000
0000
,
0100
0001
0100
0001
0100
0000
0001
0000
,
1000
0100
1000
0100
1000
0000
0010
0000
,
0100
0000
0000
0001
0000
0000
0100
0000
0000
0001
0000
0000
0100
0000
0000
0001
0000
0000
0010
0000
0000
0000
0100
0000
,
0000
1000
0000
0010
0000
0001
0000
1000
0000
0100
0000
0000
,
0100
0001
0010
0100
1000
0000
0001
0000
,
0001
0010
0100
1000
0010
0000
0100
0000
,
0100
0000
0000
0010
0000
0000
0100
0000
0000
0001
0000
0000
0010
0000
0000
0001
0000
0000
0100
0000
0000
0000
0100
0000
,
0000
0100
0000
0100
0000
0100
0000
0100
0000
0100
0000
0000
,
0100
0001
0010
0100
1000
0000
0001
0000
,
0001
1000
0010
0100
0001
0000
1000
0000
,
1000
0000
0000
0010
0000
0000
0100
0000
0000
0001
0000
0000
0010
0000
0000
0100
0000
0000
0010
0000
0000
0000
0010
0000
,
0000
0010
0000
0010
0000
0010
0000
0010
0000
0010
0000
0000
,
0100
1000
0001
0100
,
0010
1000
0001
1000
,
0010
0001
0010
0100
,
0001
0010
0100
1000
,
0010
1000
0001
0010
,
0100
1000
0001
0010
,
1000
0010
0001
0010
,
0100
0000
1000
0000
0100
1000
0010
0000
,
0100
0001
0010
0100
,
0001
0100
1000
0001
,
0100
0010
0001
0010
,
1000
0001
0100
0001
,
0010
0100
1000
0001
,
0100
0001
1000
0100
,
0010
0001
1000
0100
,
1000
0000
0010
0000
0100
0001
0010
0100
,
1000
0100
1000
0000
0010
0100
0010
0100
,
0010
0000
1000
0000
0100
0000
0010
0001
,
1000
0001
1000
0000
0100
1000
0100
1000
,
0100
0000
1000
0010
1000
0000
0001
0100
,
0000
1000
0100
0000
0001
0100
0000
1000
,
0100
0000
0001
0100
0001
0000
0010
0001
,
0000
0010
1000
0000
0010
0001
0000
0010
,
1000
0000
0010
0001
0100
0010
1000
0001
,
0010
0001
0100
0000
0010
1000
0001
1000
,
0100
0000
0010
0000
1000
0000
0010
0001
,
1000
0001
0100
0000
0010
0100
0001
0100
,
0010
0000
1000
0010
1000
0000
0100
1000
,
0000
0001
0010
0000
1000
0100
0000
0010
,
0001
0000
0100
0010
0100
0000
0001
0100
,
0000
0010
1000
0000
1000
0100
0000
0001
,
0010
0000
0100
1000
0010
0100
0001
1000
,
0100
0001
0100
0000
0010
0100
1000
0010
,
0100
0000
0001
0000
1000
0000
0100
1000
,
0010
0100
0001
0000
0010
0100
1000
0010
,
0001
0000
0010
1000
0100
0000
0010
0001
,
0000
0100
0001
0000
0100
1000
0000
0010
,
1000
0000
0001
1000
0001
0000
1000
0010
,
0000
0001
0100
0000
0100
1000
0000
0001
,
0010
0000
0100
1000
0100
0000
0010
0001
,
0010
0000
0100
0000
1000
0000
0010
1000
,
0010
0100
0001
0000
0010
0000
0100
0000
,
0000
1000
0000
0010
0000
0000
0000
0000
0000
0101
0000
0000
,
0000
0000
1000
0000
0000
0000
0001
0010
,
0001
0010
0100
0010
0100
0010
1000
0000
,
0000
0000
0010
0000
0000
0000
0001
0100
,
0010
0000
1000
0001
0010
0000
0001
1000
,
0010
0000
0100
0000
1000
0000
0100
0000
0001
0000
1000
0000
0100
0000
0010
0001
,
1000
0010
1000
0000
0001
0000
0100
0010
1000
0100
0010
0000
0001
0000
0010
0100
,
0010
0000
0000
0000
0000
0000
0001
0000
0000
0100
0000
0000
0001
0000
0000
0000
1000
0000
0000
0000
0100
0000
0000
0000
1000
0000
0000
0000
0001
0000
0000
0000
0100
0000
0000
0000
0010
0000
0000
0000
0000
0000
1000
0000
0000
0100
0000
0000
,
1000
0010
0100
0000
0010
0000
0100
0001
1000
0100
0010
0000
0001
0000
0010
0100
,
0010
0000
0000
0000
0000
0000
0100
0000
0000
1000
0000
0000
0100
0000
0000
0000
0010
0000
0000
0000
0001
0000
0000
0000
0100
0000
0000
0000
0010
0000
0000
0000
1000
0000
0000
0000
0001
0000
0000
0000
0000
0000
0100
0000
0000
0010
0000
0000
,
1000
0001
0010
0000
0100
0000
0010
0001
0100
0010
1000
0000
0001
0000
1000
0010
,
1000
0000
0000
0000
0000
0000
0001
0000
0000
0010
0000
0000
0001
0000
0000
0000
0100
0000
0000
0000
0010
0000
0000
0000
1000
0000
0000
0000
0001
0000
0000
0000
0010
0000
0000
0000
0100
0000
0000
0000
0000
0000
0010
0000
0000
0001
0000
0000
,
1000
0100
1000
0000
0010
0000
1000
0010
0100
0001
0100
0000
0010
0000
1000
0100
,
1000
0000
0000
0000
0000
0000
0001
0000
0000
0100
0000
0000
0010
0000
0000
0000
1000
0000
0000
0000
0200
0000
0000
0000
0010
0000
0000
0000
0010
0000
0000
0000
0310
0000
0000
0000
0000
0000
0000
0000
0000
0000
0000
0000
0000
0000
0000
0000
;
