#TITLE:KiLLeR MeRMaiD;
#SUBTITLE:;
#ARTIST:QURELESS;
#TITLETRANSLIT:;
#SUBTITLETRANSLIT:;
#ARTISTTRANSLIT:;
#GENRE:;
#CREDIT:;
#MUSIC:KiLLeR MeRMaiD.ogg;
#BANNER:KiLLeR MeRMaiD-bn.png;
#BACKGROUND:KiLLeR MeRMaiD-bg.png;
#CDTITLE:;
#SAMPLESTART:17.455;
#SAMPLELENGTH:13.636;
#SELECTABLE:YES;
#OFFSET:0.000;
#BPMS:0.000=440.000
,320.000=110.000
,352.000=220.000
,384.000=110.000
,400.000=220.000
,416.000=440.000
;
#STOPS:;
#BGCHANGES:;
#FGCHANGES:;

//--------------- dance-single - Sparks ----------------
#NOTES:
     dance-single:
     Sparks:
     Challenge:
     18:
     0,0,0,0,0:
1010
0000
0000
0110
,
0000
0000
0101
0000
,
1001
0000
0000
1100
,
0000
0000
0110
0000
,
0011
0000
0000
1001
,
0000
0000
1010
0000
,
0110
0000
0000
1001
,
0000
0000
0110
0000
,
1000
0200
0010
0310
,
0002
0100
0103
0010
,
1001
0200
0010
0310
,
2000
0001
3001
0010
,
0101
2000
0010
3010
,
0200
0001
0301
1000
,
1100
0002
0010
0013
,
0200
0000
1000
0000
1300
0001
1000
0000
,
2002
0000
0000
0000
,
0000
0000
0000
0000
,
0000
0000
0000
0000
,
0000
0000
0000
0000
,
0000
0000
0000
0000
,
0000
0000
0000
0000
,
0000
0000
0000
0000
,
0000
0000
0000
0000
0000
0000
0000
3003
,
0100
0010
1000
0001
,
0010
0000
0100
0000
1000
0000
0001
0010
,
0100
0010
0001
0100
,
1000
0000
0100
0000
0010
1000
0010
1000
,
0100
0010
0001
1000
,
1001
0001
0100
0010
,
1010
0000
0101
0000
,
1000
0100
0010
0001
0100
0010
0100
0010
,
1000
0001
0100
0010
,
1000
0000
0100
0000
0010
0000
0001
0010
,
0100
1000
0001
1000
,
0001
0000
0000
0100
0010
1000
0001
0000
0000
1000
0100
0010
,
0001
0100
0101
1000
,
0100
1000
1100
0001
,
0011
0000
1000
0100
0010
0100
1000
0010
,
0220
0330
0202
0303
,
1000
0010
0100
0010
,
1000
0000
0100
0000
0010
0000
0001
1000
,
1100
0000
0101
0000
,
1000
0010
0100
0001
,
0010
0000
1001
1001
,
1001
0000
0000
0000
0000
0000
0001
0000
0000
0100
0010
1000
,
0010
0000
0000
0100
0001
0010
0001
0000
0000
1000
0100
0010
,
0001
0010
0001
0101
,
0000
0000
2020
0000
,
0000
0000
0000
3030
0001
0000
1000
0000
,
0100
0000
0010
0000
0001
1000
0001
1000
,
0001
0100
0010
1000
,
0100
0000
1000
0000
0010
0100
0010
1000
,
0010
0100
0001
1000
,
1100
0000
0101
0000
,
1020
1030
2001
3001
,
1000
0100
0010
0001
,
1000
0010
0100
0010
1000
0000
0100
0000
,
0010
0001
1000
0010
,
0100
0010
1000
0001
0010
0000
0001
0000
,
1010
0001
1000
0100
,
0011
0100
0010
1000
,
1100
0000
0011
0000
,
1010
0000
0000
0110
0000
0000
0101
0000
,
0001
0010
0100
2000
,
0100
3100
0010
0001
,
1000
0010
0100
0002
,
0100
0103
0010
1000
,
0001
0010
1000
0020
,
0100
0130
1000
0001
,
0100
0010
0200
1000
,
1300
0000
0100
0000
0010
1000
0010
1000
,
0100
0010
0001
0101
,
0001
1000
0010
0100
,
0001
1000
0100
0110
,
0100
1000
0010
0100
,
1000
0100
0001
0011
,
0001
1000
0100
0010
,
0001
0100
0010
1000
0001
0010
0100
1000
,
0001
0000
0000
0100
0000
0000
0010
0000
0100
0000
0001
0000
0010
0000
0000
0100
0000
0000
1000
0000
0000
0001
0000
0000
,
0010
0000
0100
0000
1000
0000
0001
0000
0100
0000
0010
0000
1000
0000
0001
0000
0010
0000
0001
0100
0001
0000
1000
0100
1000
0000
0000
0000
0000
0000
0010
0000
,
0010
0100
0001
0100
0010
1000
0001
1000
0100
0010
0001
1000
0010
0100
0001
0010
,
0100
1000
0100
1000
0010
1000
0010
1000
0001
0010
0001
0010
0100
0010
0100
0010
,
0011
0000
0000
0000
1100
0000
0000
0000
1000
0010
0100
0010
0001
0000
0000
0000
,
1000
0000
0100
0000
0001
0000
0100
0000
0010
0000
0001
0000
0100
0000
0001
0000
0010
0000
0100
1000
0001
0000
0100
0010
1000
0000
0001
0000
0100
0000
0010
0000
,
1000
0001
0100
0001
0010
0100
0010
0001
0100
0010
0100
0001
1000
0010
0100
0001
,
1000
0100
1000
0100
0010
0001
0010
0001
1000
0010
1000
0010
0100
0010
0100
0010
,
1000
0001
1000
0001
0100
0010
0100
0010
1000
0010
1000
0010
0100
0100
0100
0000
,
0101
0000
0000
1100
0000
0000
1010
0000
,
1001
0000
0000
0011
0000
0000
0101
0000
,
1001
0000
0000
0110
0000
0000
0011
0000
,
1100
0000
0000
1010
0000
0000
0110
0000
,
1010
0010
0100
0100
0010
1000
1000
0001
,
1001
0100
0010
0010
0001
0100
0100
0010
,
1010
0100
0001
0001
1000
0100
0100
0010
,
0011
1000
0010
0010
0100
0001
0001
1000
,
0001
0100
0010
1000
0000
0000
1000
0000
1000
0100
0010
0001
0000
0000
0000
0000
,
0001
0100
1000
0100
0001
0000
0010
0000
0022
0000
0000
0000
0000
0000
0033
1000
,
1000
0000
0010
0000
0001
0000
0010
0000
0100
0000
0000
0000
0000
0000
0001
0000
0001
0000
1000
0000
0100
0000
1000
0000
1010
0000
0000
0011
0000
0000
0101
0000
,
1000
0000
0100
0000
0010
0000
0001
0000
0100
0000
0000
0010
0000
0000
1000
0000
1010
0000
0000
0000
0000
0000
0000
0000
1000
0100
0010
0001
1000
0100
0010
0001
,
1000
0010
0100
0010
1000
0001
0100
0001
,
0010
0100
1000
0001
0010
0001
0100
0010
,
1000
0001
0100
0010
1000
0001
0010
0100
,
1000
0001
0010
1000
0010
0001
0100
0010
,
2000
0100
3100
0010
,
0002
1000
1003
0010
,
0200
0001
0301
1000
,
0200
0010
0310
0001
,
1000
0100
0001
0100
0010
0001
0100
1000
,
0100
0010
1000
0100
0010
0001
0100
0010
,
1010
0000
0011
0000
,
1100
0000
1010
0000
,
0100
0001
1000
0011
,
0100
1000
0001
0100
,
0010
1000
0001
1100
,
0010
0001
0100
0010
,
1000
0001
0010
1001
,
0100
1000
0010
0100
,
0101
1001
1100
1001
,
0011
0000
1001
0000
,
0100
0010
0001
1000
,
0010
1000
0001
0100
,
0010
0000
1000
0100
1000
0000
0001
0010
,
0001
0100
0010
1000
,
0100
0000
0000
0010
0001
0100
0010
0000
0000
1000
0001
0100
,
0010
0000
0000
1000
0100
0010
0001
0000
0000
0100
0010
1000
,
0002
0010
0010
1003
,
0001
0000
0000
1000
0000
0000
0100
0000
0010
0000
0001
0000
1000
0000
0000
0000
0000
0000
0001
0000
0000
0000
0000
0000
,
1001
1001
1001
0000
,
2000
0100
3100
0010
,
0001
0000
1000
0010
0100
0000
0001
0100
,
0010
0110
0110
1000
,
0001
0010
0001
1000
,
0100
1000
0000
0010
1000
0000
0001
0000
,
0010
0100
1000
0010
,
0101
0010
0101
0010
,
1000
0001
0010
0001
,
1000
0000
0100
0000
0010
0000
0001
0100
,
0010
1000
0100
0000
0010
0000
0001
0000
,
1000
0100
1000
0010
,
0100
0000
0001
1000
0010
0000
0100
0000
,
0101
0000
0000
0011
0000
0000
1000
0100
,
0010
0000
0001
0000
0010
0000
0100
1000
,
0100
1000
0100
0010
0100
1000
0010
0100
,
0001
0000
1000
0000
0010
0100
0010
0100
,
0010
0000
1000
0000
0100
0000
0010
0001
,
1000
0000
0000
0001
0100
0001
0100
0000
0000
1000
0100
1000
,
0200
0000
0010
0000
0310
0000
0001
1000
,
0010
0100
0001
0010
,
0100
1000
0001
0100
0010
0000
1000
0000
,
0001
0000
0010
0000
0001
0100
0010
0100
,
1000
1100
0000
0000
,
0100
0000
0000
0010
1000
0010
2000
0000
0000
0001
0000
0000
,
3001
0000
0000
0010
0001
0010
0001
0000
0000
1000
0000
0000
,
0100
0010
0001
1000
,
0001
0010
0100
1000
0000
0000
0010
0000
0000
0100
0000
0000
,
0110
0000
0010
1000
0100
0000
0010
0001
,
1000
0010
0000
0100
0001
0000
1000
0000
,
2200
0000
0000
0000
,
0000
0000
0000
0000
,
0000
0000
0000
3300
0000
0000
0000
0000
;
