#TITLE:KINGDOM COME;
#SUBTITLE:;
#ARTIST:RoughSketch;
#TITLETRANSLIT:;
#SUBTITLETRANSLIT:;
#ARTISTTRANSLIT:;
#GENRE:;
#CREDIT:;
#BANNER:KINGDOM COME-bn.png;
#BACKGROUND:KINGDOM COME-bg.png;
#LYRICSPATH:;
#CDTITLE:;
#MUSIC:KINGDOM COME.ogg;
#OFFSET:-1.723000;
#SAMPLESTART:1.700000;
#SAMPLELENGTH:12.234000;
#SELECTABLE:YES;
#BPMS:0.000000=282.000000
;
#STOPS:
;
#BGCHANGES:;
#KEYSOUNDS:;
#ATTACKS:;

//---------------dance-single - Sparks----------------
#NOTES:
     dance-single:
     Sparks:
     Challenge:
     20:
     1.125295,1.707124,0.453041,0.679561,0.986460,1078.000000,1016.000000,62.000000,93.000000,0.000000,0.000000,1.125295,1.707124,0.453041,0.679561,0.986460,1078.000000,1016.000000,62.000000,93.000000,0.000000,0.000000:
1000
0000
0000
0100
0000
0000
0010
0000
0000
0001
0000
0000
1000
0000
0000
0100
0000
0000
0010
0000
0000
0001
0000
0000
1000
0000
0000
0000
0010
0000
0000
0000
0100
0000
0000
0000
0001
0000
0000
0000
0010
0000
0000
0000
0100
0000
0000
0000
,
1000
0000
0000
0100
0000
0000
0010
0000
0000
0001
0000
0000
1000
0000
0000
0000
0010
0000
0000
0000
0100
0000
0000
0000
0001
0000
0000
0010
0000
0000
0100
0000
0000
1000
0000
0000
0001
0000
0000
0000
0100
0000
0000
0000
0010
0000
0000
0000
,
2000
0000
0000
0001
0000
0000
3001
0000
0000
1001
0000
0000
1001
0000
0000
0000
0101
0000
0000
0000
1100
0000
0000
0000
,
1000
0010
0100
0001
1000
0010
0100
0001
1000
0010
0100
0001
1000
0010
0100
0001
,
0000
0000
0000
0000
0000
0000
0000
0000
0000
0000
0000
0000
0010
0000
0000
0100
0000
0000
1000
0000
0000
0001
0000
0000
1000
0000
0000
0000
0010
0000
0000
0000
1000
0000
0000
0000
0001
0000
0000
0000
0010
0000
0000
0000
0001
0000
0000
0000
,
0100
0001
1000
0001
1000
0001
1000
0001
1000
0001
1000
0001
0000
0000
0000
0000
,
1010
0000
0100
0010
,
0001
0000
0100
0010
,
1000
0000
0100
1000
,
0010
1000
0100
0010
,
0001
0000
1000
0010
,
0100
0000
0001
1000
,
0100
0000
1000
0001
,
0100
0001
0010
0100
,
1000
0010
1000
0010
0001
1000
0001
1000
,
0100
0001
0100
0001
0010
1000
0010
1000
,
0001
0100
1000
0010
0001
0010
1000
0001
,
0000
0000
0000
0000
,
0002
0000
0000
0000
0000
0000
0100
0000
0000
0000
0013
0100
1000
0000
0010
0000
,
2000
0000
0000
0000
0000
0000
3100
0000
1000
0010
1000
0000
0001
0000
0010
0000
,
0200
0000
0000
0301
0100
1000
0100
0001
,
0100
0010
0001
0000
1000
0000
0010
0000
0100
0010
1000
0000
0001
0000
1000
0000
,
0020
0000
0000
0000
0000
0000
0130
0000
0001
0010
0100
0000
1000
0000
0010
0000
,
0200
0000
0000
0000
0000
0000
0310
0000
1000
0000
0100
1000
0001
0000
0100
0000
,
0010
0000
0000
0000
1000
0000
0001
0000
0010
0000
0100
0000
1000
0100
1000
0000
,
0001
0100
0010
1000
0001
0000
0000
0000
1000
0001
0100
0001
0010
0000
0000
0000
,
0200
0000
0000
0310
0001
0100
0001
0000
,
1000
0000
0000
0000
0100
0000
1000
0000
0010
0000
0100
0001
1000
0000
0010
0000
,
1000
0100
0010
1000
0010
0001
0100
0010
,
1000
0001
0100
0010
1000
0000
0001
0000
0010
0100
1000
0010
1000
0000
0001
0000
,
0100
0000
0000
0000
0010
0000
1000
0000
0010
0100
0010
1000
0001
0000
0000
0000
,
1002
0000
0000
0000
0000
0000
0013
0000
0001
0000
0100
0000
0001
0010
0100
0000
,
1000
0010
1000
0010
1000
0000
0001
0010
0001
0010
0001
0000
1000
0000
0100
0000
,
0020
0000
0230
0000
2300
0000
3020
0000
0130
0001
1000
0100
0010
0001
0100
0010
,
0200
0000
0010
0000
0001
0001
0001
0000
,
0010
0000
1000
1000
1300
0000
0010
0000
,
0001
0100
1010
0000
0001
0000
0010
0001
,
1100
0000
0010
0000
1001
2002
0000
0003
,
0020
3000
2030
0200
,
3000
0320
0002
0030
,
0203
0320
2000
0030
,
0002
0003
3200
0020
,
0030
2300
3020
0000
,
0200
0030
0000
0000
0000
0000
0000
0000
0000
0000
0000
0000
0000
0000
0000
0000
0000
0000
0000
0000
0000
0000
0000
0000
0000
0000
0000
0000
0000
0000
0000
0000
0000
0000
0000
0000
0000
0000
0000
0000
0000
0000
0000
0000
0000
0000
0000
0000
0002
0000
0000
0000
0000
0000
0000
0000
0000
0000
0000
0000
0000
0000
0000
0000
0000
0000
0000
0000
0000
0000
0000
0000
0000
0000
0000
0000
0000
0000
0000
0000
0000
0000
0000
0000
0000
0000
0000
0000
0000
0000
0000
0000
0000
0000
0000
0000
0000
0000
0000
0000
0000
0000
0000
0000
0000
0000
0000
0000
0000
0000
0000
0000
0000
0000
0000
0000
0000
0000
0000
0000
0000
0000
0000
0000
0000
0000
0000
0000
0000
0000
0000
0000
0000
0000
0000
0000
0000
0000
0000
0000
0000
0000
0000
0000
0300
0000
0000
0000
0000
0000
0000
0000
0000
0000
0000
0000
0000
0000
0000
0000
0000
0000
0000
0000
0000
0000
0000
0000
0000
0000
0000
0000
0000
0000
0000
0000
0000
0000
0000
0000
0000
0000
0000
0000
0000
0000
0000
0000
0000
0000
0000
0000
,
1003
0002
0020
0000
0000
0003
0230
0000
,
2000
0300
3020
2000
,
0030
0000
3002
0000
0023
0000
0200
0030
,
1300
0010
0200
0000
0000
0000
0301
0000
,
2002
0000
0000
0000
0000
0000
0000
0000
0000
3003
0000
0000
1000
0000
0000
0100
1000
0001
0010
0000
0000
0100
0000
0000
,
1000
0000
0010
0100
1000
1100
0010
0100
,
0001
0000
0010
0100
0001
0100
0101
0000
,
0021
0000
0000
0000
0100
0000
0100
0000
0130
0000
0000
0000
1001
0000
0000
0101
,
0000
1100
0010
0100
1000
0010
0100
0001
,
0010
0000
0100
0001
0010
0011
0100
1000
,
0020
0000
0100
0130
1001
2001
0100
0000
,
3001
0000
0000
0000
0000
0000
0100
0000
0000
0010
0000
0000
1000
0000
0000
0000
0000
0000
0001
0000
0000
1000
0100
0010
,
0001
0000
0000
1000
0010
0100
0001
0000
0000
1000
0100
1000
0001
0000
0000
0100
0001
1000
0001
0000
0000
0000
0000
0000
,
0002
0000
0000
0000
0100
0000
0103
0000
0001
0000
0010
0000
0100
0000
1000
0010
,
0100
0000
1010
1001
0000
0011
0210
0000
,
1000
0000
0000
0000
0000
0000
0301
0000
0000
0100
0000
0000
1000
0000
0000
0010
0000
0000
1010
0000
0000
0000
0011
0000
,
0000
0000
1010
0000
0000
0000
0100
0000
0000
0001
0000
0000
0010
0000
0000
0100
0000
0000
0010
0000
0000
0000
0000
0000
,
0000
0000
0000
0001
0010
0010
0010
0010
1000
0000
0000
0011
,
0000
0000
0000
0100
1000
1000
1000
1000
0010
0000
0000
0000
,
0001
0000
0000
0000
1000
0000
0010
0000
0000
0000
0001
0000
0100
0000
0000
0010
,
0000
1000
1001
0000
0000
0000
0010
1000
,
0002
0000
0000
0000
0000
0000
1003
0000
0200
0000
0010
0001
0000
0000
0010
0000
,
0020
0300
1000
0000
0030
0000
0010
0000
1002
0000
0000
0000
0000
0000
0100
0000
,
0000
0000
0000
0000
0000
0000
0100
0000
0000
0000
0000
0000
0000
0000
0000
0000
0000
0000
0100
0000
0000
0000
0000
0000
0100
0000
0000
0000
1000
0000
0000
0000
0000
0000
0000
0000
0010
0000
0000
0000
0000
0000
0000
0000
0000
0100
0000
0000
,
0000
0000
1000
0000
0010
0000
0100
0000
0000
0000
0010
0000
0000
0000
2000
0000
0000
0000
0000
0000
0000
0003
0000
0000
,
0010
0000
0000
0000
0100
0010
0000
0000
0010
0000
0100
3000
1100
0000
0000
0101
,
0000
0000
1100
0000
1000
0010
0100
0001
1000
0010
0100
0001
0000
0000
0000
0000
,
0010
0000
0000
0000
0000
0000
0000
0000
0000
0000
0000
0000
0000
0000
0000
0000
0000
0000
0000
0000
0020
0000
0000
0000
0000
0000
0000
0000
0000
0000
0100
0000
0000
1000
0000
0000
0000
0000
0000
0000
0000
0000
0000
0000
0000
0100
0000
0000
,
0000
0000
0000
0000
0000
0000
1000
0000
0000
0000
0000
0000
0001
0000
0000
0000
0000
0000
0000
0000
0100
0000
0000
0000
1000
0000
0000
0000
0000
0000
0000
0000
1000
0000
0000
0000
0100
0000
0000
0000
0030
0000
1000
0000
0000
0010
0000
0000
,
0100
0001
2000
0000
0001
0000
0001
0000
0001
0000
3001
0000
0000
0000
0001
0010
,
0100
0000
0000
0000
0110
0000
0000
0000
0000
0000
1000
0001
0100
0000
0000
0000
,
0001
0000
1000
0000
0100
0000
0020
0000
0000
0000
0001
0000
0000
0000
1000
0000
0000
0000
0001
0000
0000
0100
0000
0000
,
1000
0000
0200
0000
0330
0000
0010
1000
,
0000
0000
0000
0000
0000
0000
0100
0000
0000
0001
0000
0000
0010
0000
0000
0000
0000
0000
0000
0000
0000
0000
0000
0000
0000
0000
0000
0000
0100
0000
0000
0000
0000
0000
0000
0000
1000
0000
0000
0000
0000
0000
1000
0000
0000
0000
0000
0000
,
0010
0000
0000
1000
0000
0000
0001
0000
0000
0000
0000
0000
0100
0000
0000
0000
0100
0000
0000
0000
0100
0000
0000
0000
0100
0000
0000
0000
0000
0000
1000
0000
0000
0000
0000
0000
0010
0000
0000
0000
0000
0000
0000
0000
0110
0000
0000
0000
,
0000
0000
0000
0000
1010
0000
0000
0000
0000
0000
0000
0000
1100
0000
0000
0000
0000
0000
0000
0000
0000
0000
0000
0000
0000
0000
0000
0000
0000
0000
1000
0000
0000
0010
0000
0000
0000
0000
0000
0000
0000
0000
0000
0000
0000
1000
0000
0000
,
0100
0000
1000
0000
0010
0100
0001
1000
0010
0100
0001
1000
0100
0000
0100
0000
,
0010
0010
0100
0100
1000
1000
0010
0010
,
0100
0000
0100
0000
0001
0000
0001
0000
0010
0000
0010
0000
1000
0001
1000
0001
,
0100
0010
0100
0010
1000
0001
0010
0100
1000
0001
0100
0010
1000
0000
0000
0000
,
0000
0000
0000
0000
0100
0010
0001
0100
,
0020
0000
0000
2000
,
3000
0200
0330
2020
,
0000
0000
0000
3030
,
0000
0000
0000
0000
0100
0010
1000
0100
,
0020
0000
0000
0002
,
0003
0200
0330
0022
,
0000
0000
0000
0033
,
0000
0000
0000
0000
1000
0010
0100
0001
,
2000
0000
0000
0020
,
0030
0200
3300
2002
,
0000
0000
0000
3000
,
0000
0200
0003
0020
,
0000
0300
0000
0030
1000
0100
0010
0000
,
0000
0001
0000
0000
0020
0000
0100
0000
,
0000
0000
0100
0000
,
0000
0031
0000
0011
,
0001
0100
0010
1000
,
0001
0000
0000
0000
0010
0000
0000
0000
0010
1000
0001
0100
0010
0000
1000
0002
,
0000
0000
0100
0000
0103
0000
0010
0100
,
0001
0000
0000
0010
0000
0000
0100
0000
1000
0000
0010
0000
1000
0000
0000
0100
0000
0000
0010
0000
0000
0000
0000
0000
,
0010
0001
0100
0000
0001
1000
0010
0000
,
0100
0000
0000
0001
0000
0000
1000
0000
0000
0000
0000
0000
0100
0000
0000
1000
0010
0100
0001
0000
0000
0000
1000
0000
,
0100
0000
1000
0000
0100
0000
0010
0000
0000
0000
0100
0000
1000
0000
0010
0000
0100
0000
0001
0000
0000
0001
0000
0000
,
0010
0000
0000
0010
0000
0000
0001
0000
0100
0000
0010
0000
1000
0000
0002
0000
2000
0000
0000
0000
0000
0000
0000
0000
,
0000
0000
0000
0000
,
0000
0000
3003
0000
0000
0000
0010
0100
,
1000
0100
0010
0001
1000
0001
1000
0001
0010
0001
1000
0100
1000
0001
0010
0100
,
0010
0100
1000
0002
0020
0000
0000
0000
0003
0000
0030
0000
0001
1000
0010
0100
,
0001
1000
0010
0100
0010
1000
0001
0100
0010
1000
0001
0100
0010
1000
0010
1000
,
0100
0010
0100
0020
0002
0000
0000
0000
0033
0000
0000
0000
0011
0000
0000
0000
,
0110
0000
0000
0000
1100
0000
0000
0000
0010
0000
1000
0000
0001
0010
0001
0000
,
0000
0000
1000
0010
1000
0000
0000
0000
0001
0100
0010
0000
1000
0000
0010
0000
,
0100
0001
0010
0000
1000
0200
0000
0000
,
0000
0000
0000
0000
0000
0000
0000
0000
0000
0000
0000
0000
1000
0000
0000
0000
0000
0000
1000
0000
0000
0000
0000
0000
1000
0000
0300
0000
0000
0000
0000
0000
0000
0000
0000
0000
0001
0000
0000
0100
0000
0000
0001
0000
0000
0100
0000
0000
,
0010
1000
0010
1000
0001
0010
0001
0010
0100
1000
0100
1000
0001
0010
0100
1000
,
0001
0010
0100
2000
0002
0000
0000
0000
0000
0000
3003
0000
0100
0010
1000
0010
,
0100
0010
1000
0010
0100
0001
1000
0100
0010
0001
1000
0100
0010
0001
1000
0001
,
1000
0010
0100
0002
2000
0000
0000
0000
0000
0000
3003
0000
0010
0000
0000
0000
,
1000
0000
0010
0000
0100
0001
0010
0000
,
0000
0001
0000
0000
1000
0000
0100
1000
,
0010
0000
0100
0000
0100
0002
0000
0000
,
0000
0000
0000
0000
0000
0000
1003
0100
,
0010
0100
1000
0010
0100
0001
0010
0000
,
0100
1000
0000
0000
0010
0100
1000
0000
,
0001
1000
0000
0001
0100
0001
0010
0100
,
1000
0010
0100
0110
0010
0110
0200
0000
,
0002
0000
0000
0303
0010
0100
1000
0000
,
0001
1001
0000
1000
1010
0000
0101
0000
,
0001
0010
0000
1000
0010
0100
0001
0100
,
0100
0000
0000
0100
0000
0000
0010
0000
1000
0000
0001
0000
0100
0000
0000
0001
0000
0000
1000
0000
0000
0000
0000
0000
,
0100
0010
0000
0001
0100
0010
0100
0000
,
0001
0000
1000
0000
0100
1000
0010
0000
1000
0000
0000
0000
0101
0000
0000
0000
,
0001
0010
0000
1000
0100
0010
0001
0010
,
1000
0010
0001
0100
0020
0000
0000
0000
,
1000
1030
0101
0000
1001
0000
0010
1000
,
0100
0000
1000
0000
0010
0000
0100
0000
0001
0010
0100
1000
0001
0100
0010
1000
,
0001
0010
0100
1000
0001
0100
0001
1000
0100
1000
0001
0100
0001
0000
0000
0000
,
0000
0000
0000
0000
,
1000
0010
0100
0001
0010
0100
0000
0000
0000
1000
0100
0010
,
1000
0010
0100
1000
0010
0100
0000
0000
0000
0000
0000
0000
,
0001
0000
0000
0000
0000
0000
0011
0000
0000
0000
0000
0000
0000
0000
0000
0000
1000
0000
0010
0000
0000
0100
0000
0000
0010
0000
0000
0100
0000
0000
0010
0000
0000
0000
0000
0000
0000
0000
0000
0000
0000
0000
0000
0000
1000
0000
0000
0000
,
0001
0010
0001
0010
0001
0000
0000
0000
0000
0000
0000
0000
0001
0000
1000
0000
,
0001
0000
0100
0010
0000
0000
1000
0010
0100
0001
1000
0010
0100
0010
1000
0000
,
0100
0010
1000
0000
0001
1000
0100
0000
0010
0100
1000
0001
1000
0001
1000
0001
,
1000
0000
0000
0001
0000
0000
1000
0000
0000
0001
0000
0000
0010
0000
0000
0001
0000
0000
0010
0000
0000
0001
0000
0000
0010
0000
0000
0001
0000
0000
0010
0000
0000
0001
0000
0000
0010
0000
0000
0000
0100
0000
0000
0000
1000
0000
0000
0000
,
0010
0000
0000
0000
0100
0000
0000
0000
0001
0000
0000
0000
1000
0000
0000
0000
0100
0000
0000
0000
0010
0000
0000
0000
0001
0000
0000
0100
0000
0000
0001
0000
0000
0100
0000
0000
0001
0000
0000
0100
0000
0000
0001
0000
0000
0000
0000
0000
,
0000
0000
0010
1000
1010
0000
0000
1100
0000
0000
0001
0000
1001
0000
0000
0101
,
0000
0000
0010
0000
0011
0000
0000
1010
0000
0000
0011
0000
2001
0000
0100
0000
,
0100
0000
0000
0000
0000
0000
0100
0000
0000
0000
0000
0000
3100
0000
0000
0000
0000
0000
0000
0000
0000
0000
0000
0000
0000
0000
0000
0000
0000
0000
0000
0000
0000
1000
0000
0000
0010
0000
0000
0000
0100
0000
0000
0000
0001
0000
0000
0000
,
1000
0000
0000
0000
0100
0000
0000
0000
1000
0000
0000
0000
0001
0000
0000
0100
0000
0000
0010
0000
0000
1000
0000
0000
0001
0000
0000
0010
0000
0000
0100
0000
0000
1000
0000
0000
0000
0000
0000
0000
0000
0000
0000
0000
0000
0000
0000
0000
,
2020
0000
0000
3030
;
