#TITLE:ITS TIME;
#SUBTITLE:;
#ARTIST:Femtanyl;
#TITLETRANSLIT:;
#SUBTITLETRANSLIT:;
#ARTISTTRANSLIT:;
#GENRE:;
#CREDIT:;
#MUSIC:ITS TIME.ogg;
#BANNER:ITS TIME-bn.png;
#BACKGROUND:ITS TIME-bg.png;
#CDTITLE:;
#SAMPLESTART:42.860;
#SAMPLELENGTH:14.695;
#SELECTABLE:YES;
#OFFSET:0.000;
#BPMS:0.000=195.985
,262.000=97.993
,263.000=195.985
,285.000=97.993
,286.000=195.985
,380.000=97.993
,381.000=195.985
;
#STOPS:;
#BGCHANGES:;
#FGCHANGES:;

//--------------- dance-single - Sparks ----------------
#NOTES:
     dance-single:
     Sparks:
     Hard:
     16:
     0,0,0,0,0:
0000
0000
0000
0000
,
0000
0000
0000
0000
,
0000
0000
0000
0000
,
0000
0000
0000
0000
,
1000
0100
0010
0001
,
1000
1000
0100
0010
0000
0001
0010
0000
,
0001
0100
0010
1000
,
0001
0001
0100
0020
0000
0000
0100
0030
,
1000
0010
0100
0010
1000
0000
1100
0000
,
0100
0010
0001
0010
1000
0000
0011
0000
,
0100
0001
1000
0001
0010
0000
1100
0000
,
0010
0100
0001
0100
1000
0000
0101
0000
,
0100
0010
1000
0001
0010
0000
0001
0101
,
0000
1000
1010
0000
0001
0011
0000
0100
,
1001
0100
0010
1001
0010
0100
1001
0100
,
0010
1001
0100
1000
0200
0010
0010
0010
,
1300
1000
0011
0011
,
0100
0100
1001
1001
,
0010
0010
0101
0101
,
1000
1000
0001
1000
0010
0100
0001
0010
,
0100
0001
0100
2000
0010
0000
0100
3000
,
0010
0001
0010
2000
0100
0000
0001
3000
,
0100
1000
0100
0020
1000
0000
0001
0030
,
0100
0001
1000
0100
0010
0001
0100
0010
,
1000
0001
0100
0010
1001
0000
0110
0000
,
0001
0010
0100
1000
0011
0000
1100
0000
,
1000
0010
0100
0001
1100
0000
0101
0000
,
0010
0100
1000
0001
0110
0000
1001
0000
,
0010
1000
0100
0010
0011
0000
1100
0000
,
0001
0100
0010
1000
1100
0000
1010
0000
,
0100
0001
0010
1000
0110
0000
1001
0000
,
0200
0000
0000
0010
0000
0000
0010
0300
,
0001
0000
0001
0000
0010
0100
1000
0200
,
0000
0010
0000
2300
0100
3000
1000
0020
,
0000
0100
0030
0010
1000
0000
1000
0001
,
0100
0000
0100
0010
0100
0100
0100
0100
,
0001
0010
0011
0000
1000
0010
1010
0000
,
0100
1000
1100
0000
0001
0100
0101
0000
,
1000
0100
0110
0100
1000
0010
0110
0200
,
0002
0000
0000
0000
0000
0000
0000
0303
,
0110
0000
0000
0000
0100
0000
0000
0000
1100
0000
0000
0000
0100
0000
0000
0000
0102
0003
0000
0000
0002
0003
0000
0000
0020
0030
0000
0000
0200
0300
0000
0000
,
0110
0000
0000
0000
0100
0000
0000
0000
1100
0000
0000
0000
0100
0000
0000
0000
0201
0300
0000
0000
0200
0300
0000
0000
0020
0030
0000
0000
0002
0003
0000
0000
,
0101
0000
0000
0000
0001
0000
0000
0000
0011
0000
0000
0000
0001
0000
0000
0000
1002
0003
0000
0000
0002
0003
0000
0000
0200
0300
0000
0000
0020
0030
0000
0000
,
1010
0000
0000
0000
0010
0000
0000
0000
0011
0000
0000
0000
0010
0000
0000
0000
0120
0030
0000
0000
0020
0030
0000
0000
2000
3000
0000
0000
0002
0003
0000
0000
,
1001
0000
0000
0000
1000
0000
0000
0000
1001
0000
0000
0000
0001
0000
0000
0000
2001
3000
0000
0000
2000
3000
0000
0000
0200
0300
0000
0000
0020
0030
0000
0000
,
0011
0000
0000
0000
0001
0000
0000
0000
0101
0000
0000
0000
0100
0000
0000
0000
0220
0330
0000
0000
0020
0030
0000
0000
2000
3000
0000
0000
0200
0300
0000
0000
,
0110
0000
0000
0000
0010
0000
0000
0000
0011
0000
0000
0000
0010
0000
0000
0000
0210
0300
0000
0000
0200
0300
0000
0000
2000
3000
0000
0000
0020
0030
0000
0000
,
0100
0000
0200
0000
0010
0310
0110
0110
,
1001
0000
0000
0000
,
0010
0000
0100
0001
0010
0000
1000
0000
0100
1000
0010
0000
,
1001
0000
0000
0000
,
0010
1000
0001
0000
0010
0000
0001
1000
0010
0000
0100
0000
0010
1000
0001
0000
,
0010
0000
0000
0000
,
0100
0000
1000
0100
0000
0001
0100
1000
0001
0010
0000
0000
,
0100
0010
1000
0010
0100
0000
0001
0010
,
0000
0100
1000
0000
0010
0001
1000
0000
,
0010
1000
0001
1000
0100
0000
1000
0010
,
0000
0100
0001
0000
0010
1000
0001
0000
,
1000
0000
0100
0100
1000
0001
0100
0010
,
0100
0001
0100
0001
0100
0010
0100
0001
,
0010
0100
0010
0100
0010
0001
0010
0100
,
0100
1000
0100
0010
0100
1000
0010
0100
,
0010
1000
0100
0010
0001
0100
1000
0001
,
0010
0000
1000
0000
0001
0000
0010
0000
0100
1000
0100
1000
0100
0010
0100
1000
,
0001
0100
0101
1000
0100
1000
1100
0001
,
0010
0000
0001
0000
1001
0000
0200
0000
0020
0030
0000
0300
0100
0000
0002
0000
,
0000
1003
0100
1000
0011
2000
0000
3020
,
0000
0130
1001
0010
0100
0001
0010
0001
,
0100
0001
0011
0000
0101
0000
0010
1000
,
0100
1000
0011
0000
1010
0000
0001
1000
,
0100
0010
1001
0000
0011
0000
1000
0010
,
0001
0000
0200
0000
1000
0000
0000
0300
0100
0000
0001
0000
0101
0000
0001
0000
,
1000
0001
1001
0001
0010
0100
1100
1000
,
0010
1000
1010
0010
0100
0010
0101
1000
,
0100
0010
0011
1000
0010
0100
1001
1000
,
0010
0100
0101
0001
1000
0100
1100
0100
,
0010
0001
1001
1000
0010
1000
1001
0010
,
0100
1000
0010
0100
0101
0000
0010
0100
,
1100
0000
0010
0100
0101
0000
0010
0100
,
1000
0100
0010
0100
1000
0001
0100
0010
2000
0000
0000
0000
3020
0000
0000
0000
,
0230
0302
0010
1000
,
0010
0100
0203
0320
,
2030
3200
0001
1000
,
0010
1000
2300
3002
,
0203
0320
0001
1000
,
0001
0100
0230
0302
,
0023
0000
0000
0000
0130
0000
1000
0010
2000
0000
0000
0000
0010
0000
0000
0000
,
3010
0000
0000
0000
1010
0000
0000
0000
0100
0000
0000
0000
0001
0000
0010
0100
,
1000
0000
0000
0000
0010
0000
1000
0000
1000
0000
0001
1000
0100
0000
1000
0000
,
0001
0000
0000
0000
0010
0000
0001
0000
0100
0000
0000
0001
0010
0000
0000
0010
,
1000
0000
0000
0000
0010
0100
0001
0100
0001
0000
0010
0000
0100
0000
1000
0000
,
0100
0000
0001
0000
0100
1000
0010
0100
0001
0000
0000
0000
0100
0000
0010
1000
,
0100
0000
0000
0000
1000
0000
0100
0000
0010
0000
0001
0100
0001
0000
0010
0000
,
0100
0000
0000
0000
1000
0000
0001
0000
0100
0000
0000
0010
1000
0000
0000
0010
,
0001
0000
0000
0000
0010
0100
1000
0001
0010
0000
0100
0000
2000
0000
0002
0000
,
0000
0000
0000
3003
0100
0000
0000
0000
0100
0000
0010
1000
0100
0000
0000
0000
,
0010
0000
0100
0000
1000
0000
0001
0010
0100
0000
1000
0000
0001
0000
0000
0000
,
1000
0000
0001
0000
0100
0000
0000
1000
0100
0000
0000
1000
0010
0000
0000
0000
,
0100
0001
1000
0001
1000
0000
0100
0000
1000
0000
0010
0000
1000
0000
0000
0000
,
0100
1000
0010
0100
0001
0000
0000
0000
0010
0000
0100
1000
0001
0000
0000
0000
,
1000
0000
0100
0000
1000
0000
0010
0100
1000
0000
0100
0000
0010
0000
0000
0000
,
1000
0000
0001
0000
0010
0000
0000
1000
0100
0000
0000
0001
0010
0000
0000
0000
,
0010
0100
1000
0010
0100
0000
0001
0000
1000
0000
0010
0000
1010
0000
0110
0000
,
0101
1001
0000
0000
0000
0000
0000
0000
;
