#TITLE:I;
#SUBTITLE:;
#ARTIST:黒魔;
#TITLETRANSLIT:;
#SUBTITLETRANSLIT:;
#ARTISTTRANSLIT:;
#GENRE:;
#CREDIT:;
#MUSIC:I.ogg;
#BANNER:I-bn.png;
#BACKGROUND:I-bg.png;
#CDTITLE:;
#SAMPLESTART:91.737;
#SAMPLELENGTH:11.200;
#SELECTABLE:YES;
#OFFSET:-0.000;
#BPMS:0.000=224.991
,408.000=112.495
,408.500=224.991
,409.500=112.495
,410.000=224.991
,411.000=112.495
,411.500=224.991
,412.500=112.495
,413.000=224.991
,414.000=112.495
,414.500=224.991
,415.500=112.495
,416.000=224.991
,417.000=112.495
,417.500=224.991
,418.500=112.495
,419.500=224.991
;
#STOPS:;
#BGCHANGES:;
#FGCHANGES:;

//--------------- dance-single - Sparks ----------------
#NOTES:
     dance-single:
     Sparks:
     Challenge:
     18:
     1.137025,1.44665,0.303968,0.38396,2.49974,995,957,38,48,0,1,1.137025,1.44665,0.303968,0.38396,2.49974,995,957,38,48,0,1:
0000
0000
0000
0000
,
0000
0000
0000
0000
,
2000
0000
0000
0000
0000
0000
0000
3000
0110
0000
0000
0000
0000
0000
0000
0000
,
1000
0100
0010
0100
0001
0000
0100
0010
0001
1000
0100
0000
0010
0000
0000
0000
,
0002
0000
0000
0000
0000
0000
0000
0003
0110
0000
0000
0000
0000
0000
0000
0000
,
0001
0100
1000
0100
0010
0000
0100
0001
1000
0010
0100
0000
0001
0000
0000
0000
,
0010
0000
0100
0000
0001
0000
0100
1000
0001
1000
0010
0000
0100
0000
0001
0000
,
0100
0010
1000
0100
0010
0001
1000
0001
,
0100
0010
0010
1000
0100
0100
1000
0010
,
1000
0000
0001
1000
0100
1000
0001
0000
1000
0000
0010
0000
0100
0000
0001
0000
,
2000
0000
0000
0000
0000
0000
0000
3000
0011
0000
0000
0000
0000
0000
0000
0000
,
0010
0001
1000
0100
0001
0000
0100
0010
0001
1000
0001
0000
0100
0000
0000
0000
,
0020
0000
0000
0000
0000
0000
0000
0030
1001
0000
0000
0000
0000
0000
0000
0000
,
1000
0010
0001
1000
0100
0000
0010
0100
0001
0010
0001
0000
1000
0000
0000
0000
,
0001
1000
0010
1000
0100
0000
1000
0001
0010
0001
0200
0000
0010
0000
0310
0000
,
0100
0010
1000
0100
0001
0000
0100
0010
0001
0100
1000
0000
0100
0000
0010
0000
,
1000
0001
0100
0010
1000
0000
0001
0010
0100
1000
0001
0000
0100
0010
1000
0100
,
0010
0000
0001
0010
1000
0020
0200
0000
0330
0000
0000
0000
0000
0000
0000
0000
,
0011
0000
1000
0011
1000
0100
0011
0100
,
0010
1001
0000
0000
0000
0000
0000
0000
,
1100
0000
0010
1100
0010
0001
1100
0001
,
1000
0110
0000
0000
0000
0000
0000
0000
,
0110
0000
0001
0110
0001
1000
0110
1000
,
0100
0011
0000
0000
0000
0000
0000
0000
,
1001
0000
0000
1001
0000
0000
1001
0000
,
0001
0100
0001
0100
0001
0100
0001
0100
0010
0000
1000
0000
0100
0010
0001
0000
,
1001
1000
0001
0010
0001
1000
0010
1000
,
0100
0010
0001
1000
0010
0100
0001
0010
,
0100
1000
0100
0001
0100
0010
0001
0100
,
0010
1000
0001
0010
0100
0010
0001
0100
,
0010
0001
0010
0100
0010
1000
0100
0010
,
0001
0000
1000
0000
0010
0000
0001
0000
0010
0000
1000
0000
0100
0010
0100
0010
,
0002
0000
0000
0000
0010
0000
0000
0000
1000
0000
0000
0000
2000
0000
0000
0003
0100
0000
0000
0000
0001
0000
0000
0000
3001
0000
0000
0000
1000
0000
0000
0000
,
1000
0010
0100
0001
0010
0000
0001
0010
0100
1000
0001
0000
0100
0000
0010
0000
,
2000
0010
0002
3100
0020
0103
0002
1030
,
0200
0013
0002
0310
2000
0103
0002
3010
,
0200
1003
0020
0301
2000
0031
0200
3010
,
2000
0301
0020
3100
0002
1030
0020
0103
,
2000
0031
0200
3010
2000
0310
0002
3100
,
0020
0103
2000
0031
0020
3001
0200
1030
,
0002
1300
0200
0013
2000
0310
0002
3103
,
1000
0001
0100
0001
0010
0000
0001
1000
0100
1000
0010
0000
0100
0000
0100
0000
,
0000
0000
0000
0000
0010
0001
0100
0010
1000
0000
0001
0000
1000
0010
0000
0001
,
0100
0000
1000
0010
1000
0001
0000
0001
0100
0000
1000
0100
0010
0001
0000
0100
,
1000
0000
0010
0001
1000
0100
0000
0001
0100
0000
1000
0010
1000
0001
0000
0010
,
0100
0000
1000
0100
0010
0001
0000
0100
1000
0000
0001
1000
0010
0100
0000
1000
,
0001
0000
0100
0010
0001
1000
0000
0001
0010
0000
1000
0100
0010
0001
0000
0100
,
1000
0000
0010
1000
0001
0100
0000
1000
0010
0000
0100
0000
0001
0100
0010
1000
,
0010
1000
0100
0000
0010
0000
0001
0100
0001
0100
0010
0000
1000
0000
0100
0010
,
0001
0000
0000
0010
0000
0000
0001
0000
0000
0000
0000
0000
1001
0000
0000
0000
0000
0000
0000
0000
1010
0000
0000
0000
0000
0000
0000
0000
0110
0000
0000
0000
0000
0000
0000
0000
0000
0000
0000
0000
0000
0000
0000
0000
0000
0000
0000
0000
,
0100
1000
0000
0100
0001
0000
0100
1000
0001
0010
0000
1000
0100
0000
0001
0010
,
0100
1000
0000
0010
0001
0000
0100
1000
0100
0001
0000
0100
1000
0000
0100
1000
,
0001
0010
0000
1000
0010
0000
0001
0010
0100
1000
0000
0010
0001
0000
0100
1000
,
0001
0010
0000
1000
0010
0000
0001
0010
0100
1000
0000
1000
0010
0100
0001
0100
,
1001
0000
0001
0011
0000
1000
1100
0000
,
0010
0110
0000
1000
1010
0100
1000
0001
,
1000
0010
1000
0010
0100
0010
0100
0010
0100
0001
0100
0001
1000
0001
1000
0001
,
1000
0100
0010
0001
0100
0010
1000
0001
0100
0010
1000
0001
0010
0000
0000
0000
,
0001
0100
2000
0010
,
3002
0100
0023
0100
,
0032
0000
0000
0000
,
0000
0000
0000
0000
0003
1000
0001
0010
,
0200
0000
0000
0000
,
0000
0000
0000
0000
,
0020
0000
0000
0000
,
0000
0000
0330
0000
0100
0000
1000
0001
0100
0000
0000
0010
0000
0000
0100
0000
,
0210
0000
0000
0000
0000
0000
0000
0000
0000
0000
0000
0000
0000
0000
0010
1300
,
0200
0000
0000
0000
0010
0300
0210
0000
0000
0000
0000
0000
0000
0300
1200
0000
,
0000
0300
0201
0000
0000
0000
0000
0000
0000
0000
0000
0000
0001
0300
0201
0000
,
0000
0000
0000
0010
0000
0000
1000
0300
,
0000
0000
0011
0000
0000
0000
0000
0000
0000
0000
0100
0000
0010
1000
0100
0001
,
1000
0000
0000
0000
0000
0000
0000
0000
0000
0000
0010
0000
0001
1000
0010
0001
,
1000
0000
0000
0000
,
0010
1000
0100
0010
0001
1000
0010
0000
,
1000
0100
1000
0010
1000
0010
1000
0001
0010
0001
0100
0001
,
0100
0010
1000
0001
1000
0001
1000
0100
0010
0001
0100
0001
,
0100
0010
1000
0001
0100
0001
0010
0100
1000
0010
0100
0001
,
1000
0001
0010
0100
1000
0010
0100
0001
1000
0100
0010
0001
,
0101
0000
0000
0100
0010
1000
1010
0000
0000
0100
0010
0001
,
0011
0000
0000
1000
0010
0001
0011
0000
0000
0010
1000
0001
,
0100
0010
1000
0100
0010
0001
1000
0010
0001
1000
0100
0002
,
2000
0000
0000
0000
0000
0000
0000
3000
,
0200
0000
0000
0000
,
0000
0000
0000
0000
0000
0000
0000
0003
,
0001
0000
0000
1000
0000
0001
0001
0000
,
1000
1000
0000
0301
0000
0000
0000
0000
,
0010
0001
0100
0010
1000
0001
0001
0000
2000
0100
0000
3001
,
0101
0100
0010
1000
0100
0001
0001
0000
0100
0010
0000
0001
,
0011
0010
0100
1000
0010
0100
0100
0000
0010
1000
0000
1000
,
1100
0100
0010
0001
1000
0010
0010
0000
0200
0001
0300
0010
,
1010
1000
0001
0100
0001
0010
0010
0000
0100
0010
0000
0010
,
0110
0100
1000
0001
0100
0010
0001
0000
0001
0010
0000
0010
,
0100
0001
1000
0010
1000
0100
0010
0001
1000
0010
0100
0001
,
1000
0100
1000
0010
0100
0001
1000
0000
0000
1001
0000
0000
,
0001
0100
0010
1000
0100
0010
0010
0000
0100
0001
0000
0010
,
1010
1000
0010
0100
0001
1000
1000
0000
0001
0010
0000
1000
,
1100
0100
0010
0001
1000
0100
0100
0000
0001
0100
0000
0010
,
1010
1000
0001
0010
1000
0001
0001
0000
0100
0010
0000
0001
,
1001
1000
0010
0100
0001
1000
1000
0000
0100
0010
0000
0001
,
0101
0100
0010
1000
0001
0010
0010
0000
0010
0001
0000
0001
,
0100
0001
0100
0010
1000
0010
0001
1000
0100
0001
1000
0010
,
0001
0010
1000
0100
0010
0001
1000
0000
0000
0000
0000
0000
,
0001
0000
1000
0001
0000
0010
0000
0100
0000
1000
0000
0100
1000
0000
0001
0000
0100
0000
0010
0000
1000
0001
0000
0010
,
0000
0100
0000
1000
0000
0001
0100
0000
0001
0000
1000
0000
0010
0000
1000
0100
0000
0010
0000
0001
0000
0100
0000
0010
,
1000
0000
0001
0000
1000
0000
0100
0000
1000
0001
0000
0100
0000
0001
0000
1000
0000
1100
0000
0011
0000
0001
0010
0100
,
1000
0001
0010
0100
1000
0001
0010
0100
1000
0001
0000
0000
0000
0101
0000
0000
0000
0110
0000
0000
0000
1000
0010
0100
,
0001
0000
1000
0000
0010
0000
0100
0000
0001
0000
1000
0000
0010
0000
0100
0000
0001
0000
1000
0000
0000
0000
0000
0000
0000
0000
1010
0000
0000
0000
0000
0000
0000
0000
0110
0000
0000
0000
0000
0000
0000
0000
0001
0000
0000
0100
0000
0000
,
0010
0100
0001
1000
0010
1000
0001
0010
0100
1000
0001
0100
0010
1000
0100
0000
,
0000
0010
0000
0001
0000
1000
0000
2002
,
0000
0000
0000
0000
,
0000
0000
0000
0000
,
0000
0000
0000
0000
0000
0000
0000
3003
;
