#VERSION:0.83;
#TITLE:Healing Vision (Extreme Breakcore Cover);
#SUBTITLE:;
#ARTIST:DJKurara;
#TITLETRANSLIT:;
#SUBTITLETRANSLIT:;
#ARTISTTRANSLIT:;
#GENRE:;
#CREDIT:;
#MUSIC:Healing Vision (Extreme Breakcore Cover).ogg;
#BANNER:Healing Vision (Extreme Breakcore Cover)-bn.png;
#BACKGROUND:Healing Vision (Extreme Breakcore Cover)-bg.png;
#JACKET:Healing Vision (Extreme Breakcore Cover)-jacket.png;
#DISCIMAGE:;
#CDIMAGE:;
#SELECTABLE:YES;
#LYRICSPATH:;
#CDTITLE:;
#SAMPLESTART:77.647;
#SAMPLELENGTH:12.857;
#OFFSET:-0.504;
#BPMS:0.000000=49.000000,
8.000000=98.000000,
56.000000=196.000000,
120.000000=49.000000,
122.000000=196.000000,
134.000000=98.000000,
136.000000=196.000000,
152.000000=49.000000,
157.000000=196.000000
;
#STOPS:;
#WARPS:;
#DELAYS:;
#SPEEDS:0.000000=1.000000=0.000000=0;
#SCROLLS:0.000000=1.000000;
#TICKCOUNTS:;
#TIMESIGNATURES:0.000000=4=4;
#LABELS:;
#COMBOS:;
#FAKES:;
#BGCHANGES:;
#FGCHANGES:;
#ATTACKS:;
#KEYSOUNDS:;

//---------------dance-single - ---------------
#NOTEDATA:;
#CHARTNAME:;
#CHARTSTYLE:;
#CREDIT:Sparks;
#STEPSTYPE:dance-single;
#DESCRIPTION:;
#DIFFICULTY:Hard;
#METER:15;
#METERF:15;
#RADARVALUES:0,0,0,0,0;
#NOTES:
// measure 0
0000
0000
0000
0000
,  // measure 1
1000
0000
0010
0000
0100
0001
1000
0000
0100
0000
1000
0010
0100
0000
0001
0010
0100
0000
0000
1000
0010
0000
0000
0001
0010
0000
0000
1000
0001
0000
0000
0000
,  // measure 2
0001
1000
0000
0010
0000
0100
0000
0001
0000
1000
0000
0010
0000
0100
0000
0001
,  // measure 3
0000
1000
0000
0010
0000
0100
0000
0001
0100
0000
0100
0010
0000
0010
1000
0000
,  // measure 4
1200
0000
0000
0020
0000
0000
0000
0330
,  // measure 5
2002
0000
0000
0000
0000
0000
0003
0000
0000
0000
0010
0000
3010
0010
0010
0010
,  // measure 6
0100
0000
0000
0000
0100
0000
0001
0000
0000
0000
1000
0000
0000
0100
0010
0000
0001
0000
0000
0000
0001
0000
0010
0000
0000
0000
0100
0000
0000
1000
0010
0000
,  // measure 7
0100
0000
0000
0000
0100
0000
0010
0000
0000
0000
1000
0000
0000
0001
0100
0000
0010
0000
0010
0000
0010
0100
0010
0000
1000
0000
1000
0000
1000
0001
1000
0000
,  // measure 8
0100
0000
0000
0000
0100
0000
1000
0000
0000
0000
0010
0000
0000
0100
0001
0000
1000
0000
0000
0000
0100
0000
0010
0000
0000
0000
0001
0000
0000
0100
0010
0000
,  // measure 9
0100
0000
1001
1001
0000
0000
0000
0000
0110
0000
1001
1000
1001
0000
1100
0000
,  // measure 10
0101
0000
0000
0000
0001
0000
0010
0000
0000
0000
0001
0000
0000
0100
0010
0000
1000
0000
0000
0000
1000
0000
0010
0000
0000
0000
1000
0000
0000
0100
0010
0000
,  // measure 11
0100
0000
0000
0000
1000
0000
0010
0000
0000
0000
0100
0000
0000
0001
0010
0000
0110
0000
0000
0000
0110
0000
0000
0000
0000
0000
0100
0000
0100
0000
0100
0000
,  // measure 12
1200
0000
0000
0000
0010
0000
0010
0000
0000
0000
0310
0000
0000
0020
0100
0000
0100
0000
0000
0000
0100
0000
0130
0000
0000
0000
0100
0000
0000
0200
1000
0000
,  // measure 13
1000
0000
0000
0000
1000
0000
1000
0000
0000
0000
1300
0000
0000
1000
0001
0000
1001
0000
0000
0000
0000
0000
0000
0000
0001
1000
0001
1000
0001
1000
0001
1000
,  // measure 14
0001
0100
0001
0010
0001
0100
0001
1000
,  // measure 15
0100
1000
0010
1000
0100
1000
0010
0100
,  // measure 16
0001
1000
0100
0010
0001
1000
0010
0100
,  // measure 17
0001
0100
0001
0100
0001
0000
0000
0000
1000
0100
1000
0100
1000
0001
1000
0001
,  // measure 18
0010
0100
1000
0100
0010
0001
1000
0100
,  // measure 19
1000
0010
1000
0001
1000
0010
0100
0001
,  // measure 20
1000
0100
0010
0001
1000
0010
0100
0001
,  // measure 21
1000
0001
0100
0001
0100
0000
0001
1000
0100
1000
0100
0000
0010
0000
0000
0000
,  // measure 22
1000
0001
0100
0001
1000
0001
1000
0100
,  // measure 23
1000
0001
0100
0001
1000
0001
1000
0100
,  // measure 24
0010
0001
0100
0010
0100
0001
0100
0010
,  // measure 25
1000
0010
1000
0010
1000
0000
0000
0000
0001
1000
0001
1000
0001
0000
0000
0000
,  // measure 26
0010
0100
1000
0100
0010
0001
1000
0001
,  // measure 27
1000
0010
1000
0001
0100
0010
0100
0001
,  // measure 28
1000
0001
1000
0000
0001
1000
0001
0000
1000
0100
1000
0000
0001
0100
0001
0000
,  // measure 29
0020
0000
0001
0030
0200
0000
1000
0300
,  // measure 30
2000
0000
0000
0000
3001
0000
0001
0100
,  // measure 31
0010
1000
0010
0100
0001
1000
0010
0100
,  // measure 32
0001
0001
0001
0001
0010
0100
1000
0001
,  // measure 33
0010
0001
1000
0100
2200
3300
0202
0303
,  // measure 34
1000
0100
0010
0001
0100
0010
1000
0001
,  // measure 35
1000
0010
0100
0001
0010
0100
1000
0001
,  // measure 36
0100
0001
0010
0100
0000
0100
0000
0100
,  // measure 37
0100
0000
0000
1000
0010
0000
0010
0000
0000
0002
0010
0000
0010
0000
0000
0000
,  // measure 38
1000
1000
0000
0000
0000
0000
1000
1000
0000
1000
1000
0000
0000
1000
1000
0000
,  // measure 39
1000
1000
0003
0000
0100
0000
0010
0000
1000
0000
0000
0000
0100
0000
1000
0000
,  // measure 40
1100
0000
0100
0010
0001
0000
0100
0001
,  // measure 41
0101
0000
0010
1000
0100
0000
0010
0100
,  // measure 42
0110
0000
0000
0000
1000
0010
1000
0000
0001
0000
1000
0001
0000
0001
1000
0000
,  // measure 43
0100
0000
1000
0001
0100
0000
0001
1000
,  // measure 44
1100
0000
0010
0100
0001
0000
1000
0001
,  // measure 45
0011
0000
0100
1000
0001
0000
1000
0010
,  // measure 46
0110
0000
0110
0000
0000
0000
0000
1001
,  // measure 47
0000
0000
0000
0000
0110
0000
0000
0010
1000
0000
0000
1000
0100
0000
0000
0100
,  // measure 48
0010
0000
0000
0010
0001
0000
0000
0001
0100
0000
0000
0100
0010
0000
0000
0010
,  // measure 49
1000
0000
0000
0001
0100
0000
0000
1000
0001
0000
0000
0100
1000
0000
0000
1000
,  // measure 50
0001
0000
0000
0010
1000
0000
0000
0100
0002
0000
0010
0000
0000
0000
0010
0000
,  // measure 51
0000
0000
0013
0000
0100
0000
1000
0100
1000
0000
0100
1000
0100
0000
1000
0100
,  // measure 52
0010
0000
0001
0010
0001
0000
0010
0001
0010
0000
0001
0010
0001
0000
0010
0001
,  // measure 53
0010
0000
0001
0100
0001
0000
0100
0001
0100
0000
0010
1000
0010
0000
1000
0010
,  // measure 54
1000
0000
0010
1000
0010
0000
0000
0000
0000
0000
0100
0000
0000
0000
0100
0000
,  // measure 55
0010
1000
0000
0000
0100
0000
0000
0010
0000
0001
2000
0000
0002
0000
0000
0000
,  // measure 56
0000
0000
0000
0000
,  // measure 57
0000
0000
3003
0000
;

//---------------dance-single - ---------------
#NOTEDATA:;
#CHARTNAME:;
#CHARTSTYLE:;
#CREDIT:Sparks;
#STEPSTYPE:dance-single;
#DESCRIPTION:;
#DIFFICULTY:Challenge;
#METER:17;
#METERF:17;
#RADARVALUES:0,0,0,0,0;
#NOTES:
// measure 0
0000
0000
0000
0000
,  // measure 1
1000
0000
0010
0000
1000
0100
0010
0000
0001
0000
0100
0001
0010
0000
0100
1000
0010
0000
0000
0001
0010
0000
0000
1000
0100
0000
0000
0001
0100
0000
0000
0000
,  // measure 2
1001
0001
0000
1000
0000
0010
0000
0100
0000
0001
0000
1000
0000
0010
0000
0100
,  // measure 3
0000
0001
0000
1000
0000
0010
0000
0100
0101
0000
1000
1100
0000
0001
0011
0000
,  // measure 4
1002
0000
0000
0100
0000
0100
0000
0100
0000
0100
0200
0000
0000
0000
0003
0000
,  // measure 5
1000
0000
0000
0000
0000
0000
0000
0000
0000
0000
0000
0000
0000
0000
0000
0000
0300
0000
0000
0000
0110
0000
0000
0000
0010
0000
1000
0000
0001
0010
0100
1000
,  // measure 6
0001
0000
0000
0000
1000
0000
1100
0000
0000
0000
0010
0000
0000
0100
0001
0000
0011
0000
0000
0000
0010
0000
0110
0000
0000
0000
0001
0000
0000
0100
0010
0000
,  // measure 7
1010
0000
0000
0000
1000
0000
1100
0000
0000
0000
0001
0000
0000
0100
0001
0000
0101
0000
0100
0000
0010
1000
0010
0000
0100
0000
0100
0000
0001
1000
0001
0000
,  // measure 8
0010
0000
0000
0000
1000
0000
1100
0000
0000
0000
0010
0000
0000
1000
0100
0000
0110
0000
0000
0000
0001
0000
0011
0000
0000
0000
0100
0000
0000
0010
0100
0000
,  // measure 9
0110
0000
1000
1001
0000
0000
0010
0000
1020
0000
0100
0100
0100
0000
0001
0030
,  // measure 10
0200
0000
0000
0000
0001
0000
0001
0000
0000
0000
0001
0000
0300
0001
1000
0000
0200
0000
0000
0000
1000
0000
1000
0000
0000
0000
1000
0000
0300
1000
0010
0000
,  // measure 11
0200
0000
0000
0000
0010
0000
0010
0000
0000
0000
0010
0000
0300
0010
0100
0000
0101
0000
0000
0000
2010
0000
0000
0000
0000
0000
0001
0000
0001
0000
0001
0000
,  // measure 12
3001
0000
0000
0000
0110
0000
0110
0000
0000
0000
1000
0000
0000
0100
0010
0000
0011
0000
0000
0000
0101
0000
0101
0000
0000
0000
0010
0000
0000
1000
0001
0000
,  // measure 13
1001
0000
0000
0000
1010
0000
1010
0000
0000
0000
1000
0000
0000
0001
0010
0000
0011
0000
0000
0000
0000
0000
1000
0000
0010
1000
0010
1000
0001
0010
0100
1000
,  // measure 14
0001
0000
1000
0000
0010
0000
0100
0000
0001
0010
0100
0000
0010
0000
0001
0000
,  // measure 15
0100
0000
0010
0000
1000
0000
0001
0000
0010
0100
1000
0000
0100
0000
0010
0000
,  // measure 16
0001
0000
1000
0000
0100
0000
1000
0000
0010
0100
0001
0000
0010
0000
0000
0000
,  // measure 17
0001
0100
0001
1000
0100
0000
0000
0000
0010
0001
0010
0001
0010
0100
1000
0010
,  // measure 18
0100
0000
0001
0000
0010
0000
0001
0000
0100
0010
1000
0000
0100
0000
1000
0000
,  // measure 19
0010
0000
0001
0000
0010
0000
1000
0000
0010
0100
0001
0000
0010
0000
0100
0000
,  // measure 20
1000
0000
0100
0000
0010
0000
0100
0000
1000
0010
1000
0000
0001
0000
0000
0000
,  // measure 21
1000
0100
0010
0001
0100
0000
0010
0100
0001
0010
0100
0000
1000
0001
0100
0000
,  // measure 22
0010
1000
1001
0010
0100
1000
1010
0100
,  // measure 23
0001
0010
0011
0100
1000
0001
0101
1000
,  // measure 24
1001
0001
1200
0010
0000
1000
0000
0310
,  // measure 25
0100
0010
0100
0010
0100
0000
1000
0000
0010
0100
0010
0100
0010
0000
0000
0000
,  // measure 26
0001
0000
1000
0000
1010
0000
1000
0000
0001
0010
0100
0000
1100
0000
0000
0000
,  // measure 27
1000
0000
0010
0000
0110
0000
0010
0000
0100
0001
0010
0000
0110
0000
0000
0000
,  // measure 28
1000
0100
1000
0000
0001
0100
0001
0000
0010
0001
0010
0000
0100
1000
0100
0000
,  // measure 29
0010
0000
0100
1000
0001
0000
0000
0000
0100
0000
0001
1000
0100
0000
0000
0000
,  // measure 30
0110
0000
0000
0000
0000
0000
0000
0000
0000
0000
0000
0000
0000
0000
0000
0000
0000
0000
0000
0000
0001
1000
0001
1000
0001
0000
0010
0100
1000
0001
0000
0000
1001
0000
0000
0000
0000
0000
0000
0000
0000
0000
0000
0000
0000
0000
0000
0000
1000
0000
0000
0000
0000
0000
0000
0000
1010
0000
0000
0000
0000
0000
0000
0000
,  // measure 31
0000
0000
0001
0000
0000
0010
0100
0000
0110
0000
0000
0000
1000
0000
1100
0000
,  // measure 32
0000
0000
0010
0000
0000
0100
0001
0000
0101
0000
0000
0000
1000
0000
1100
0000
,  // measure 33
0000
0000
0000
0000
0001
0000
0000
0000
0000
0000
0100
0000
0010
0000
0000
0000
1000
0010
1000
0010
1000
0000
0001
0000
0010
0100
0010
0100
0010
0000
0000
0000
,  // measure 34
0011
0000
0000
0000
1000
0000
1100
0000
0000
0000
0010
0000
0000
1000
0001
0000
,  // measure 35
0101
0000
0000
0000
0010
0000
0011
0000
0000
0000
1000
0000
0000
0100
1000
0000
,  // measure 36
1010
0000
0100
0101
0000
0101
0000
0100
,  // measure 37
0001
0000
0000
2000
0100
0000
0001
3000
0000
2000
0100
0000
0001
3000
0000
0000
,  // measure 38
1000
1000
0000
0000
0000
0000
0001
0001
0000
1000
1000
0000
0000
0001
0001
0000
,  // measure 39
1000
1000
0000
0000
0100
0000
0001
0000
0010
0000
0000
0100
0000
1000
0010
0000
,  // measure 40
1000
0000
0000
0000
1000
0000
0001
0000
0010
0000
0000
0001
0000
1000
0010
0000
,  // measure 41
0100
0000
0000
0000
0100
0000
0001
0000
0010
0000
0000
0100
0000
1000
0001
0000
,  // measure 42
0010
0000
0000
0000
1000
0100
1000
0000
0001
0000
0100
0001
0000
0001
0010
0000
,  // measure 43
0100
0000
0010
0000
0001
0000
0010
0000
0100
0000
0000
1000
0000
0010
1000
0000
,  // measure 44
0100
0000
0000
0000
0100
0000
1000
0000
0010
0000
0000
0100
0000
0001
0100
0000
,  // measure 45
0010
0000
0000
0000
0010
0000
1000
0000
0001
0000
0000
0010
0000
0001
1000
0000
,  // measure 46
0100
0000
0110
0000
0000
0000
0000
1002
,  // measure 47
0000
0000
0000
0000
0103
0000
0010
1000
0010
0000
1000
0100
1000
0000
0001
0100
,  // measure 48
0001
0000
0010
0001
0010
0000
0100
1000
0100
0000
0010
0001
0010
0000
0100
1000
,  // measure 49
0100
0000
1000
0010
1000
0000
0001
0100
0001
0000
1000
0100
1000
0000
0001
0100
,  // measure 50
0001
0000
1000
0100
1000
0000
0001
0100
0001
0000
0020
0000
0030
0000
0020
0000
,  // measure 51
0030
0000
0020
0000
0130
0000
1000
0010
0100
0000
0001
0010
0100
0000
1000
0010
,  // measure 52
0100
0000
0001
0100
0010
0000
1000
0001
0100
0000
0010
1000
0001
0000
0010
0100
,  // measure 53
1000
0000
0010
0100
0001
0000
0100
0001
1000
0000
0100
1000
0001
0000
1000
0010
,  // measure 54
0100
0000
0001
1000
0100
0010
0100
0010
0000
0000
0001
1000
0001
1000
0000
0000
,  // measure 55
0010
1000
0000
0000
0001
0000
0000
0010
0000
0001
1000
0000
2002
0000
0000
0000
,  // measure 56
0000
0000
0000
0000
,  // measure 57
0000
0000
3003
0000
;

//---------------dance-single - ---------------
#NOTEDATA:;
#CHARTNAME:;
#CHARTSTYLE:;
#CREDIT:Sparks;
#STEPSTYPE:dance-single;
#DESCRIPTION:;
#DIFFICULTY:Medium;
#METER:13;
#METERF:13;
#RADARVALUES:0,0,0,0,0;
#NOTES:
// measure 0
0000
0000
0000
0000
,  // measure 1
0001
1000
0010
0100
0001
0010
0100
1000
1100
0000
0001
0000
0100
0000
1000
0000
,  // measure 2
0100
0100
0100
0100
0100
0100
0100
0100
,  // measure 3
0100
0000
0100
0000
0100
0000
0100
0000
1000
0000
0010
0100
0000
0001
0010
0000
,  // measure 4
2200
0000
0300
0020
0000
0000
0000
0030
,  // measure 5
0002
0000
0000
0000
3003
0110
0000
0000
,  // measure 6
1000
0000
0010
1000
0000
0100
1000
0000
0010
0000
0100
0001
0000
0010
0001
0000
,  // measure 7
1000
0000
0100
1000
0000
0010
0100
0000
0101
0000
0000
0000
1100
0000
0000
0000
,  // measure 8
0001
0000
0100
0001
0000
0010
0100
0000
1000
0000
0010
0100
0000
0010
1000
0000
,  // measure 9
0100
0000
0010
0001
0000
0100
0010
0000
0100
0000
0100
0100
0100
0000
0100
0000
,  // measure 10
0001
0000
1000
0100
0000
1000
0001
0000
0100
0000
0001
0100
0000
0001
0010
0000
,  // measure 11
0100
0000
1000
0100
0000
0010
0001
0000
0100
0000
0010
0000
0000
1000
0010
0100
,  // measure 12
0001
0000
1000
0010
0000
1000
0001
0010
0100
0000
1000
0010
0000
1000
0100
1000
,  // measure 13
0010
0000
0100
0001
0000
0010
0001
0000
0101
0000
0000
0000
1000
0100
1000
0100
,  // measure 14
1000
0010
0100
0001
1000
0100
0010
0001
,  // measure 15
0100
0010
1000
0001
0010
0100
1000
0001
,  // measure 16
1000
0010
1000
0100
0010
0001
0100
0001
,  // measure 17
1000
0100
1000
0000
0001
0100
0001
0000
,  // measure 18
0010
0001
0010
0100
0010
0001
1000
0010
,  // measure 19
0100
0001
1000
0100
0010
0001
0100
0010
,  // measure 20
1000
0001
0010
0100
1000
0010
0100
0001
,  // measure 21
1000
0000
1000
0001
0000
0000
1001
0000
,  // measure 22
0001
0010
0100
0010
0001
0100
0010
0100
,  // measure 23
0001
1000
0100
0010
0001
0100
0010
1000
,  // measure 24
0100
1000
0010
0100
0010
0100
0001
1000
,  // measure 25
0010
0100
0001
1000
0100
0010
0001
1000
,  // measure 26
0010
1000
0100
1000
0010
0100
0001
0010
,  // measure 27
0001
1000
0001
0100
0001
0010
0001
0100
,  // measure 28
0101
0011
1010
1100
,  // measure 29
1000
1001
0001
1001
,  // measure 30
2001
0000
0000
3003
1000
0000
0001
0100
,  // measure 31
0000
0001
1000
0000
0100
0000
0010
0001
,  // measure 32
0010
0010
0010
0000
0001
0000
0100
0010
,  // measure 33
0000
1000
0100
0000
2000
0010
3002
0100
,  // measure 34
0013
0000
0100
0010
0000
0001
0010
0000
,  // measure 35
0001
0000
0100
0010
1000
1000
1000
0000
,  // measure 36
0010
0000
1000
0100
0000
0100
0000
1000
,  // measure 37
0010
0000
0000
0100
0001
0000
1000
0000
0000
0100
1000
0000
0002
0000
0000
0000
,  // measure 38
1000
1000
0000
0000
0000
0000
1000
1000
0000
1000
1000
0000
0000
1000
1000
0000
,  // measure 39
1000
1000
0003
0000
0100
0000
0010
0000
1000
0000
0001
0000
0010
0000
0001
0000
,  // measure 40
0010
0000
0100
1000
0010
0100
0001
0100
,  // measure 41
0001
0000
1000
0100
1000
0010
0100
0010
,  // measure 42
0100
0002
0000
0200
,  // measure 43
0303
0000
1010
0000
0010
1000
0100
1000
,  // measure 44
0010
0000
0100
0001
0010
0001
1000
0100
,  // measure 45
1000
0000
0010
0100
0010
1000
0001
0100
,  // measure 46
0002
0000
0010
0000
0000
0000
0000
0010
,  // measure 47
0000
0000
0000
0000
0103
0000
0000
0000
1010
0000
0000
1000
0100
0000
0000
0000
,  // measure 48
0011
0000
0000
0001
0100
0000
0000
0000
1010
0000
0000
1000
0100
0000
0000
0000
,  // measure 49
1010
0000
0000
0100
0001
0000
0000
0000
0011
0000
0000
0001
0100
0000
0000
0000
,  // measure 50
0011
0000
0000
0100
1000
0000
0000
0000
1000
0000
0010
0000
0000
0000
0010
0000
,  // measure 51
0000
0000
0010
0000
1000
0000
0000
0000
1000
0000
0100
0010
0100
0000
0000
0000
,  // measure 52
0100
0000
0010
0001
1000
0000
0000
0000
1000
0000
0001
0100
0001
0000
0000
0000
,  // measure 53
0001
0000
0100
0010
1000
0000
0000
0000
1000
0000
0100
0010
0001
0000
0000
0000
,  // measure 54
0001
0000
0010
0100
1000
0000
0000
0000
0000
0000
1000
0000
0000
0000
1000
0000
,  // measure 55
1000
0100
0000
0000
0010
0000
0000
0000
0000
0000
0000
0000
0220
0000
0000
0000
,  // measure 56
0000
0000
0000
0000
,  // measure 57
0000
0000
0330
0000
;

//---------------dance-single - ---------------
#NOTEDATA:;
#CHARTNAME:;
#CHARTSTYLE:;
#CREDIT:Sparks;
#STEPSTYPE:dance-single;
#DESCRIPTION:;
#DIFFICULTY:Easy;
#METER:9;
#METERF:9;
#RADARVALUES:0,0,0,0,0;
#NOTES:
// measure 0
0000
0000
0000
0000
,  // measure 1
1000
0100
0010
0001
0100
0100
0100
0000
,  // measure 2
0010
0000
0100
0000
,  // measure 3
0001
0000
0000
0000
0000
0000
0000
0000
1000
0000
0000
1000
0000
0000
1000
0000
,  // measure 4
2000
0000
0000
0000
0002
0000
0000
3000
,  // measure 5
0200
0000
0000
0000
0003
0020
0000
0330
,  // measure 6
0100
0000
0000
0001
0000
0000
1000
0000
0100
0000
0000
0010
0000
0000
0001
0000
,  // measure 7
0100
0000
0000
0010
0000
0000
1000
0000
0001
0000
0001
0000
1000
0000
1000
0000
,  // measure 8
0010
0000
0000
1000
0000
0000
0001
0000
0100
0000
0000
0001
0000
0000
0010
0000
,  // measure 9
0100
0000
0000
1000
0000
0000
0001
0000
1000
0000
0001
0000
0001
0000
1000
0000
,  // measure 10
0001
0000
0000
0100
0000
0000
0010
0000
0100
0000
0000
0001
0000
0000
0010
0000
,  // measure 11
0100
0000
0000
0010
0000
0000
0001
0000
1000
0000
0010
0000
0000
0000
0010
0000
,  // measure 12
0010
0000
0000
0100
0000
0000
0001
0000
1000
0000
0000
0100
0000
0000
0010
0000
,  // measure 13
0001
0000
0000
1000
0000
0000
0100
0000
1000
0000
0000
1000
0000
1000
1000
0000
,  // measure 14
0100
0010
0001
1000
,  // measure 15
0010
0100
0001
1000
,  // measure 16
0100
1000
0010
1000
,  // measure 17
0100
0100
0010
0010
,  // measure 18
0100
1000
0010
0100
,  // measure 19
0010
1000
0001
0100
,  // measure 20
0010
1000
0001
0010
,  // measure 21
0100
0000
0000
0010
0000
0000
0110
0000
,  // measure 22
0010
0001
0100
0001
,  // measure 23
1000
0100
0010
0001
,  // measure 24
0010
0100
0010
0001
,  // measure 25
0100
0100
0010
0010
,  // measure 26
1000
0001
0100
0001
,  // measure 27
1000
0010
0100
0001
,  // measure 28
1000
0000
0001
0000
,  // measure 29
1000
0000
0001
0000
,  // measure 30
1001
0000
0000
0000
1000
0000
0000
1000
,  // measure 31
0000
0000
0010
0000
0100
0000
0000
0100
,  // measure 32
0000
0000
0001
0000
0010
0000
0000
0010
,  // measure 33
0000
0100
1000
0000
,  // measure 34
0001
0000
0000
0001
0000
0000
0100
0000
,  // measure 35
0010
0000
0000
0010
0000
0000
1000
0000
,  // measure 36
0100
0000
0000
0100
0000
0100
0000
0010
,  // measure 37
0100
0000
0000
0100
0000
0000
0000
0000
,  // measure 38
1000
1000
0000
0000
0000
0000
1000
1000
0000
1000
1000
0000
0000
1000
1000
0000
,  // measure 39
1000
1000
0000
0000
0001
0000
0000
0000
0100
0000
0000
0000
0001
0000
0000
0000
,  // measure 40
0011
1000
0100
1000
,  // measure 41
1010
0001
0100
0010
,  // measure 42
1000
1010
0000
0011
,  // measure 43
0000
0000
1002
0000
0000
0010
0000
0000
,  // measure 44
0103
0010
1000
0100
,  // measure 45
0010
0001
1000
0010
,  // measure 46
0100
0000
0001
0000
0000
0000
0000
1000
,  // measure 47
0000
1000
0001
1000
,  // measure 48
0001
0100
0010
0100
,  // measure 49
0010
1000
0001
0100
,  // measure 50
0010
1000
1000
0010
,  // measure 51
0010
0100
0001
0010
,  // measure 52
0100
1000
0100
0010
,  // measure 53
0100
1000
0001
0100
,  // measure 54
0010
0000
1000
0000
0000
1000
0000
0000
,  // measure 55
1000
0001
0000
2002
,  // measure 56
0000
0000
0000
0000
,  // measure 57
0000
0000
3003
0000
;
