#TITLE:Goodnight, Over;
#SUBTITLE:;
#ARTIST:Vixenvy;
#TITLETRANSLIT:;
#SUBTITLETRANSLIT:;
#ARTISTTRANSLIT:;
#GENRE:;
#CREDIT:;
#BANNER:Goodnight Over-bn.png;
#BACKGROUND:Goodnight Over-bg.png;
#LYRICSPATH:;
#CDTITLE:;
#MUSIC:Goodnight Over.ogg;
#OFFSET:0.000000;
#SAMPLESTART:19.181000;
#SAMPLELENGTH:13.219000;
#SELECTABLE:YES;
#BPMS:0.000000=200.000000
,264.000000=201.000000
,276.000000=202.000000
,288.000000=203.000000
,300.000000=204.000000
,312.000000=205.000000
,332.000000=206.000000
,340.000000=207.000000
,348.000000=208.000000
,368.000000=209.000000
,384.000000=210.000000
;
#STOPS:
;
#BGCHANGES:;
#KEYSOUNDS:;
#ATTACKS:;

//---------------dance-single - ----------------
#NOTES:
     dance-single:
     :
     Challenge:
     19:
     0.957529,1.220161,0.350621,0.064280,1.078159,1147.000000,1087.000000,60.000000,11.000000,0.000000,0.000000,0.957529,1.220161,0.350621,0.064280,1.078159,1147.000000,1087.000000,60.000000,11.000000,0.000000,0.000000:
// measure 0
0000
0000
0000
0000
,  // measure 1
0000
0000
0000
0000
,  // measure 2
0000
0000
0000
0000
,  // measure 3
0000
0000
0000
0000
,  // measure 4
1000
0000
0010
1000
,  // measure 5
0100
1000
0010
0000
,  // measure 6
0100
0000
0001
0010
,  // measure 7
0001
0100
0001
0000
,  // measure 8
0010
0100
1000
0000
0010
0001
0100
0010
,  // measure 9
1000
0001
0100
0000
0010
0001
0100
0000
,  // measure 10
0010
1000
0001
0000
0010
0100
0001
1000
,  // measure 11
0100
0010
0001
0000
0100
1000
0001
0000
,  // measure 12
0100
0001
1000
0000
0100
1000
0010
0100
,  // measure 13
0010
1000
0010
0000
0100
0001
0100
0000
,  // measure 14
0001
0000
0010
0000
0100
0000
0000
1000
0010
0000
0100
0000
0100
0000
0000
0001
,  // measure 15
0010
0000
0100
0000
1000
0000
0100
0000
1000
0001
1000
0001
0100
0010
0100
0010
,  // measure 16
1000
0000
0010
0000
0100
0000
0001
1000
0100
1000
0001
0000
0100
0000
0001
0010
,  // measure 17
0001
0000
0000
0000
0010
0000
0100
1000
0010
0100
0001
0000
1000
0000
0000
0000
,  // measure 18
0010
0000
0010
0000
0010
0000
0010
0000
0100
0010
1000
0000
0001
0000
1000
0100
,  // measure 19
0010
0000
0001
0000
0010
0000
0001
1000
0010
0100
0001
0000
0010
0000
0001
1000
,  // measure 20
0010
0000
0100
0000
0001
0000
1000
0010
0100
0001
1000
0000
0100
0000
1000
0010
,  // measure 21
0100
0000
0010
0000
1000
0000
0000
0000
0001
0010
0001
0010
0100
1000
0010
0000
,  // measure 22
0100
0000
0100
0000
0100
0000
0100
0000
0000
0000
0110
0000
0000
0000
0010
0100
,  // measure 23
0001
0000
0000
0000
1000
0000
0010
1000
0100
1000
0001
0000
0100
0000
0001
1000
,  // measure 24
0010
0000
0100
0000
0001
0000
0010
0100
1000
0100
0010
0000
0001
0000
1000
0001
,  // measure 25
0100
0000
0001
1000
0100
0000
2000
0000
0000
0000
0010
0000
3010
0000
0100
0001
,  // measure 26
0010
0000
0011
0000
0000
0000
0100
1000
0010
0000
1010
0000
0000
0000
0100
0001
,  // measure 27
1000
0000
0100
0000
0100
0000
1000
0001
0010
0100
1000
0000
0001
0000
0010
0000
,  // measure 28
0100
0000
1000
0000
0001
0000
0100
0010
1000
0001
0010
0000
0001
0000
1000
0010
,  // measure 29
0100
0000
0001
0000
0010
0000
0100
1000
0010
0100
0010
0000
0100
0000
0010
1000
,  // measure 30
0100
1000
1000
1200
0000
0001
0001
0000
,  // measure 31
0310
0000
0100
0000
1000
0000
0010
0000
0100
0001
1000
0000
0010
0000
0100
0002
,  // measure 32
0000
0000
0000
0000
,  // measure 33
1000
1000
0000
0100
,  // measure 34
0100
0000
0000
0000
,  // measure 35
0010
0003
0002
0000
0000
0000
1000
0000
,  // measure 36
1000
0000
0000
0000
,  // measure 37
0100
0100
0000
0013
,  // measure 38
0002
0000
0000
0000
,  // measure 39
1000
1000
0000
0100
,  // measure 40
0103
0001
0010
0001
0100
0001
0100
0000
,  // measure 41
0010
0001
0100
0000
0100
1000
0010
1000
,  // measure 42
0100
1000
0010
1000
0010
1000
0010
0000
,  // measure 43
0100
1000
0010
0000
0100
0001
1000
0001
,  // measure 44
0100
0010
1000
0001
0100
0001
1000
0000
,  // measure 45
0100
0001
1000
0000
0010
1000
0100
0010
,  // measure 46
0001
1000
0010
1000
0001
0100
1000
0000
,  // measure 47
0001
0100
1000
0000
0001
0100
1000
0100
,  // measure 48
1000
0000
0100
0000
0010
0000
0000
0000
0001
0100
0001
0000
0000
0000
1000
0100
,  // measure 49
1000
0000
0010
1000
0100
1000
0010
0000
,  // measure 50
0100
0000
0001
0000
1000
0000
0000
0000
0001
0010
0001
0000
0000
0000
1000
0010
,  // measure 51
1000
0000
0100
1000
0001
0100
0001
0000
,  // measure 52
0010
0000
0001
0000
0100
0000
0000
0000
0010
1000
0010
0000
0000
0000
1000
0001
,  // measure 53
1000
0000
0100
1000
0010
0100
0001
0000
,  // measure 54
0010
0000
0100
0000
1000
0000
0000
0000
0001
0010
0001
0000
0000
0000
0100
0010
,  // measure 55
0100
0000
0001
1000
0010
0100
0001
0000
,  // measure 56
0010
0000
0001
0000
1000
0100
1000
0000
0001
0100
0001
0000
1000
0000
0001
0000
,  // measure 57
0100
0001
0100
0000
0001
0000
1000
0000
0100
1000
0100
0000
0010
0001
0010
0000
,  // measure 58
0001
0100
0001
0000
1000
0010
1000
0000
0001
0100
0001
0000
1000
0000
0001
0000
,  // measure 59
0010
0001
0010
0000
0100
0000
1000
0000
0001
0100
0001
0000
1000
0100
1000
0000
,  // measure 60
0001
0010
0001
0000
0100
0010
0100
0000
0001
0010
0001
0000
1000
0000
0100
0000
,  // measure 61
0010
0001
0010
0000
0100
0000
1000
0000
0001
0010
0001
0000
1000
0010
1000
0000
,  // measure 62
0001
0010
0001
0000
0100
0001
0100
0000
0010
1000
0010
0000
0100
0000
0010
0000
,  // measure 63
1000
0000
0000
0100
0000
0000
1000
0000
0000
0000
0000
0000
0001
0000
0000
0000
0000
0000
0010
0000
0000
0000
0000
0000
0100
0000
0000
0000
0000
0000
0000
0000
1000
0000
0000
0000
0010
0000
0000
0000
0100
0000
0000
0000
0000
0000
0000
0000
,  // measure 64
0110
0000
0101
0000
1100
0000
1001
0000
0010
0001
1000
0000
,  // measure 65
0010
0000
0100
0001
1000
0000
0100
0000
1000
0000
0010
0100
,  // measure 66
0101
0000
1100
0000
1010
0000
1001
0000
0010
0001
0100
0000
,  // measure 67
0010
0000
1000
0010
0100
0000
0010
0000
1000
0000
0100
0010
,  // measure 68
0001
0010
0000
0000
1000
0000
0100
0000
0000
0000
0001
0000
,  // measure 69
0100
0000
0001
0010
0100
1000
0010
0000
0100
0010
1000
0100
,  // measure 70
0010
0001
0000
0000
0001
0000
0100
0000
0000
0000
0100
0000
,  // measure 71
0010
0000
1000
0001
0100
0001
1000
0000
0100
0010
0001
0100
,  // measure 72
0101
0000
1001
0000
1100
0000
0110
0000
0001
1000
0010
0000
,  // measure 73
1000
0000
0001
1000
0100
0000
0010
0000
0001
0000
1000
0010
,  // measure 74
0110
0000
1010
0000
1100
0000
1010
0000
0100
0001
0010
0000
,  // measure 75
0100
0000
1000
0001
0010
0000
0001
0000
0100
0000
0010
1000
,  // measure 76
0001
0001
0000
0000
1000
0000
1100
0000
0000
0000
0001
0000
,  // measure 77
0010
0010
0000
0000
0001
0000
0101
0000
0000
0000
1000
0000
,  // measure 78
0010
0010
0000
0000
1000
0000
1001
0000
0000
0000
0010
0000
,  // measure 79
1000
1000
0000
0000
0001
0000
0011
0000
0000
0100
0000
0100
,  // measure 80
0001
0000
0101
0000
0110
0000
1010
0000
0100
0010
1000
0001
,  // measure 81
0010
0000
1000
0010
0001
0100
0100
0010
0100
0001
0010
0001
,  // measure 82
0100
0000
0101
0000
1010
0000
1100
0000
0100
1000
0010
0100
,  // measure 83
1000
0000
0100
0001
0010
0100
0100
1000
0001
0010
0001
1000
,  // measure 84
0001
0100
0000
0000
1010
0000
1100
0000
0000
0100
0000
0001
,  // measure 85
0010
0000
1000
0100
0010
0001
0100
0000
1000
0010
0100
0001
,  // measure 86
0010
0001
0100
0010
1000
0100
0010
0000
0000
0110
0000
0001
,  // measure 87
0100
0000
1000
0001
0100
0010
1000
0000
0010
0100
1000
0100
,  // measure 88
0001
0000
0101
0000
1001
0000
1100
0000
0100
0010
0001
1000
,  // measure 89
0001
0000
1000
0001
0100
0010
0010
1000
0100
0010
1000
0010
,  // measure 90
0001
0000
1100
0000
0101
0000
1010
0000
0100
0001
0100
0010
,  // measure 91
0010
0000
0100
0001
0010
0100
1000
0001
0010
1000
0010
0001
,  // measure 92
1000
0001
0000
0000
0100
0000
1010
0000
0000
0010
0000
0001
,  // measure 93
0100
0000
0001
0010
0100
1000
0010
0000
0100
1000
0100
0001
,  // measure 94
0010
0100
1000
0010
0100
0001
1000
0000
0000
1010
0000
0100
,  // measure 95
1000
0000
0010
0100
0001
1000
0100
0000
1000
0100
0010
0001
,  // measure 96
1000
0000
0000
0000
0100
0000
0010
0001
1000
0001
0010
0001
1000
0010
0100
0000
,  // measure 97
0001
0000
0010
0100
1000
0001
0010
0001
1000
0010
0100
0001
0100
0000
0010
0000
,  // measure 98
1000
0001
0010
0100
1000
0001
0010
0001
1000
0010
0100
0000
0001
0000
1000
0000
,  // measure 99
0001
0010
0100
1000
0010
0100
0001
0000
1000
0100
1000
0000
0001
0100
0001
0000
,  // measure 100
1001
0000
0000
0000
0000
0000
1000
0000
0000
0001
0100
0010
1000
0000
0000
1000
0100
0010
0001
0000
0000
1000
0000
0000
,  // measure 101
1001
0000
0000
0000
0010
1000
0100
1000
0010
0100
0001
0010
0001
1000
0100
0000
,  // measure 102
0010
0000
0000
0000
0010
0001
0010
0100
0010
0001
0100
0010
1000
0100
0010
0000
,  // measure 103
0100
0000
1000
0010
0100
0010
1000
0001
0100
0000
0001
0010
0100
1000
0001
0010
,  // measure 104
0001
0000
0100
0000
0001
0000
0100
0000
0001
0000
0010
0100
1000
0000
0010
0100
,  // measure 105
0001
0000
0100
0010
1000
0000
0100
1000
0001
0010
0100
1000
0010
0000
0100
0000
,  // measure 106
0001
0000
0100
0000
0010
0000
1000
0100
0010
0000
0001
1000
0010
0000
1000
0001
,  // measure 107
0010
0000
0100
0010
0001
0000
0100
0010
1000
0100
0010
0100
1000
0000
0010
0000
,  // measure 108
0100
0000
0000
0000
0010
0000
0100
0001
0100
0001
1000
0000
0100
1000
0100
1000
,  // measure 109
0001
0000
0100
0000
0001
1000
0100
1000
0100
0000
1000
0000
0010
0100
0010
0000
,  // measure 110
1000
0000
0010
0000
0100
0000
0010
0000
1000
0001
0010
0100
1000
0000
0010
0100
,  // measure 111
0001
0000
0100
0010
1000
0100
0010
0001
1000
0010
1000
0000
0010
0000
0000
0000
,  // measure 112
0110
0000
0000
0000
0010
0100
0001
1000
0010
1000
0100
0010
0001
0000
0000
0000
,  // measure 113
0010
0100
1000
0001
0010
0100
1000
0001
0100
0010
0100
0000
0001
1000
0001
0000
,  // measure 114
1001
0000
0000
0000
0110
0000
0000
0000
0100
0001
0010
0100
0010
0100
0001
0100
,  // measure 115
0010
0100
0010
0000
0011
0000
0000
0000
1000
0001
0100
0010
1000
0010
1000
0000
,  // measure 116
1001
0000
0010
1001
0000
0000
0100
0000
,  // measure 117
0110
0000
0110
0000
0000
0000
1010
0000
1010
0000
0000
0000
0100
0000
0000
1000
,  // measure 118
0010
0000
0000
0000
0000
0000
0010
0000
0000
0000
0000
0000
0010
0000
0000
0000
0000
0000
0100
0000
0000
0001
0000
0000
0010
0000
0000
0000
0000
0000
0100
0000
0000
1000
0000
0000
0010
0000
0000
0000
0000
0000
0100
0000
0010
0000
1000
0000
,  // measure 119
0001
0000
0000
0100
0001
1000
0100
0000
0000
0010
0100
1000
0001
0000
0000
0010
0000
0000
0001
0000
0000
0000
1000
0000
,  // measure 120
0010
0000
1000
0000
0100
0010
0001
1000
0010
0000
0100
0001
0010
0100
0010
0000
,  // measure 121
0001
0000
0000
0000
1000
0100
0010
0100
1000
0000
0001
1000
0100
0000
1000
0000
,  // measure 122
0010
0000
0100
0001
1000
0000
0100
0000
0010
0000
0100
1000
0010
0000
0100
0000
,  // measure 123
0020
0000
0000
0130
0010
0000
1000
0000
,  // measure 124
0011
0000
1100
0000
0101
1100
0000
0011
,  // measure 125
1001
0000
0100
0010
1000
0000
0001
1000
0100
0000
0010
0001
1000
0000
0000
0000
,  // measure 126
0110
0000
0000
0000
0000
0000
0000
0000
0000
0000
0000
0000
0001
0000
0000
0000
0000
0000
0010
0000
0000
0100
0000
0000
1000
0000
0000
0000
0000
0000
0010
0000
1000
0000
0001
0000
1000
0000
0000
0000
0000
0000
0100
0000
0000
0000
0000
0000
,  // measure 127
0010
0000
0001
0000
1000
0001
0100
0010
1000
0000
0001
0000
1000
0000
0100
0000
,  // measure 128
0020
0000
0001
0000
,  // measure 129
0100
0000
0001
0000
,  // measure 130
1000
0000
0001
0000
,  // measure 131
0100
0000
0031
0000
,  // measure 132
2000
0000
0010
0000
,  // measure 133
0100
0000
0000
0000
0000
0000
0001
0000
0000
3000
2000
0000
,  // measure 134
0100
0000
0010
0000
,  // measure 135
0100
0000
0000
0000
0000
0000
3001
0000
0000
0000
0100
0000
,  // measure 136
0002
0000
1000
0000
1000
0000
0000
0000
0100
0000
0000
0000
,  // measure 137
0000
0000
1000
0000
1003
0000
0000
0000
1000
0000
0100
0000
,  // measure 138
2000
0000
0001
0000
0001
0000
0000
0000
0100
0000
0000
0000
,  // measure 139
0000
0000
0001
0000
3001
0000
0000
0000
0001
0000
0100
0000
,  // measure 140
0010
0000
0000
0000
0100
0000
0000
0000
0010
0000
0010
0000
,  // measure 141
0100
0000
0001
0000
1000
0000
0010
0000
1000
0000
0001
0000
,  // measure 142
0010
0000
0000
0000
0100
0000
0000
0000
0010
0000
0010
0000
,  // measure 143
0100
0000
0010
0000
0001
0000
0010
0000
0100
0000
0100
0000
,  // measure 144
0010
0000
0000
0000
;
