#TITLE:Flicker;
#SUBTITLE:;
#ARTIST:Porter Robinson;
#MUSIC:04 - Flicker.ogg;
#BANNER:flicker-bn.png;
#BACKGROUND:Flicker-bg.png;
#LYRICSPATH:;
#CDTITLE:;
#SAMPLESTART:93.969002;
#SAMPLELENGTH:14.742000;
#OFFSET:-0.064;
#BPMS:0.000000=92.000000;
#STOPS:140.000000=1.957000;
#TIMESIGNATURES:;
#BGCHANGES:;
#FGCHANGES:;
#ATTACKS:;
#SPEEDS:;
#SCROLLS:;
#KEYSOUNDS:;

//---------------dance-single - ---------------
#NOTES:
     dance-single:
     :
     Hard:
     11:
     0.455095,0.622589,0.313121,0.102105,0.442454,468.000000,422.000000,46.000000,15.000000,0.000000,0.000000,0.455095,0.622589,0.313121,0.102105,0.442454,468.000000,422.000000,46.000000,15.000000,0.000000,0.000000:
// measure 0
0000
0000
0000
0000
,  // measure 1
0000
0000
0000
0000
,  // measure 2
0000
0000
0000
0000
,  // measure 3
0000
0000
0000
0000
,  // measure 4
1000
0000
0100
0000
0001
0000
0100
0010
0000
0010
0100
0000
0110
0000
0000
0000
,  // measure 5
0001
0000
0100
0000
1000
0000
0100
0010
0000
0010
1000
0000
1001
0000
0000
0000
,  // measure 6
0100
0000
0010
0000
0001
0000
0100
0010
0000
0010
1000
0000
1001
0000
0000
0000
,  // measure 7
1000
0000
0100
0000
0010
0000
0001
0100
0000
0001
0010
0000
0001
0000
0100
0000
,  // measure 8
0001
0000
0010
0000
0100
0000
1000
0010
0000
0010
1000
0000
0100
0000
0000
0000
,  // measure 9
0010
0000
0001
0000
1000
0000
0010
0100
0000
0100
0001
0000
0010
0000
0000
0000
,  // measure 10
0001
0000
0100
0000
0010
0000
1000
0100
0000
0100
0001
0000
0100
0000
0000
0000
,  // measure 11
1000
0100
0001
0100
1000
0010
0000
0000
0010
0100
0001
0010
0100
1000
0001
0100
,  // measure 12
0010
0000
0000
0000
1000
0000
0000
0001
0000
0010
0100
1000
0100
1000
0100
1000
,  // measure 13
0100
0000
0000
0000
0010
0000
0000
0000
0001
0100
0001
0100
0010
0010
0100
0100
,  // measure 14
0001
0000
1000
0000
0100
0000
0000
0010
0000
0001
1000
0010
1000
0010
1000
0000
,  // measure 15
0001
0000
0000
0000
0100
0000
0000
0000
0010
0000
0000
0000
1000
0000
0000
0000
0100
0000
0000
0000
0010
0000
0000
0000
0001
0000
0000
0000
0000
0000
0000
0000
0000
0001
0000
0000
0100
0000
0000
0000
0000
0000
0000
0000
0000
0010
0000
0000
,  // measure 16
0000
0000
1100
0000
0001
0000
0000
0100
0000
0010
1000
0000
1100
0000
0000
0000
,  // measure 17
0000
0000
0010
0000
0101
0000
0000
0010
0000
0100
1000
0000
0011
0000
0000
0000
,  // measure 18
0100
1000
0010
0100
0001
1000
0100
0010
,  // measure 19
0001
0100
0001
0100
0000
0110
0000
0000
0001
1000
0001
1000
0100
0010
0100
0010
,  // measure 20
0002
0000
0000
0200
0000
0000
0000
0000
0303
0000
2020
0000
0000
0000
3030
0000
,  // measure 21
1001
0000
0000
0220
0000
0000
0000
0000
0300
0000
0002
0000
0000
0000
0030
0003
,  // measure 22
2000
0000
0000
0000
0100
0000
0000
0000
0001
0000
0000
0000
0010
0000
0000
3000
,  // measure 23
0100
0010
0000
0001
0000
0100
0000
0010
0000
1000
0000
0001
0000
1000
0000
0000
,  // measure 24
0102
0000
0000
0020
0000
0000
0000
0000
0030
0000
0200
0000
0000
0000
0303
0000
,  // measure 25
2001
0000
0100
0000
0000
0000
0000
0000
0000
0000
0010
0000
0000
0000
0000
3000
,  // measure 26
0100
0010
0100
0010
0000
0100
0000
0000
0001
0100
0001
0100
0000
0010
0000
0000
,  // measure 27
1000
0000
0000
0001
0000
0000
0000
0000
0000
0000
0100
0000
0000
0000
0010
0000
,  // measure 28
1001
1001
1001
1001
,  // measure 29
1001
0000
0000
0000
1000
0100
0010
0001
0000
0000
0100
0000
0010
0000
1000
0000
,  // measure 30
1001
0000
0000
1001
0000
0000
0101
0000
,  // measure 31
0011
0000
0100
0000
1100
0010
0100
0001
0000
0000
1000
0000
0100
0000
0010
0000
,  // measure 32
0101
0000
0010
1010
0001
0101
0010
1000
,  // measure 33
0001
0000
0001
0000
0010
0100
1000
0010
0000
0000
0100
0000
0001
0000
0010
0000
,  // measure 34
1000
0100
0010
0001
1000
0100
0010
0001
1000
0010
0100
0001
1000
0100
0010
0002
,  // measure 35
0000
0003
0000
0000
0000
0000
0000
0000
0000
0000
0000
0000
0000
0000
0000
0000
0000
0000
0000
0000
0000
0000
0000
0000
0000
0000
0000
0000
0000
0000
0000
0000
0000
0000
0000
0000
0000
0000
0000
0000
0000
0000
0000
0000
0000
0000
0000
0000
1000
0000
0000
0000
0000
0000
0000
0000
0000
0000
0000
0000
0100
0000
0000
0000
0000
0000
0000
0000
0000
0000
0000
0000
0010
0000
0000
0000
0000
0000
0000
0000
0000
0000
0000
0000
0001
0000
0000
0000
0000
0000
0000
0000
0000
0000
0000
0000
1000
0000
0000
0000
0000
0000
0000
0000
0000
0000
0000
0000
0010
0000
0000
0000
0000
0000
0000
0000
0000
0000
0000
0000
0100
0000
0000
0000
0000
0000
0000
0000
0000
0000
0000
0000
0001
0000
0000
0000
0000
0000
0000
0000
0000
0000
0000
0000
1000
0000
0000
0000
0000
0000
0000
0000
0000
0000
0000
0000
0010
0000
0000
0000
0000
0000
0000
0000
0000
0000
0000
0000
0100
0000
0000
0000
0000
0000
0000
0000
0000
0000
0000
0000
0001
0000
0000
0000
0000
0000
0000
0000
0000
0000
0000
0000
,  // measure 36
1000
0000
0000
0100
0000
0000
0010
0000
0000
0001
0000
0000
1000
0000
0000
0010
0000
0000
0100
0000
0000
0001
0000
0000
1000
0000
0000
0100
0000
0000
0010
0000
0000
0001
0000
0000
0100
0000
0000
0000
0100
0000
0000
0000
0100
0000
0000
0000
,  // measure 37
0001
0010
0100
1000
0001
0100
0010
1000
0001
0100
0010
1000
0001
0010
0100
1000
,  // measure 38
0001
0100
0010
1000
0001
0010
0100
1000
0001
0100
1000
0100
0001
0010
1000
0010
,  // measure 39
0001
0100
1000
0100
0001
0100
0010
1000
0001
0010
0100
1000
0001
0010
0100
1000
,  // measure 40
0001
0100
0010
1000
0001
0100
0010
1000
0001
0010
0100
1000
0001
0010
0001
0100
,  // measure 41
0010
0100
0010
1000
0001
0000
0011
0000
0000
0000
1010
0000
0000
0000
0000
0000
,  // measure 42
0100
0000
1000
1100
0000
0011
0000
0000
,  // measure 43
0010
0000
0001
0010
0100
0010
0001
1000
,  // measure 44
0100
0010
0100
0001
1000
0010
0110
1000
,  // measure 45
1010
0100
0001
0010
0001
0001
1000
0010
,  // measure 46
0100
0100
0010
1000
0100
0010
0001
0010
,  // measure 47
0100
0010
0010
0001
1000
0010
0100
0010
,  // measure 48
1000
0100
0010
0001
0010
0100
1000
0000
,  // measure 49
1001
0000
0010
0010
0001
0101
0010
1000
,  // measure 50
0100
0010
0011
0011
0001
0011
0010
0100
,  // measure 51
1000
0010
1010
1010
0010
1010
0100
0001
,  // measure 52
0010
0100
1000
1000
0000
0001
0001
0000
,  // measure 53
0100
0000
1010
0110
0101
0110
1010
0202
,  // measure 54
0000
0000
0000
0000
,  // measure 55
0000
0000
0000
0000
0000
0000
0000
0000
0000
0000
0000
0000
0000
0000
0000
0000
0000
0000
0000
0000
0000
0000
0000
0000
0000
0000
0000
0000
0000
0000
0000
0000
0000
0000
0000
0000
0000
0000
0000
0000
0000
0000
0000
0000
0000
0000
0000
0000
0000
0000
0000
0000
0000
0000
0000
0000
0000
0000
0000
0000
0000
0000
0000
0000
0000
0000
0000
0000
0000
0000
0000
0000
0000
0000
0000
0000
0000
0000
0000
0000
0000
0000
0000
0303
0000
0000
0000
0000
0000
0000
0000
0000
0000
0000
0000
0000
0000
0000
0000
0000
0000
0000
0000
0000
0000
0000
0000
0000
0000
0000
0000
0000
0000
0000
0000
0000
0000
0000
0000
0000
0000
0000
0000
0000
0000
0000
0000
0000
0000
0000
0000
0000
0000
0000
0000
0000
0000
0000
0000
0000
0000
0000
0000
0000
0000
0000
0000
0000
0000
0000
0000
0000
0000
0000
0000
0000
0000
0000
0000
0000
0000
0000
0000
0000
0000
0000
0000
0000
0000
0000
0000
0000
0000
0000
0000
0000
0000
0000
0000
0000
0000
0000
0000
0000
0000
0000
0000
0000
0000
0000
0000
0000
;
