#VERSION:0.83;
#TITLE:Femcels;
#SUBTITLE:;
#ARTIST:Cynthoni;
#TITLETRANSLIT:;
#SUBTITLETRANSLIT:;
#ARTISTTRANSLIT:;
#GENRE:;
#CREDIT:;
#MUSIC:Femcels.ogg;
#BANNER:Femcels-bn.png;
#BACKGROUND:Femcels-bg.png;
#JACKET:Femcels-jacket.png;
#DISCIMAGE:;
#CDIMAGE:;
#SELECTABLE:YES;
#LYRICSPATH:;
#CDTITLE:;
#SAMPLESTART:85.337;
#SAMPLELENGTH:15.086;
#OFFSET:-5.824;
#BPMS:0.000000=175.000000;
#STOPS:;
#WARPS:;
#DELAYS:;
#SPEEDS:0.000000=1.000000=0.000000=0;
#SCROLLS:0.000000=1.000000;
#TICKCOUNTS:;
#TIMESIGNATURES:0.000000=4=4;
#LABELS:;
#COMBOS:;
#FAKES:;
#BGCHANGES:8=Femcels.mp4=1.000000=0=0=0=====;
#FGCHANGES:;
#ATTACKS:;
#KEYSOUNDS:;

//---------------dance-single - ---------------
#NOTEDATA:;
#CHARTNAME:;
#CHARTSTYLE:;
#CREDIT:Sparks;
#STEPSTYPE:dance-single;
#DESCRIPTION:;
#DIFFICULTY:Challenge;
#METER:16;
#METERF:16;
#RADARVALUES:0,0,0,0,0;
#NOTES:
// measure 0
0000
0000
0000
0000
,  // measure 1
0000
0000
0000
0000
,  // measure 2
1000
0001
0100
0001
1000
0010
0100
0000
0001
1000
0100
0000
1000
0001
0100
0000
,  // measure 3
0001
0000
0010
0000
0100
1000
0100
0000
1000
0010
1000
0000
0010
0100
0010
0000
,  // measure 4
1000
0000
0100
1000
0000
0001
0100
0000
0001
0000
0010
0000
1000
0000
0010
0000
,  // measure 5
0100
1000
0010
0100
1000
0100
0001
0100
,  // measure 6
0001
0100
0001
0100
0010
1000
0001
0000
1000
0100
1000
0000
0001
0100
0001
0000
,  // measure 7
0010
0000
0100
0000
1000
0010
1000
0000
0001
0010
0001
0000
0100
0001
0100
0000
,  // measure 8
0010
0000
1000
0100
0000
1000
0010
0000
0100
0001
0000
0010
0001
0000
0100
0000
,  // measure 9
0220
0000
0000
0030
,  // measure 10
0301
0010
0100
1000
0010
0100
0001
0000
1000
0100
1000
0000
0001
0100
0001
0000
,  // measure 11
1000
0000
0010
0000
0100
0001
1000
0000
0100
1000
0010
0000
0100
0001
1000
0000
,  // measure 12
0010
0100
0001
0010
0001
1000
0001
0100
,  // measure 13
010M
1000
0100
0010
0100
0001
0100
1000
,  // measure 14
0010
0100
0010
0100
0001
1000
0010
0000
1000
0001
0100
0000
0001
1000
0100
0000
,  // measure 15
0010
0000
0001
0000
1000
0100
1000
0000
0001
0100
0001
0000
1000
0100
1000
0000
,  // measure 16
1010
0000
0000
0110
0000
0000
0101
0000
0000
1100
0000
0000
2002
0000
0000
0000
,  // measure 17
0000
0000
0000
0003
,  // measure 18
3010
0000
0000
0000
0010
0000
0000
0000
0010
0000
0000
0000
0100
0000
0000
0000
0100
0000
0000
0000
0100
0000
0000
0000
0001
0000
0000
0000
0001
0000
0000
0000
0001
0000
0000
0000
0010
0000
0000
0000
0000
0000
0100
0000
0000
1000
0000
0000
,  // measure 19
0000
M010
0001
0000
1000
0010
0000
00M2
2000
0000
0000
0000
3003
0000
0000
0000
,  // measure 20
1000
0010
1000
0010
0100
0010
1000
0000
0100
0000
0010
0000
0001
0000
0010
0000
,  // measure 21
0100
01M0
0001
0100
0010
1000
0001
1000
,  // measure 22
0100
0010
0100
0010
0001
0010
0100
0000
1000
0001
0100
0000
0010
1000
0001
0000
,  // measure 23
1000
0000
0010
0000
0100
0001
0100
0000
0001
1000
0100
0000
1000
0001
0100
0000
,  // measure 24
0010
0000
0010
1000
0000
1000
0100
0000
M100
0001
0000
0001
0010
0000
0100
0000
,  // measure 25
2000
0100
3100
2000
0010
0020
3030
0000
,  // measure 26
0100
0010
0100
0001
1000
0100
0010
0000
0001
0100
0010
0000
1000
0100
0010
0000
,  // measure 27
0001
0010
0001
0000
0100
0101
0000
0000
,  // measure 28
0001
0100
0010
1000
0001
0100
0001
0000
0010
0000
0100
0000
1000
0000
0010
0000
,  // measure 29
0100
1000
0100
0010
1000
0100
0010
0001
,  // measure 30
1000
0100
1000
0001
0100
0001
1000
0000
0010
0100
0001
0000
0100
0010
1000
0000
,  // measure 31
0100
0000
1000
0000
0001
0010
0001
0000
1000
0010
1000
0000
0100
1000
0200
0000
,  // measure 32
0020
0000
0000
0000
,  // measure 33
0000
0000
0000
0030
,  // measure 34
1300
0000
0000
0000
1000
0000
0001
0010
0100
0000
0010
0000
0001
0000
0010
0000
,  // measure 35
0100
0000
0100
1000
0001
0000
0100
0000
0100
0001
1000
0000
0100
0000
0100
0010
,  // measure 36
0002
0000
0000
0100
0000
0100
0000
1000
,  // measure 37
2003
0010
0000
3001
,  // measure 38
0001
0000
0100
0010
1000
0001
0201
0000
,  // measure 39
0310
0000
0010
0100
0001
0000
0010
0000
0010
0100
1000
0000
0010
0000
0010
1000
,  // measure 40
0200
1000
0000
0010
0000
0000
2300
0000
,  // measure 41
0020
3000
0000
0100
0100
0100
0230
0000
,  // measure 42
0301
0000
0000
0000
0001
0000
0100
0010
1000
0000
0010
0000
0100
0000
0001
0000
,  // measure 43
1000
0000
1000
0010
0100
0000
10M0
0000
1000
0100
0010
0000
1000
0000
1000
0100
,  // measure 44
0020
0000
0000
0001
0000
0001
0000
0130
,  // measure 45
0200
1000
0000
0310
,  // measure 46
0010
0000
0001
0010
0100
1000
1200
0000
,  // measure 47
0310
0000
0010
0001
0100
0000
0010
0000
0010
0100
0001
0000
0010
0000
0010
0100
,  // measure 48
2000
0010
0000
0001
0000
0000
0100
0000
,  // measure 49
0200
3000
0000
0010
0010
0010
0310
0000
,  // measure 50
0001
0000
0000
0000
0010
0000
0100
1000
0010
0000
0100
0000
0001
0000
1000
0000
,  // measure 51
0001
0000
0001
0010
0100
0000
00M1
0000
0001
0100
0010
0000
0001
0000
0001
1000
,  // measure 52
0002
0000
0000
0000
0000
0000
0000
0000
0000
0000
0000
0000
0100
0000
0000
0000
0000
0000
0000
0000
1000
0000
0000
0000
0000
0000
0000
0000
0020
0030
0000
0000
,  // measure 53
0020
0000
0030
0000
0200
0000
0000
0000
0000
0300
0000
0000
0020
0000
0003
0000
,  // measure 54
0100
0200
0030
2000
0000
3000
0020
0300
,  // measure 55
0002
0000
0003
0200
0000
0030
0310
0020
,  // measure 56
0200
0030
2000
0300
0002
3000
0200
0003
,  // measure 57
0020
0000
0000
0330
,  // measure 58
2001
0000
3010
1002
0000
0103
0002
0000
,  // measure 59
0010
0000
0000
0000
0013
0000
0000
0000
0100
0000
0001
0000
1000
0010
1000
0000
,  // measure 60
2100
0000
3001
1200
0000
0310
0200
0000
,  // measure 61
0001
0000
0000
0000
0301
0000
0000
0000
0010
0000
0100
0000
1000
0001
0100
0000
,  // measure 62
0001
0000
0010
0000
0001
0010
0100
0000
0M01
0010
0100
0000
0M10
0000
0001
0000
,  // measure 63
0100
0000
0010
0000
1000
0010
0100
0000
1M00
0010
0100
0000
0M10
0000
1000
0000
,  // measure 64
1010
0001
0100
1010
0001
0100
1010
0000
,  // measure 65
1001
0100
0010
1001
0010
0100
1001
0000
,  // measure 66
0102
0000
1003
0201
0000
0310
0200
0000
,  // measure 67
1000
0000
0000
0000
1300
0000
0000
0000
0001
0000
0100
0000
0010
1000
0001
0000
,  // measure 68
1002
0000
0103
2001
0000
3010
2000
0000
,  // measure 69
0100
0000
0000
0000
3100
0000
0000
0000
0001
0000
1000
0000
0010
0100
0001
0000
,  // measure 70
0010
0000
0100
0000
1000
0001
0100
0000
1M00
0001
0100
0000
0M01
0000
1000
0000
,  // measure 71
0100
0000
1000
0000
0010
1000
0001
0000
001M
1000
0001
0000
100M
0000
0010
0000
,  // measure 72
0101
0010
1000
0101
0010
1000
0101
0000
,  // measure 73
1000
0100
0010
0100
1000
0100
0010
0000
,  // measure 74
0001
0000
0100
0101
0000
1000
1100
0000
,  // measure 75
0010
0001
0010
0000
0100
0000
0010
0000
0001
0000
1000
0100
1000
0000
0000
0000
,  // measure 76
0010
0000
0100
0101
0000
1000
1010
0000
,  // measure 77
0100
0001
0100
0000
0010
0000
0100
0000
0001
0000
1000
0010
1000
0000
0000
0000
,  // measure 78
0100
0000
0010
0011
0000
0001
0101
0000
,  // measure 79
0001
0010
0001
0000
0100
0000
0001
0000
1000
0000
0100
1000
0100
0000
0000
0000
,  // measure 80
1000
0000
1000
1010
0000
0010
1000
0001
,  // measure 81
0100
1000
0100
0001
0010
1000
0010
0001
,  // measure 82
1000
0000
0000
0010
0000
0000
0100
0000
0001
0000
0001
0000
0100
0000
010M
0000
,  // measure 83
1000
1000
0010
M010
0001
0001
0100
010M
,  // measure 84
1000
0100
0010
0001
0000
0000
0001
0000
0010
0000
001M
0000
1000
0000
1000
0000
,  // measure 85
0100
M100
0001
0001
0010
001M
1000
1000
,  // measure 86
0001
1000
0010
0100
0000
0000
0001
0000
0010
0000
0100
0000
1100
0000
1000
0000
,  // measure 87
0010
0100
0101
0001
0010
0100
1100
1000
,  // measure 88
0010
0000
0000
1000
0000
0000
0001
0000
0100
0000
0001
0000
0010
0000
1000
0000
,  // measure 89
0010
0001
0100
1000
0100
0002
0010
0003
,  // measure 90
1000
0000
0000
0001
0000
0000
0100
0000
0010
1000
0010
0100
0010
0000
1000
0000
,  // measure 91
0100
0010
0001
0010
0100
0000
1000
0000
0001
1000
0010
0100
0001
0000
0000
0000
,  // measure 92
0010
0000
0000
0001
0000
0000
1000
0000
0010
1000
0100
1000
0010
0000
0100
0000
,  // measure 93
0001
0010
0001
0100
0001
0000
0100
0000
0010
1000
0001
0010
0001
0000
1000
0000
,  // measure 94
0010
0100
0010
0200
0000
0000
0300
0000
0100
0001
0100
0000
0001
1000
0001
0000
,  // measure 95
1000
0100
1000
0000
0001
0100
0001
0000
1000
0100
1000
0000
0020
0000
0000
0000
,  // measure 96
0100
0000
0000
1000
0000
0000
0100
0000
0000
1000
0000
0000
0130
0000
0001
0000
,  // measure 97
0010
1000
0010
0001
0100
1000
0200
0000
,  // measure 98
0020
0000
0000
0000
,  // measure 99
0000
0000
0000
0000
,  // measure 100
0000
0000
0330
0000
;

//---------------dance-single - ---------------
#NOTEDATA:;
#CHARTNAME:;
#CHARTSTYLE:;
#CREDIT:Sparks;
#STEPSTYPE:dance-single;
#DESCRIPTION:;
#DIFFICULTY:Hard;
#METER:14;
#METERF:14;
#RADARVALUES:0,0,0,0,0;
#NOTES:
// measure 0
0000
0000
0000
0000
,  // measure 1
0000
0000
0000
0000
,  // measure 2
1000
0000
0100
0000
0010
0000
0001
0000
1000
0100
1000
0000
0001
0100
0001
0000
,  // measure 3
0020
0001
0100
0032
,  // measure 4
0103
0000
0000
0010
0000
0000
1000
0000
0100
0000
1000
0000
0010
0000
1000
0000
,  // measure 5
0001
0100
0001
0000
1000
0010
0000
0000
,  // measure 6
0100
0000
0001
0000
1000
0000
0100
0000
1000
0100
1000
0000
0001
0010
0001
0000
,  // measure 7
2000
0010
0001
3020
,  // measure 8
0130
0000
0000
0001
0000
0000
0010
0000
0000
0100
0000
0000
2000
0000
0000
0000
,  // measure 9
0002
0000
0000
0003
,  // measure 10
3010
0000
0100
0000
0001
0000
0010
0000
0100
1000
0100
0000
0010
0001
0010
0000
,  // measure 11
0002
0100
1000
0023
,  // measure 12
0130
0000
0000
1000
0000
0000
0010
0000
0100
0000
0010
0000
1000
0000
0001
0000
,  // measure 13
0100
0001
0010
0000
0100
1000
0000
0000
,  // measure 14
0010
0000
1000
0000
0100
0000
0010
0000
0001
1000
0001
0000
0100
0001
0100
0000
,  // measure 15
0020
1000
0100
2030
,  // measure 16
0001
0000
0000
0001
0000
0000
0001
0000
0000
0001
0000
0000
0002
0000
0000
0000
,  // measure 17
0000
0000
0000
3003
,  // measure 18
1000
0000
0000
0000
0010
0000
0000
0000
0100
0000
0000
0000
0001
0000
0000
0000
0100
0000
0000
0000
0010
0000
0000
0000
1000
0000
0000
0000
0001
0000
0000
0000
1000
0000
0000
0000
0100
0000
0000
0000
0000
0000
0000
0000
0000
0100
0000
0000
,  // measure 19
0000
0000
0100
0000
0000
0100
0000
0000
0200
0000
0000
0000
0300
0000
0000
0000
,  // measure 20
1000
0001
0010
0100
1000
0010
0100
0001
,  // measure 21
1000
0100
1000
0000
0001
0000
0000
0000
0100
0000
0001
0000
0000
0000
0000
0000
,  // measure 22
1000
0000
0100
0000
0010
0000
0001
0000
0100
0001
0100
0000
0001
0010
0001
0000
,  // measure 23
2000
0100
0001
3200
,  // measure 24
0310
0000
0000
0001
0000
0000
0100
0000
0000
0010
0000
0000
2000
0000
0000
0000
,  // measure 25
0002
0000
0000
3000
,  // measure 26
0103
0000
0001
0000
0010
0000
0100
0000
1000
0100
1000
0000
0001
0100
0001
0000
,  // measure 27
1000
0100
1000
0000
0010
0010
0000
0000
,  // measure 28
0100
0000
0000
0001
0000
0000
0100
0000
0010
0000
1000
0000
0100
0000
0010
0000
,  // measure 29
0001
1000
0010
0000
1000
0100
0000
0000
,  // measure 30
0010
0000
0001
0000
1000
0000
0010
0000
1000
0100
1000
0000
0010
1000
0010
0000
,  // measure 31
1000
0001
0100
0000
0002
0020
0000
0003
,  // measure 32
0200
0000
0000
0000
,  // measure 33
0000
0000
0000
0030
,  // measure 34
1300
0000
1000
0001
0010
0001
1000
0000
,  // measure 35
0010
0000
0000
0000
0100
0001
1000
0000
0000
0000
0100
0010
0001
0000
0000
0000
,  // measure 36
0010
0000
0000
0010
0000
0010
0000
0010
,  // measure 37
0001
0202
0300
2003
,  // measure 38
3010
0000
0010
1000
0100
1000
0010
0000
,  // measure 39
0100
0000
0000
0000
0001
1000
0010
0000
0000
0000
1000
0001
0010
0000
0000
0000
,  // measure 40
0100
0100
0000
0200
0000
0000
1000
0000
,  // measure 41
2000
0300
3000
0010
1000
0010
1000
0000
,  // measure 42
0100
0000
0100
0010
0001
0010
0100
0000
,  // measure 43
1000
0000
0000
0000
0001
0100
0010
0000
0000
0000
1000
0100
0010
0000
0000
0000
,  // measure 44
0001
0000
0000
0001
0000
0001
0000
0001
,  // measure 45
0100
0220
0030
0302
,  // measure 46
0013
0000
0010
0100
1000
0100
0010
0000
,  // measure 47
0001
0000
0000
0000
0100
0010
1000
0000
0000
0000
0001
1000
0100
0000
0000
0000
,  // measure 48
1000
1000
0000
2000
0000
0000
0010
0000
,  // measure 49
0020
3000
0030
0100
0010
0100
0010
0000
,  // measure 50
1000
0000
1000
0001
0010
0001
1000
0000
,  // measure 51
0100
0000
0000
0000
0010
0001
1000
0000
0000
0000
0010
0100
0001
0000
0000
0000
,  // measure 52
1000
0000
0000
1000
0000
1000
0000
1000
,  // measure 53
0100
0220
0030
1300
,  // measure 54
0020
0200
0030
0002
0000
0300
0020
0003
,  // measure 55
0200
0000
0000
0000
0030
0000
2000
0000
0000
0000
0300
0000
3020
0030
0200
0300
,  // measure 56
0020
0000
0000
0000
,  // measure 57
0000
0000
0000
0030
,  // measure 58
1001
0000
0010
0001
0000
0001
0100
0000
,  // measure 59
0010
0000
0000
0000
0010
0000
0000
0000
1000
0000
0001
1000
0010
0000
0000
0000
,  // measure 60
0110
0000
0100
0001
0000
0001
0010
0000
,  // measure 61
0100
0000
0000
0000
0100
0000
0000
0000
1000
0000
0001
0010
0100
0000
1000
0000
,  // measure 62
0010
0000
0100
0000
0010
1000
0000
0000
M010
0001
0000
0000
0010
0000
0100
0000
,  // measure 63
1000
0000
0010
0000
0100
0001
0000
0000
010M
1000
0000
0000
0001
0000
0010
0000
,  // measure 64
0011
0100
1000
0001
1000
0100
0011
0000
,  // measure 65
1010
0001
0100
0010
0100
0001
1010
0000
,  // measure 66
0110
0000
1000
0100
0000
0100
0010
0000
,  // measure 67
0001
0000
0000
0000
0001
0000
0000
0000
1000
0000
0010
1000
0100
0000
0000
0000
,  // measure 68
1010
0000
0100
0001
0000
0001
0010
0000
,  // measure 69
0100
0000
0000
0000
0100
0000
0000
0000
0010
0000
0001
0100
0010
0000
0000
0000
,  // measure 70
0010
0000
1000
0000
0100
1000
0000
0000
M100
0001
0000
0000
0010
0000
0001
0000
,  // measure 71
0100
0000
0001
0000
0010
0001
0000
0000
001M
1000
0000
0000
0100
0000
1000
0000
,  // measure 72
1100
0001
0010
0100
0010
0001
1100
1000
,  // measure 73
0010
1000
0100
1000
0010
1000
0100
0000
,  // measure 74
1000
0000
0001
0100
0000
0010
1000
0000
,  // measure 75
0001
0100
0001
0000
0000
0000
0010
0000
0000
0000
0100
1000
0100
0000
0000
0000
,  // measure 76
0010
0000
0001
1000
0000
0100
0010
0000
,  // measure 77
0001
0010
0001
0000
0000
0000
0100
0000
0000
0000
0010
0100
0010
0000
0000
0000
,  // measure 78
1000
0000
0001
0100
0000
0010
1000
0000
,  // measure 79
0100
1000
0100
0000
0000
0000
0010
0000
0000
0000
0001
1000
0001
0000
0000
0000
,  // measure 80
0010
0000
0100
1000
0000
1000
0010
0100
,  // measure 81
0010
0001
0010
0100
0010
1000
0010
0000
,  // measure 82
0100
0000
0000
0001
0000
0000
0100
0000
0010
0000
0M10
0000
0001
0000
0100
0000
,  // measure 83
0010
0M10
0001
0100
0010
0M10
0001
0000
,  // measure 84
1001
0000
0000
0110
0000
0000
1000
0000
0100
0000
M100
0000
0010
0000
1000
0000
,  // measure 85
0100
M100
0010
1000
0100
M100
0010
0000
,  // measure 86
1010
0000
0000
1100
0000
0000
0010
0000
0001
0000
0100
0000
0010
0000
0001
0000
,  // measure 87
0010
0100
0010
1000
0010
0100
0010
0000
,  // measure 88
0101
0000
0000
1001
0000
0000
1100
0000
0000
0011
0000
0000
1000
0000
0010
0000
,  // measure 89
1000
0100
0001
0100
1000
0200
0001
0300
,  // measure 90
0110
0000
0200
0000
0000
0000
1000
0000
1300
0100
0010
0000
0001
0000
1000
0000
,  // measure 91
0001
0100
0010
0000
1000
0000
0001
0000
1000
0100
0010
0000
0001
0000
0000
0000
,  // measure 92
1010
0000
0020
0000
0000
0000
0130
0000
0010
1000
0001
0000
0010
0000
0100
0000
,  // measure 93
0010
0001
0100
0000
0010
0000
1000
0000
0010
0100
0001
0000
0010
0000
0000
0000
,  // measure 94
0001
0010
0001
0100
0000
0000
0001
0000
0010
0100
1000
0000
0001
0000
1000
0000
,  // measure 95
0010
0100
0001
0000
1000
0000
0001
0000
0010
0100
1000
0000
0010
0000
1000
0000
,  // measure 96
1010
0000
0000
1100
0000
0000
0101
0000
0000
0000
0011
0000
0001
0000
1000
0000
,  // measure 97
0001
0100
0001
1000
0001
0010
0200
0000
,  // measure 98
2000
0000
0000
0000
,  // measure 99
0000
0000
0000
0000
,  // measure 100
0000
0000
3300
0000
;

//---------------dance-single - ---------------
#NOTEDATA:;
#CHARTNAME:;
#CHARTSTYLE:;
#CREDIT:Sparks;
#STEPSTYPE:dance-single;
#DESCRIPTION:;
#DIFFICULTY:Medium;
#METER:12;
#METERF:12;
#RADARVALUES:0,0,0,0,0;
#NOTES:
// measure 0
0000
0000
0000
0000
,  // measure 1
0000
0000
0000
0000
,  // measure 2
1000
0100
1000
0010
0100
0010
0100
0000
,  // measure 3
0001
0100
0010
0000
1000
0010
0100
0000
,  // measure 4
0002
1000
0010
0100
,  // measure 5
0023
0100
0001
0100
,  // measure 6
0031
0010
0001
1000
0100
1000
0100
0000
,  // measure 7
1000
0010
1000
0000
0001
0100
0001
0000
,  // measure 8
0010
0000
0000
0010
0000
0000
0010
0000
0000
0010
0000
0000
0020
0000
0000
0000
,  // measure 9
0200
0000
0000
0300
,  // measure 10
0031
1000
0001
0100
0010
0100
0010
0000
,  // measure 11
1000
0100
1000
0000
0001
0100
0001
0000
,  // measure 12
0020
0100
0001
0230
,  // measure 13
1000
0001
1000
0001
,  // measure 14
1300
0100
1000
0001
0100
0001
0100
0000
,  // measure 15
0010
1000
0010
0000
0100
0002
0100
0000
,  // measure 16
2000
0000
0000
0000
,  // measure 17
0000
0000
0000
3003
,  // measure 18
0220
0000
0000
0000
0000
0000
0000
0000
0300
0000
0000
0000
1000
0000
0000
1000
,  // measure 19
0000
0000
1000
0000
0000
1000
0000
0000
2000
0000
0000
0000
0030
0000
0000
0000
,  // measure 20
3001
0010
0100
1000
0010
0000
0100
0000
,  // measure 21
0002
0010
1000
0100
,  // measure 22
0013
0100
0010
0001
0100
0010
0200
0000
,  // measure 23
0010
0001
0010
0302
,  // measure 24
1003
0000
0000
0100
0000
0000
0010
0000
0000
0001
0000
0000
2000
0000
0000
0000
,  // measure 25
0200
0000
0000
0300
,  // measure 26
3010
0100
0001
1000
0100
1000
0100
0000
,  // measure 27
0010
0001
0200
0000
0001
0301
0000
0000
,  // measure 28
0100
0002
0010
1000
,  // measure 29
0100
1000
0010
2003
,  // measure 30
3100
0010
0001
0100
0010
1000
0010
0000
,  // measure 31
0100
0001
0100
0000
0001
1000
0200
0000
,  // measure 32
0020
0000
0000
0000
,  // measure 33
0000
0000
0000
0330
,  // measure 34
0001
0000
0001
0010
0100
0000
0010
0000
,  // measure 35
0001
0100
0010
1000
0000
0010
1000
0000
,  // measure 36
0100
0000
0000
0100
0000
0100
0000
0100
,  // measure 37
1000
1000
0000
1100
,  // measure 38
0010
0000
0010
0001
0100
0000
0001
0000
,  // measure 39
0010
0100
1000
0010
0000
0100
0020
0000
,  // measure 40
1000
0000
0000
1000
0000
0000
1000
0000
,  // measure 41
2030
0000
0200
0300
,  // measure 42
3010
0000
0010
0100
0001
0000
0100
0000
,  // measure 43
0010
1000
0001
0010
0000
0100
1000
0000
,  // measure 44
0001
0000
0000
0001
0000
0001
0000
0001
,  // measure 45
0100
0100
0000
0101
,  // measure 46
1000
0000
1000
0100
0010
0000
0100
0000
,  // measure 47
1000
0010
0100
0001
0000
1000
0002
0000
,  // measure 48
0010
0000
0000
0010
0000
0000
0010
0000
,  // measure 49
0023
0000
0200
0300
,  // measure 50
0031
0000
0001
1000
0010
0000
1000
0000
,  // measure 51
0001
0100
0010
1000
0000
0100
0010
0000
,  // measure 52
0001
0000
0000
0001
0000
0001
0000
0001
,  // measure 53
1000
1000
0000
1001
,  // measure 54
2000
0000
0000
0020
3000
0000
0230
0000
,  // measure 55
0002
0300
0000
0020
0003
0000
0100
0000
,  // measure 56
0230
0000
0000
0000
,  // measure 57
0000
0000
0000
0300
,  // measure 58
1000
0000
0000
0100
0000
0000
0010
0000
,  // measure 59
0011
0110
1100
1000
,  // measure 60
0001
0000
0000
0100
0000
0000
0010
0000
,  // measure 61
1010
0110
0101
1000
,  // measure 62
0200
1000
1000
0310
,  // measure 63
0002
0010
0010
0103
,  // measure 64
0110
0000
0000
1001
0000
0000
0001
0000
,  // measure 65
0101
0000
0000
1010
0000
0000
1000
0000
,  // measure 66
0010
0000
0000
0100
0000
0000
0001
0000
,  // measure 67
0101
1001
1100
1000
,  // measure 68
0010
0000
0000
0100
0000
0000
0001
0000
,  // measure 69
0011
0110
1100
1000
,  // measure 70
0020
1000
1000
0130
,  // measure 71
0002
0100
0100
0013
,  // measure 72
0110
0000
0000
1100
0000
0000
1000
0000
,  // measure 73
0001
0100
0010
0100
0001
0100
0010
0000
,  // measure 74
1000
0000
0000
0001
0000
0000
1000
0000
,  // measure 75
0100
0010
0000
0010
0000
0001
0010
0000
,  // measure 76
0001
0000
0000
0100
0000
0000
0010
0000
,  // measure 77
1000
0010
0000
0010
0000
1000
0100
0000
,  // measure 78
1000
0000
0000
0001
0000
0000
0100
0000
,  // measure 79
0010
1000
0000
1000
0000
0010
0100
0000
,  // measure 80
0001
0000
0000
0010
0000
0000
0100
1000
,  // measure 81
0100
0010
0100
1000
0100
0010
0100
0000
,  // measure 82
1000
0000
0000
1000
0010
0100
0001
0100
,  // measure 83
0010
1000
0001
1000
0010
0100
0001
0000
,  // measure 84
1000
0000
0000
0001
0010
0100
1000
0100
,  // measure 85
0010
0001
1000
0001
0010
0100
1000
0000
,  // measure 86
0010
0000
0000
1000
0001
0100
0010
0100
,  // measure 87
0001
1000
0010
1000
0001
0100
0001
0000
,  // measure 88
0010
0000
0000
0100
0000
0000
1000
0000
0000
0001
0000
0000
0010
0000
0100
0000
,  // measure 89
0010
0001
0010
0100
0010
0001
0010
0000
,  // measure 90
0100
0000
0000
1000
0000
0000
0010
0000
1000
0000
0100
0000
0010
0000
0001
0000
,  // measure 91
1000
0010
0100
0001
1000
0100
0010
0000
,  // measure 92
0001
0000
0000
0100
0000
0000
0001
0000
0010
0000
0100
0000
1000
0000
0001
0000
,  // measure 93
0100
0010
1000
0001
0010
0100
1000
0000
,  // measure 94
0010
0000
0000
0100
0000
0000
0001
0000
0010
0000
0001
0000
0100
0000
0010
0000
,  // measure 95
1000
0010
0100
0001
0010
0001
1000
0000
,  // measure 96
0100
0000
0000
0010
0000
0000
0001
0000
0000
0000
1000
0000
0010
0000
0100
0000
,  // measure 97
0001
0100
0010
1000
0001
0010
0200
0000
,  // measure 98
0020
0000
0000
0000
,  // measure 99
0000
0000
0000
0000
,  // measure 100
0000
0000
0330
0000
;
