#TITLE:Fascination .59 ReMAXX;
#SUBTITLE:;
#ARTIST:100-200-400 VS Jesper Kyd;
#MUSIC:Fascination .59 ReMAXX.ogg;
#BANNER:Fascination .59 ReMAXX-bn.png;
#BACKGROUND:Fascination .59 ReMAXX-bg.png;
#LYRICSPATH:;
#CDTITLE:;
#SAMPLESTART:30.049999;
#SAMPLELENGTH:13.560000;
#OFFSET:-0.053;
#BPMS:0.000000=124.999992,
25.000000=83.300003,
26.000000=249.999985,
90.000000=124.999992,
98.000000=249.999985,
233.666667=50.000000,
234.416667=249.999985,
330.500000=124.999992,
338.500000=249.999985
;
#STOPS:233.666667=1.080000,
339.500000=0.120000,
340.500000=0.120000,
341.500000=0.120000
;
#TIMESIGNATURES:;
#BGCHANGES:;
#FGCHANGES:;
#ATTACKS:;
#SPEEDS:;
#SCROLLS:;
#DISPLAYBPM:62.500000:250.000000;
#KEYSOUNDS:;

//---------------dance-single - Sparks---------------
#NOTES:
     dance-single:
     Sparks:
     Challenge:
     17:
     1.016963,1.377281,0.581330,0.183578,0.418150,698.000000,641.000000,57.000000,18.000000,0.000000,0.000000,1.016963,1.377281,0.581330,0.183578,0.418150,698.000000,641.000000,57.000000,18.000000,0.000000,0.000000:
// measure 0
0000
0000
0000
0000
,  // measure 1
0000
0000
0000
0000
,  // measure 2
0000
0000
0000
0000
2000
0000
0100
0000
3002
0000
0010
0000
2003
0000
3010
0100
,  // measure 3
0201
0010
0310
2000
0100
3020
0100
1030
,  // measure 4
0100
0010
0001
0100
0010
1000
0001
0100
0010
0000
0100
0001
1000
0100
0010
0001
,  // measure 5
1000
0100
1000
0001
0100
0000
0010
0100
0001
1000
0100
0010
0001
1000
0010
0100
,  // measure 6
0010
0000
2000
0000
0002
0000
0000
3003
0100
0000
0010
0000
1000
0000
0100
0000
,  // measure 7
0010
0010
0001
0001
1000
0100
0010
0001
,  // measure 8
0100
0100
0010
0010
1000
1000
0001
0001
,  // measure 9
1000
0010
0100
0001
0010
0100
0100
0010
,  // measure 10
0010
0100
0100
0010
0001
0010
0100
1000
,  // measure 11
0010
0010
1000
1000
0001
0001
0010
0010
,  // measure 12
0001
0100
0010
1000
0001
0101
0000
1100
,  // measure 13
0000
1001
0000
0100
0010
1000
0010
0100
,  // measure 14
0001
1000
0001
0100
0010
1000
0001
0010
,  // measure 15
0100
0100
1000
1000
0010
1000
0100
0010
,  // measure 16
0001
0001
0100
0100
0010
0010
0100
0100
,  // measure 17
0010
1000
0001
0100
0010
1000
1000
0100
,  // measure 18
0100
0010
0010
0100
0010
0001
1000
0100
,  // measure 19
1000
1000
0010
0010
0100
0100
0001
0001
,  // measure 20
0010
0100
0001
0100
1000
1010
0000
0011
,  // measure 21
0000
1010
0000
0001
0100
0010
1000
0001
,  // measure 22
0010
0100
1000
0001
0020
0000
0100
0000
,  // measure 23
0100
0000
0000
0000
0130
0000
0000
0000
1000
0000
0000
0010
0000
0010
0000
0010
,  // measure 24
0000
1010
1010
1010
0001
1000
0000
0000
,  // measure 25
1010
0000
0001
0010
0000
1000
0100
0000
,  // measure 26
0011
0110
1100
0101
,  // measure 27
0110
0000
0010
0001
0000
0001
0100
0000
,  // measure 28
0010
2000
0000
0000
3001
0100
1000
0001
,  // measure 29
0010
1000
0001
0010
1000
0001
0100
1000
,  // measure 30
0001
0010
0100
1000
0001
0000
0001
1000
,  // measure 31
0100
0001
1000
0010
0001
1000
0010
0001
,  // measure 32
1000
0100
0000
0000
0010
1000
0000
0000
,  // measure 33
0101
0000
1000
0100
0000
0010
0001
0000
,  // measure 34
1100
0110
0011
1010
,  // measure 35
0011
0000
0010
0100
0000
0100
1000
0000
,  // measure 36
0001
0200
0000
0000
0310
0100
1000
0001
,  // measure 37
0010
0100
0001
0010
0100
1000
0010
0100
,  // measure 38
1000
0100
0001
1000
0001
0000
0001
0010
,  // measure 39
0100
0001
1000
0010
0100
1000
0010
0100
,  // measure 40
1000
0000
0000
0100
0000
0000
0000
0000
0000
0000
0000
0000
0001
0000
0000
0000
0010
0000
0100
0000
1000
0000
0100
0000
,  // measure 41
1000
0000
0010
0100
0001
0100
0001
0000
0010
0001
1000
0001
,  // measure 42
1000
0000
0010
1000
0100
1000
0100
0000
1000
0001
0100
0001
,  // measure 43
0010
0000
0100
0010
0001
0010
0100
0000
1000
0100
0010
0100
,  // measure 44
1000
0100
0010
0001
0100
0010
1000
0001
,  // measure 45
0100
0000
0100
0001
1000
0010
0001
1000
,  // measure 46
0100
0001
1000
0100
0001
0000
0001
0100
,  // measure 47
0010
0001
0100
0010
0001
1000
0100
0010
,  // measure 48
1000
0000
0000
0001
0000
0000
0000
0000
0000
0001
0000
0000
1000
0000
0000
0000
0010
0000
0100
0000
0001
0000
0010
0000
,  // measure 49
0100
0000
1000
0001
0010
0100
0001
0000
0100
1000
0001
0100
,  // measure 50
0010
0000
1000
0001
0100
0010
1000
0000
0001
1000
0100
0010
,  // measure 51
1000
0000
0010
0001
0100
0010
1000
0000
0100
0010
0001
0100
,  // measure 52
0010
1000
0100
0010
0001
0100
0010
0100
,  // measure 53
0001
0000
0001
0100
1000
0001
0010
0100
,  // measure 54
0001
0010
1000
0001
0100
0000
0100
0010
,  // measure 55
0001
1000
0100
1000
0010
0001
0010
0100
,  // measure 56
0001
0000
0000
1000
0000
0000
0000
0000
0000
1000
0000
0000
0001
0000
1000
0000
0100
0000
0010
0000
0100
0000
1000
0000
,  // measure 57
0001
1000
0010
1000
0100
0010
0001
1000
0010
0100
0001
0010
,  // measure 58
0100
0000
1000
0000
0010
0000
0100
0000
0001
0000
1000
0000
0000
0000
0000
1001
0000
0000
0010
0000
0000
0100
0000
0000
,  // measure 59
0001
1000
0100
0010
0001
0100
0010
1000
,  // measure 60
0001
0010
0100
1000
0001
0010
0001
0011
,  // measure 61
0000
1100
0000
0101
0000
1010
1000
0001
,  // measure 62
0010
0100
1000
0010
0100
0001
0010
0001
,  // measure 63
0100
0010
1000
0100
1000
0001
0010
0011
,  // measure 64
0000
0001
0100
0010
1000
1010
0000
0001
,  // measure 65
1000
0100
1000
0010
0100
0001
0010
1000
,  // measure 66
0010
0001
0100
0010
1000
0001
0100
0110
,  // measure 67
0000
1000
0100
0010
0100
0110
0000
0001
,  // measure 68
1000
0010
0100
0001
0010
0100
0001
0100
,  // measure 69
1000
1100
0000
0100
0010
0001
1000
0010
,  // measure 70
0001
1000
0100
0010
1000
0100
0000
1100
,  // measure 71
0001
0010
0100
1001
0100
0010
1000
0101
,  // measure 72
0010
1000
0100
0011
0100
0010
1000
0101
,  // measure 73
1000
0010
0100
1001
0100
0020
0031
0020
,  // measure 74
0031
0020
0031
0020
0130
1100
1000
1010
,  // measure 75
0001
0101
0000
0010
0001
0100
0010
1000
,  // measure 76
0000
0001
0000
1000
0010
0101
0000
0010
,  // measure 77
0100
1000
0010
0110
0000
0001
0100
1000
,  // measure 78
0100
0110
0000
0100
0001
0010
0100
1100
,  // measure 79
0000
1001
0000
0101
0000
0110
0000
1000
,  // measure 80
0001
0100
0001
0010
0001
0101
0100
0110
,  // measure 81
0010
1010
0000
0001
1000
0001
0010
0110
,  // measure 82
0000
0000
1000
0000
0010
0000
0100
0000
0001
0000
0010
0000
0010
0000
0100
1000
,  // measure 83
0001
0000
1000
0000
0001
0000
0000
0000
0001
1000
0100
0000
1000
1100
0000
1100
,  // measure 84
0000
1100
0000
0010
0100
0000
0100
0000
0100
0000
0001
0000
1000
0000
0200
0300
,  // measure 85
0100
0000
0002
0003
0001
0000
0020
0030
0010
0000
1000
0000
0001
0000
0100
0000
,  // measure 86
0010
1010
0000
0000
0000
0000
1000
0100
,  // measure 87
0010
1001
0000
0000
0000
0000
0000
0000
;
