#TITLE:FUCK UP YOUR FACE;
#SUBTITLE:;
#ARTIST:Machine Girl;
#MUSIC:FUCK UP YOUR FACE.ogg;
#BANNER:FUCK UP YOUR FACE-bn.png;
#BACKGROUND:FUCK UP YOUR FACE-bg.png;
#LYRICSPATH:;
#CDTITLE:;
#SAMPLESTART:101.961;
#SAMPLELENGTH:17.092;
#OFFSET:-0.314;
#BPMS:0.000000=190.000000;
#STOPS:;
#TIMESIGNATURES:;
#BGCHANGES:;
#FGCHANGES:;
#ATTACKS:;
#SPEEDS:;
#SCROLLS:;

//---------------dance-single - ---------------
#NOTES:
     dance-single:
     :
     Hard:
     18:
     0,0,0,0,0:
// measure 0
0001
0000
1000
0100
0001
0100
1000
0000
,  // measure 1
0001
0100
1000
0100
0001
0000
2001
0000
,  // measure 2
0000
0000
0000
0000
,  // measure 3
0000
0000
0002
0000
,  // measure 4
0003
0020
0030
0020
,  // measure 5
3030
0000
0000
0000
0001
0100
0010
1000
0100
0000
1000
0010
0100
0001
0010
0000
,  // measure 6
0100
1000
0100
0001
0100
0000
0010
0000
,  // measure 7
0010
0001
0100
0001
1000
0000
0010
1000
0100
1000
0001
0000
0200
0000
0000
0000
,  // measure 8
0010
0000
0010
0000
0010
0000
0310
0000
0100
0000
0000
0000
0001
0100
0010
1000
,  // measure 9
0001
0000
1000
0100
0010
0001
1000
0000
0200
0000
0010
0000
0010
0000
0310
0000
,  // measure 10
0000
0000
0000
0000
0100
0000
0000
0000
0100
1000
0010
0100
0010
0000
0100
0001
,  // measure 11
0010
0100
0010
0000
0100
0000
0000
0000
1000
0001
1000
0001
1000
0000
0000
0000
,  // measure 12
0010
0000
0000
0000
0001
0100
1000
0100
0001
0000
1000
0100
0001
0100
1000
0000
,  // measure 13
0200
0000
0000
0000
0000
0000
0010
0000
0010
0000
0010
0000
0010
0000
0000
0300
,  // measure 14
1000
0100
1000
0001
0100
0000
0001
0100
0001
1000
0100
0000
0010
0000
0000
0000
,  // measure 15
0001
0000
0100
0000
0001
0000
0000
0000
0010
0000
0000
0000
1000
0100
0010
1000
,  // measure 16
0010
0000
0001
0100
0010
0001
0010
0000
0100
0000
0000
0000
0010
0000
1000
0000
,  // measure 17
0100
0000
0010
0000
0001
0000
0000
0000
1000
0001
0100
0010
1000
0000
0001
1000
,  // measure 18
0100
0010
0001
0000
0100
0000
0000
0000
0010
0000
1000
0000
0001
0000
0010
0000
,  // measure 19
0100
2000
0000
0000
,  // measure 20
0000
0000
0000
0000
,  // measure 21
0200
0000
0300
0020
,  // measure 22
0030
0000
0000
0000
0020
0000
0000
0000
3030
0000
0000
0000
0001
1000
0100
1000
,  // measure 23
0100
0000
0010
0001
0100
0001
0100
0000
0010
0000
0000
0000
0100
0000
0010
0000
,  // measure 24
1000
0000
0001
0000
1000
0000
0000
0000
0100
1000
0001
1000
0010
0000
0100
0001
,  // measure 25
1000
0001
0010
0000
0100
0000
0000
0000
0010
0000
0100
0000
0001
0000
0100
0000
,  // measure 26
1000
0000
0000
0000
1000
0100
0001
0100
0001
0000
0100
0010
0001
0010
0001
0000
,  // measure 27
0010
0000
0100
1000
0010
0001
0010
0000
,  // measure 28
0100
0010
1000
0010
1000
0000
0001
0010
1000
0010
1000
0000
0010
0000
0001
0000
,  // measure 29
2000
0000
0000
0000
0000
0000
0000
0100
0000
0000
0000
0100
0000
0000
0000
0100
0000
0000
0000
0000
3000
0000
0000
0000
1000
0000
0100
0000
1000
0000
0010
0000
,  // measure 30
0100
0000
0100
0010
1000
0100
1000
0000
0001
0000
0010
0000
0100
0000
1000
0000
,  // measure 31
0001
0000
0000
0000
0010
0000
0000
0000
0001
0100
0010
1000
0010
0000
0010
1000
,  // measure 32
0010
0100
0001
0000
0010
0000
0100
0000
2000
0000
0000
0000
0001
0000
0000
0000
,  // measure 33
3020
0000
0000
0000
0031
0010
0100
0001
1000
0000
1000
0001
0100
0010
0001
0000
,  // measure 34
0010
1000
0100
0000
1000
0000
0010
0000
,  // measure 35
0020
0000
0000
0000
0000
0000
0000
0000
1030
0100
0010
0000
0001
0100
0010
0000
,  // measure 36
1000
0100
0010
0000
0001
0100
0010
0000
0101
0000
0000
0000
1000
0010
1000
0010
,  // measure 37
1000
0010
1000
0010
0200
0000
0001
0000
0001
0000
0001
0000
0001
0000
0301
0000
,  // measure 38
0010
0100
1000
0100
1100
0000
0001
0201
,  // measure 39
0000
0000
0310
0000
0100
0000
0200
0000
0010
0000
0001
0300
0200
0000
0310
0000
,  // measure 40
0110
0000
1010
0000
0001
0011
0000
1000
,  // measure 41
1001
0100
0010
1001
0100
0010
1001
0000
,  // measure 42
0110
0000
0001
0021
0000
0130
0010
0020
,  // measure 43
0100
0000
0001
0030
0020
0000
0130
0000
0110
0000
0000
0000
1001
0000
0000
0000
,  // measure 44
1000
1100
0000
0001
0101
0010
1000
0101
,  // measure 45
1000
0010
0101
0000
0011
0000
1000
1100
,  // measure 46
0000
0000
0001
0000
0012
0000
2003
0000
0100
0000
0001
0000
0200
3000
0310
0000
,  // measure 47
0001
0000
0011
0000
1000
1001
0000
0100
,  // measure 48
0110
1000
0001
0110
1000
0001
0110
0000
,  // measure 49
1001
0000
0001
0011
0000
1000
2010
3002
,  // measure 50
0100
0000
1000
0000
0100
0003
0010
0000
2000
0000
3000
0000
1100
0000
0000
0000
,  // measure 51
0001
0000
0011
0000
0000
0000
1000
0000
2100
3000
0010
0000
0100
0000
0102
0003
,  // measure 52
0010
0000
0100
0000
2100
3000
0000
0000
0002
0000
0000
0000
0000
0000
0000
0000
,  // measure 53
0000
0000
0000
0000
,  // measure 54
0000
2000
0000
3000
,  // measure 55
0200
0300
0200
0003
,  // measure 56
0310
1000
0100
0010
0001
0000
1000
0100
0010
0001
1000
0000
0001
0000
0000
0000
,  // measure 57
0100
0000
0010
0000
1000
0000
0010
0000
0001
0000
0000
0000
0010
0100
1000
0100
,  // measure 58
0010
0000
1000
0100
0010
0100
2000
0000
0001
0000
0001
0000
0001
0000
0001
0000
,  // measure 59
3001
0000
0000
0000
1001
0000
0000
0000
0100
0010
1000
0100
1000
0000
0010
0100
,  // measure 60
0001
0010
0001
0000
1000
0000
0100
0000
0010
0000
0001
0000
1000
0000
0000
0000
,  // measure 61
0001
0000
0000
0000
0001
0010
0002
0103
1000
0000
0010
2000
3100
0001
0010
0000
,  // measure 62
0010
0000
0001
0100
0001
0100
0001
0100
0010
0000
0000
0000
0110
0000
0000
0000
,  // measure 63
1000
0010
0100
0010
1000
0000
0001
0010
0100
0010
0001
0000
0100
0000
0010
0000
,  // measure 64
1000
0000
0010
0000
0001
0000
0000
0000
0010
0000
0000
0000
0100
0001
1000
0100
,  // measure 65
0010
0000
0001
0010
0100
1000
0001
0000
0010
0000
0100
0000
1000
0000
0010
0000
,  // measure 66
1000
0000
0000
0000
0001
0000
0000
0000
0100
0010
1000
0100
0010
0000
1000
0010
,  // measure 67
0001
0010
0100
0000
0010
0000
0001
0000
0100
0000
0010
0000
0100
0000
0001
0000
,  // measure 68
0100
0000
0000
0000
0002
0000
0000
0000
1003
0100
1000
0000
0010
0000
0100
0001
,  // measure 69
0100
0000
0010
0000
0100
0010
0100
0000
0110
0000
0000
0000
0110
0000
0000
0000
,  // measure 70
0001
0000
0000
0010
0000
0000
0100
0000
0000
1000
0000
0000
0010
0000
0000
1000
0000
0001
1000
0000
0000
0001
0010
0000
,  // measure 71
0100
0000
0000
1000
0000
0000
0001
0000
1000
0010
0000
0000
0100
0001
0000
1000
0000
0000
0100
0000
0000
0010
0000
0000
,  // measure 72
0001
0000
0000
0100
0000
0000
0010
0000
0000
1000
0000
0001
0100
0000
0000
0010
0100
0000
0010
0000
0000
1000
0000
0000
,  // measure 73
0001
0000
0010
0100
0000
0000
0010
0100
0000
1000
0000
0000
0100
0000
0000
0010
0000
0000
0001
0000
0000
1000
0000
0000
,  // measure 74
0010
0000
0000
1000
0000
0100
1000
0000
0000
0010
1000
0000
0001
0000
0000
0100
0000
0000
0010
0000
1000
0001
0000
0000
,  // measure 75
0010
0001
0000
1000
0000
0000
0010
0000
0000
0100
0000
0000
0001
0000
0000
0100
0000
0000
0010
0000
0000
1000
0000
0001
,  // measure 76
0010
0000
0000
0100
0000
0000
1000
0000
0000
0001
0000
0000
0100
0000
0010
1000
0000
0000
0001
2000
0000
0002
0000
0000
,  // measure 77
0000
0000
0000
0000
,  // measure 78
0000
0000
0000
0000
,  // measure 79
0000
0000
0000
0000
,  // measure 80
0000
0000
3003
0000
0101
0000
0010
0011
,  // measure 81
0000
0000
0001
0000
0101
0000
0001
0000
2000
0000
0100
0000
0002
3000
0010
0000
,  // measure 82
2000
3003
0110
0000
1000
1100
0000
0010
,  // measure 83
0011
0100
1000
1010
0100
0001
0011
0000
,  // measure 84
1010
0000
0001
0101
0000
1000
1100
1000
,  // measure 85
0002
0000
0000
0000
0000
0000
0010
0000
0000
0000
0000
0000
2000
0000
0000
0000
0003
0000
0100
0000
0000
0000
0000
0000
0002
0000
0000
0000
0000
0000
0000
0000
0000
3003
0000
0000
0101
0000
0000
0000
0000
0000
0000
0000
0000
0000
0000
0000
,  // measure 86
0100
0110
0000
0010
1010
0001
0100
0110
,  // measure 87
0010
1000
1001
0000
0011
0000
1000
1010
,  // measure 88
0000
0000
0001
0000
0101
0000
0001
0000
2000
0000
0010
0000
0002
3000
0100
0000
,  // measure 89
2000
0000
0000
3003
0110
0000
0000
0000
0001
0000
1001
0000
0000
0000
1000
0000
,  // measure 90
1010
0001
0010
0011
1000
0010
0101
0000
,  // measure 91
1100
0000
0001
0110
0000
1000
0110
0001
,  // measure 92
0200
0000
1000
0000
0020
0300
0001
0000
0200
0000
0000
0330
1001
0000
0000
0000
,  // measure 93
0001
0101
0000
0010
0011
0100
1000
0011
,  // measure 94
0001
1000
1010
0000
2001
0000
3100
0010
,  // measure 95
0000
0000
0100
0000
1000
0000
0100
0010
0100
0000
1000
0010
1000
0000
0001
0100
,  // measure 96
0001
0100
0110
0000
2000
0100
0000
3001
,  // measure 97
0011
0000
0110
0110
0000
1001
1001
0000
,  // measure 98
0101
0000
0000
0000
1000
0000
0001
0000
0000
0000
1000
0000
0010
0000
0100
0001
,  // measure 99
0100
0000
0001
0010
0001
0000
1000
0001
1000
0000
0001
0000
1001
0000
0000
0000
,  // measure 100
2000
0100
0000
3010
1010
0000
0110
0110
,  // measure 101
0000
0101
0101
0000
0011
0000
0010
0100
,  // measure 102
0000
0000
0010
0000
0001
0000
0100
0010
1000
0000
0100
0010
0001
0000
0100
0001
,  // measure 103
1000
0000
0100
0000
2100
0000
0000
0000
0010
3000
0100
0000
0000
0000
0001
0000
,  // measure 104
0101
0000
1100
1001
0000
1010
0011
0000
,  // measure 105
0101
0000
0000
0000
1000
0000
0010
0000
0000
0000
0001
0000
0100
0000
0010
1000
,  // measure 106
0001
0000
0010
0001
0100
0000
0010
0100
1000
0000
0100
0000
0110
0000
0000
0000
,  // measure 107
2000
0010
0000
3010
0101
0000
0011
1100
,  // measure 108
0000
0000
0110
0000
1001
0000
0000
0000
1000
0000
0000
0000
0000
0000
0001
0010
,  // measure 109
0100
1000
0001
0000
0000
0000
0100
0010
1000
0001
0010
0100
1000
0000
0000
0000
,  // measure 110
1100
0110
0012
0000
0000
0010
0010
1000
,  // measure 111
0003
0000
0000
0000
0000
0000
0000
0000
0000
0000
0000
0000
1000
0000
0000
0000
0010
0000
0000
0000
0001
0000
0000
0000
1000
0000
0000
0000
0100
0000
0000
0000
0010
0000
0000
0000
1000
0000
0000
0200
0000
0000
0001
0000
0000
0000
0000
0000
,  // measure 112
0000
0000
0000
0000
0300
0000
0101
0000
0000
0000
1100
0000
0000
0000
1000
0010
,  // measure 113
0100
0001
1000
0020
0100
0000
0000
0000
1000
0000
1030
0000
0010
0000
1000
0100
,  // measure 114
0010
0000
0000
0001
0000
0000
0100
0000
0000
0010
0000
0000
1000
0000
0000
0001
0000
0000
0100
0000
0000
0000
0000
0000
0010
0000
0000
0000
0000
0000
0100
0000
0000
0000
0000
0000
0001
0000
0000
0000
0001
0000
0000
0000
0001
0000
0000
0000
,  // measure 115
0010
0000
0000
0000
0010
0000
0000
0000
0010
0000
0000
0000
0100
0000
0000
0000
0100
0000
0000
0000
0100
0000
0000
0000
1000
0000
0000
0100
0000
0000
0010
0000
0000
0100
0000
0000
1000
0000
0000
0100
0000
0000
0010
0000
0000
0100
0000
0000
,  // measure 116
1000
0010
0100
0000
0001
0100
0010
0000
0000
0000
0001
0100
0010
0000
0010
0000
,  // measure 117
0000
0100
1001
0000
2001
0000
0000
3100
,  // measure 118
0100
0000
0000
0010
0000
0000
0001
0000
0100
0000
0001
0000
1000
0000
0100
0000
1000
0000
0010
0000
0100
0000
0001
0000
,  // measure 119
1000
0000
0000
0000
0100
0000
1000
0010
1010
0000
1010
0000
0000
0000
0100
0001
,  // measure 120
0000
0000
0010
0001
1000
0000
0000
0000
0100
1000
0010
0001
1000
0000
0000
0000
,  // measure 121
0000
0000
0000
0010
0000
0000
0100
0000
0000
0010
0000
0000
0000
0000
0000
0000
0000
0000
1000
0000
0010
0000
0100
0000
,  // measure 122
1000
0000
0000
0000
0100
0000
0000
0000
0001
0000
0000
0000
1000
0000
0000
0000
0000
0000
0000
0000
0000
0000
0000
0000
0010
0000
0000
0000
0000
0000
0000
0000
0000
0000
0000
0000
0000
0000
0000
0000
0000
0000
0100
0000
0000
0001
0000
0000
,  // measure 123
1000
0010
0100
0000
0000
0000
0001
0010
0100
1000
0010
0100
0001
0000
0000
0000
,  // measure 124
1100
1001
0102
0000
0000
1000
1000
0103
,  // measure 125
0000
0000
0000
1000
1000
1000
0100
0100
0100
0010
0010
0010
,  // measure 126
0001
0000
1000
0010
0100
0001
0010
0100
1000
0010
0100
0001
0010
0000
0010
0000
,  // measure 127
0100
1000
0001
0100
0020
0000
0000
0000
1000
0000
1030
0000
1001
0000
0000
0000
,  // measure 128
0000
0000
0000
0110
0000
0000
0000
0000
0000
0000
0000
0000
1001
0000
0000
0000
0000
0000
1000
0000
0000
0000
0100
0000
,  // measure 129
0000
0000
0000
0000
0010
0000
0000
0000
0001
0000
0000
0000
2000
0000
0000
0000
0001
0000
0000
0000
3001
0000
0000
0000
1000
0000
0000
0000
0000
0000
0000
0000
0000
0000
0000
0000
0000
0000
0000
0000
0000
0000
0010
0000
0000
0100
0000
0000
,  // measure 130
0001
0020
1000
0000
0000
0000
0031
1000
0010
0100
0001
1000
0100
0000
0000
0000
,  // measure 131
1100
1001
1020
0000
0000
0100
0100
0130
,  // measure 132
0000
0000
0000
0100
0001
0010
0100
0001
0100
1000
0010
0100
,  // measure 133
0001
0000
1000
0100
1000
0000
0001
1000
0100
1000
0001
0000
0000
0000
0100
0001
,  // measure 134
0010
0000
0100
1000
0001
0000
1000
0010
0100
0001
0010
0000
0100
0000
1000
0100
,  // measure 135
0010
0000
0001
0000
0011
0000
0110
0000
0000
0000
0000
0000
1000
0100
0010
0001
,  // measure 136
1000
0010
0100
0001
0010
0100
1000
0001
0100
0000
0000
0000
0001
0000
0010
0000
,  // measure 137
1000
0010
0001
0000
1000
0010
0001
0010
,  // measure 138
1000
1001
0000
0000
;
