#TITLE:Emotionally Unavailable;
#SUBTITLE:;
#ARTIST:GNB CHILI;
#MUSIC:Emotionally Unavailable.ogg;
#BANNER:Emotionally Unavailable-bn.png;
#BACKGROUND:Emotionally Unavailable-bg.png;
#LYRICSPATH:;
#CDTITLE:;
#SAMPLESTART:61.133;
#SAMPLELENGTH:13.582;
#OFFSET:-11.902;
#BPMS:0.000000=156.000000;
#STOPS:;
#TIMESIGNATURES:;
#BGCHANGES:99999=-nosongbg-=1.000000=0=0=0=StretchNoLoop====;
#FGCHANGES:;
#ATTACKS:;
#SPEEDS:;
#SCROLLS:;

//---------------dance-single - WIP---------------
#NOTES:
     dance-single:
     WIP:
     Hard:
     13:
     0.615252,0.588285,0.527359,0.031961,0,539,473,66,4,0,0,0.615252,0.588285,0.527359,0.031961,0,539,473,66,4,0,0:
// measure 0
1000
0100
0010
0001
0100
0010
0000
0010
,  // measure 1
0100
0001
0010
0100
1000
0001
0000
1000
,  // measure 2
0001
0100
0010
1000
0100
0010
0000
0010
,  // measure 3
0100
1000
0100
0001
0100
0010
0000
0001
,  // measure 4
0010
0100
1000
0001
0100
0010
0000
0001
,  // measure 5
0010
1000
0100
0010
0001
0000
0001
0100
,  // measure 6
0102
0000
0013
0000
1000
0100
0000
1000
,  // measure 7
1010
0000
0100
0000
1000
0010
0000
0100
,  // measure 8
0001
0010
0100
1000
0001
0100
0000
0100
,  // measure 9
0010
0100
0001
1000
0100
0010
0000
0010
,  // measure 10
0011
0000
0110
0000
0001
1000
0000
1000
,  // measure 11
0001
0100
0010
1000
0001
0100
0000
0100
,  // measure 12
0002
0000
0010
0000
1000
0000
0100
0003
,  // measure 13
0011
0000
0100
0000
0110
0000
0100
0010
,  // measure 14
0110
0001
1000
0010
0100
0001
0000
0001
,  // measure 15
0100
0010
1000
0001
0010
0100
0000
0100
,  // measure 16
1000
0100
1000
0100
0001
0100
0001
0100
,  // measure 17
1000
0100
1000
0100
0010
0001
1000
0100
,  // measure 18
0010
0010
0010
0001
0001
0001
1000
1000
,  // measure 19
0010
0010
0010
0100
0100
0100
0001
0001
,  // measure 20
1000
0010
1000
0010
0001
0010
1000
0010
,  // measure 21
0100
0001
0100
1000
0100
0001
0100
0010
,  // measure 22
1000
1000
1000
0100
0100
0100
0010
0010
,  // measure 23
0001
0001
0001
0100
0100
0100
0010
0010
,  // measure 24
1000
0001
1000
0100
0010
0100
1000
0100
,  // measure 25
0010
0001
0010
0100
0010
0100
1000
0001
,  // measure 26
0100
0100
0100
0010
0010
0010
1000
1000
,  // measure 27
0001
0001
0001
0010
0010
0010
0100
0100
,  // measure 28
1000
0100
0010
0001
0100
0001
0010
0100
,  // measure 29
1000
0100
0010
0001
0100
0001
0010
0001
,  // measure 30
1000
1000
1000
0010
0010
0010
0100
0100
,  // measure 31
0001
0001
0001
0010
0010
0010
0100
0100
,  // measure 32
1000
0000
1200
0000
0010
0000
0001
0300
,  // measure 33
0010
0000
0021
0000
0100
0000
1000
0030
,  // measure 34
0001
0101
1001
1100
,  // measure 35
0110
1001
0110
1001
,  // measure 36
0010
0011
0101
1001
,  // measure 37
0010
1100
1001
1100
,  // measure 38
0100
0010
0100
0010
0001
1000
0010
0100
,  // measure 39
0001
0001
0001
0010
0010
0010
0100
0100
,  // measure 40
1000
0100
1100
0000
0110
0000
0011
0000
,  // measure 41
0001
0100
0101
0000
0110
0000
1010
0000
,  // measure 42
1000
0001
0101
0000
0011
0000
1001
0000
,  // measure 43
1001
0110
1001
1010
,  // measure 44
1000
0010
0100
0000
0101
0000
0011
0000
,  // measure 45
0001
0010
0110
0010
,  // measure 46
0001
0100
0001
1000
0001
1000
0100
1000
,  // measure 47
0100
0010
0100
0010
0001
0010
0001
1000
,  // measure 48
0001
0100
0010
1000
0001
0010
0100
0000
,  // measure 49
0100
0010
0001
0000
1001
0000
0101
0000
,  // measure 50
0010
1000
1100
0000
0110
0000
0011
0000
,  // measure 51
0110
1001
0101
1100
,  // measure 52
0001
0100
0010
0000
1010
0000
0011
0000
,  // measure 53
0010
1000
0100
0000
1100
0000
0001
0000
,  // measure 54
0100
0010
0100
0010
0001
0010
0001
1000
,  // measure 55
0001
0100
0001
0000
1000
0100
1000
0000
0100
0010
0000
0010
0001
0000
0001
0100
,  // measure 56
0010
1010
0011
0110
,  // measure 57
1001
0110
1001
0010
,  // measure 58
0001
0000
0100
0010
1000
0000
0100
0000
,  // measure 59
1100
0000
0000
0110
0000
0000
1001
0000
,  // measure 60
1000
0100
0010
0001
0100
0001
0010
0001
,  // measure 61
1000
0010
0100
0001
1000
0001
0100
0001
,  // measure 62
0010
0100
1000
0001
0100
0001
1000
0100
,  // measure 63
0010
0000
0001
0100
0000
0001
0010
0000
,  // measure 64
0001
0010
0100
1000
1100
0100
0010
0001
,  // measure 65
1000
0001
1000
0001
1001
0001
0100
0010
,  // measure 66
1000
0100
0010
0100
0110
0100
0010
0001
,  // measure 67
1000
0010
0100
0010
0110
0010
1000
0010
,  // measure 68
0100
0001
0010
0001
0011
0001
0010
0100
,  // measure 69
0001
0100
1000
0100
1100
0100
0010
0100
,  // measure 70
1000
0100
0001
0100
0010
0001
0100
0010
,  // measure 71
1000
0001
1000
0001
1000
0001
1000
0001
;

//---------------dance-single - Sparks---------------
#NOTES:
     dance-single:
     Sparks:
     Challenge:
     17:
     0.899478,0.99499,0.950844,0.207747,0.571305,788,669,119,26,8,0,0.899478,0.99499,0.950844,0.207747,0.571305,788,669,119,26,8,0:
// measure 0
1000
0000
0001
0000
0100
0000
0010
1000
0010
0000
1000
0000
2001
0000
0000
0000
,  // measure 1
3100
0000
0010
0000
0001
0000
0100
0001
0100
0000
0010
0000
1020
0000
0000
0000
,  // measure 2
0130
0000
0001
0000
0010
0000
0100
0010
0100
0000
1000
0000
2100
0000
0000
0000
,  // measure 3
3100
0000
1000
0000
0001
0000
0100
0010
1000
0000
0001
0000
0101
0000
0000
0000
,  // measure 4
0010
0000
0100
0000
0001
0000
0010
0100
0010
0000
0100
0000
2100
0000
0000
0000
,  // measure 5
3100
0000
0010
0000
0001
0000
0100
0010
1000
0000
0001
0000
0021
0000
0000
0000
,  // measure 6
0031
0000
1000
0000
0010
0000
0100
0001
1000
0000
0100
0000
2100
0000
0000
0000
,  // measure 7
3100
0000
0010
0000
0100
0000
1000
0100
0001
0000
0100
0000
0110
0000
0000
0000
,  // measure 8
0002
0100
0010
1000
,  // measure 9
0010
0000
0000
0000
0100
0000
0000
0000
1000
0000
0000
0000
1000
0003
0000
0000
,  // measure 10
1010
0000
0110
0000
0101
0010
0000
0001
,  // measure 11
0100
0000
0010
0000
1000
0000
0100
0010
0001
0000
1001
0000
0000
0000
0010
0000
,  // measure 12
0102
0010
1000
0100
,  // measure 13
0010
0000
1003
0000
1200
0000
0310
0110
,  // measure 14
0120
0000
0031
0000
0001
0000
0010
0001
0100
0000
0110
0000
0000
0000
0010
0000
,  // measure 15
1000
0000
0100
0000
0010
0000
0001
0010
0100
0000
1100
0000
0000
0000
1000
0000
,  // measure 16
2100
0100
3100
0210
0010
0310
0021
0031
,  // measure 17
1002
1000
1003
2010
0010
3010
0120
0130
,  // measure 18
0010
1000
0010
1000
0010
1000
0010
0001
0010
0001
0010
0001
0010
1000
0010
1000
,  // measure 19
0100
0001
0100
0001
0100
0001
0100
1000
0100
1000
0100
1000
0100
0010
0100
0010
,  // measure 20
0021
0001
0031
0102
0100
0103
0210
0310
,  // measure 21
1020
1000
1030
2001
0001
3001
0012
0013
,  // measure 22
0100
0010
0100
0010
0100
0010
0001
0010
0001
0010
0001
0010
1000
0010
1000
0010
,  // measure 23
0001
0100
0001
0100
0001
0100
1000
0100
1000
0100
1000
0100
0010
0100
0010
0100
,  // measure 24
0101
0010
1000
1100
0100
0010
0011
0100
,  // measure 25
1100
1000
0001
0101
0100
0010
1010
0010
,  // measure 26
0100
0001
0100
0001
0100
0001
1000
0100
1000
0100
1000
0100
0010
0001
0010
0001
,  // measure 27
0100
0010
0100
0010
0100
0010
1000
0001
1000
0001
1000
0001
0010
0001
0010
0001
,  // measure 28
1000
0010
0100
0001
0011
0010
0100
1000
,  // measure 29
1010
0010
0100
0001
0011
0100
1000
1010
,  // measure 30
0001
0100
0001
1000
0001
0010
0100
1000
0100
0001
0100
0010
0001
0100
0001
1000
,  // measure 31
0100
0010
0100
1000
0100
0001
1000
0010
0001
1000
0010
0100
0001
1000
0010
1000
,  // measure 32
0001
0000
0010
0000
0110
0000
0001
1000
0010
0000
0100
0000
0110
0000
0000
0000
,  // measure 33
1000
0000
0001
0000
0011
0000
0001
1000
0010
0000
0100
0000
0110
0000
0000
0000
,  // measure 34
0002
1000
0010
0010
1000
1000
0100
0103
,  // measure 35
1010
1001
1100
0012
,  // measure 36
0103
0000
0010
0000
1010
0000
0010
0100
0001
0000
0010
0000
0011
0000
0000
0000
,  // measure 37
0100
0000
1000
0000
1010
0000
0010
1000
0100
0000
0010
0000
0011
0000
0000
0000
,  // measure 38
0100
0001
0100
0001
0100
0001
1000
0001
1000
0001
1000
0001
0010
0001
0010
0001
,  // measure 39
1000
0010
1000
0010
1000
0010
1000
0001
1000
0001
1000
0001
1000
0100
1000
0100
,  // measure 40
0010
0000
0001
0000
0101
0000
0100
0010
1000
0000
0001
0000
0011
0000
0000
0000
,  // measure 41
0100
0000
1000
0000
1001
0000
0001
0100
0010
0000
1000
0000
1010
0000
0000
0000
,  // measure 42
1000
0010
1000
0010
1000
0010
0100
0010
0100
0010
0100
0010
0001
0010
0001
0010
,  // measure 43
0100
0001
0100
0001
0100
0001
1000
0001
1000
0001
1000
0001
0010
0001
0010
0001
,  // measure 44
1000
0000
0100
0000
0110
0000
0100
1000
0001
0000
0100
0000
0101
0000
0000
0000
,  // measure 45
0010
0000
1000
0000
1001
0000
0001
0010
0100
0000
1000
0000
1100
0000
0000
0000
,  // measure 46
1000
0100
0010
0100
1000
0100
0010
0001
0100
0001
0010
0001
0100
0010
1000
0010
,  // measure 47
0100
0001
1000
0001
0010
0001
1000
0100
1000
0001
1000
0010
0100
0001
0010
0100
,  // measure 48
0010
0000
0001
0000
0101
0000
0010
1000
1001
0000
0100
0000
1100
0000
0000
0000
,  // measure 49
0100
0000
0010
0000
0011
0000
0001
0100
0110
0000
0010
0000
1010
0000
0000
0000
,  // measure 50
0100
0001
0011
0000
0110
0000
1100
0000
,  // measure 51
1001
0101
0011
1100
,  // measure 52
0001
0000
1000
0000
1010
0000
0100
0001
0101
0000
1000
0000
1001
0000
0000
0000
,  // measure 53
0100
0000
1000
0000
1100
0000
0100
0010
0011
0000
0001
0000
0200
0000
0000
0000
,  // measure 54
0020
0330
0101
0101
0000
0000
0010
0000
,  // measure 55
1000
0100
1000
0100
0010
0001
0010
0001
1000
0010
0100
0001
0010
0100
1000
0001
,  // measure 56
0100
0001
1100
0010
1001
0010
0101
0010
,  // measure 57
1001
0010
1100
0001
0110
1000
0110
0001
,  // measure 58
1000
0100
0010
0001
0100
0010
1000
0001
,  // measure 59
1000
0010
1000
0100
1000
0010
0100
0001
,  // measure 60
0100
0010
1001
0100
1001
0010
1100
0001
,  // measure 61
1010
0100
1001
0100
0101
0010
1010
1000
,  // measure 62
0001
0100
1000
0001
0010
1000
0001
0100
,  // measure 63
0001
0010
1000
0001
0100
1000
0001
0010
,  // measure 64
0001
0100
0010
1000
1100
0100
0010
0001
,  // measure 65
1000
0010
0100
0001
1001
1000
0010
0100
,  // measure 66
0001
0010
0100
1000
1001
1000
0100
0010
,  // measure 67
0001
1001
0001
0010
0011
0001
0100
0010
,  // measure 68
1000
0100
0010
0001
1001
0001
0100
0010
,  // measure 69
1000
1010
0010
0100
0110
0010
1000
0001
,  // measure 70
0010
0100
1000
0001
0100
0001
1000
0100
,  // measure 71
0010
0001
1000
0010
0100
0001
1000
0100
0010
0100
0010
0100
1000
0001
2000
0002
,  // measure 72
0000
3003
0000
0000
;
