#TITLE:Emotionally Unavailable;
#SUBTITLE:VIP;
#ARTIST:GNB CHILI;
#MUSIC:Emotionally Unavaialble (VIP).ogg;
#BANNER:Emotionally Unavailable-VIP-bn.png;
#BACKGROUND:Emotionally Unavailable VIP-bg.mp4;
#LYRICSPATH:;
#CDTITLE:;
#SAMPLESTART:23.273001;
#SAMPLELENGTH:12.727000;
#OFFSET:-0.029;
#BPMS:0.000000=82.500000,
32.000000=165.000000,
160.000000=330.000000,
224.000000=165.000000,
256.000000=330.000000
;
#STOPS:;
#TIMESIGNATURES:;
#BGCHANGES:0=Emotionally Unavailable VIP-bg.mp4=1.000000=0=0=0=StretchNoLoop====,
99999=-nosongbg-=1.000000=0=0=0=====
;
#FGCHANGES:;
#ATTACKS:;
#SPEEDS:;
#SCROLLS:;
#DISPLAYBPM:*;
#KEYSOUNDS:;

//---------------dance-single - ---------------
#NOTES:
     dance-single:
     :
     Hard:
     17:
     0.753232,0.897657,0.280957,0.028096,0.440166,563.000000,533.000000,30.000000,3.000000,0.000000,0.000000,0.753232,0.897657,0.280957,0.028096,0.440166,563.000000,533.000000,30.000000,3.000000,0.000000,0.000000:
// measure 0
0000
0000
0000
0000
,  // measure 1
0000
0000
0000
0000
,  // measure 2
0000
0000
0000
0000
,  // measure 3
0000
0000
0000
0000
,  // measure 4
0000
0000
0000
0000
,  // measure 5
0000
0000
0000
0000
,  // measure 6
0000
0000
0000
0000
,  // measure 7
0000
0000
0000
0000
,  // measure 8
1000
0000
0100
0000
0010
0000
0001
1000
0100
0010
0001
0000
1000
0000
0001
0000
,  // measure 9
0010
0000
0100
0000
1000
0000
0010
0100
0001
1000
0010
0000
0100
0000
0010
0000
,  // measure 10
1000
0100
1000
0100
0010
0001
0010
0001
0100
0010
1000
0000
0010
0000
0100
0000
,  // measure 11
0001
0000
0010
0000
0100
0000
1000
0001
0010
0001
0100
0000
0001
0000
0010
0000
,  // measure 12
0100
0000
1000
0000
0010
0000
0100
0001
0000
0000
1001
0000
0000
0000
0001
0000
,  // measure 13
0100
0000
0010
0000
1000
0000
0100
0010
0100
1000
0100
0000
0010
0000
0001
0000
,  // measure 14
1000
0010
1000
0010
0001
0010
0001
0010
0100
0001
1000
0000
0100
0000
0010
0000
,  // measure 15
0001
0000
1000
0000
0100
0000
0010
0001
0000
0000
0011
0000
0000
0000
0001
0000
,  // measure 16
0010
0000
0100
0000
1000
0000
0001
0100
0010
1000
0001
0000
0010
0000
0001
0000
,  // measure 17
1000
0000
0010
0000
0100
0000
0010
1000
0001
0100
0010
0000
1000
0000
0001
0000
,  // measure 18
0010
0000
0001
0000
0001
0000
0010
0001
0000
0001
0010
0000
0100
0000
1000
0000
,  // measure 19
0001
0000
0100
0000
0100
0000
0001
0100
0000
0100
0001
0000
1000
0000
0010
0000
,  // measure 20
0100
0000
0001
0000
1000
0000
0100
0010
0000
0000
0110
0000
0000
0000
0100
0000
,  // measure 21
0010
0000
0001
0000
1000
0000
0010
0100
0000
0100
0010
0000
1000
0000
0001
0000
,  // measure 22
0100
0001
0100
0001
1000
0001
1000
0001
0010
0100
1000
0000
0001
0000
0001
0000
,  // measure 23
1000
0000
0100
0000
0010
0000
0001
0100
0000
0000
0101
0000
0000
0000
0001
0000
,  // measure 24
1000
0000
0010
0000
0100
0000
0010
1000
0100
0010
0001
0000
1000
0000
0001
0000
,  // measure 25
0010
0000
0100
0000
1000
0000
0001
0010
0100
1000
0001
0000
0100
0000
0010
0000
,  // measure 26
1000
0100
1000
0100
0001
0100
0001
0100
0010
0001
1000
0000
0010
0000
0100
0000
,  // measure 27
0001
0000
1000
0000
0010
0000
0100
0010
1000
0001
0010
0000
0100
0000
1000
0000
,  // measure 28
0001
0000
0100
0000
0010
0000
1000
0001
0000
0000
0110
0000
0000
0000
1000
0000
,  // measure 29
0100
0000
0010
0000
0001
0000
1000
0010
0100
0001
0010
0000
0001
0000
0100
0000
,  // measure 30
0010
1000
0010
1000
0001
0010
0001
0010
0100
1000
0001
0000
0001
0000
1000
0000
,  // measure 31
0100
0000
0010
0000
0001
0000
1000
0010
0001
0010
1000
0000
0100
0000
0010
0000
,  // measure 32
0001
0000
1000
0000
0100
0000
0010
0001
0010
0100
1000
0000
0001
0000
0010
0000
,  // measure 33
0100
0000
0010
0000
0001
0000
1000
0010
0100
0010
1000
0000
0001
0000
0100
0000
,  // measure 34
0010
0000
1000
0000
1000
0000
0010
1000
0000
1000
0010
0000
1000
0000
0001
0000
,  // measure 35
0010
0000
0100
0000
0100
0000
0010
0100
0000
0100
0010
0000
0100
0000
0100
0000
,  // measure 36
1000
0000
0010
0000
0100
0000
0001
0010
0000
0000
0011
0000
0000
0000
0001
0000
,  // measure 37
0010
0000
0100
0000
1000
0000
0001
0100
0000
0100
0010
0000
0100
0000
0001
0000
,  // measure 38
1000
0010
1000
0010
0001
0010
0001
0010
0100
0001
0010
0000
0010
0000
0010
0000
,  // measure 39
0100
0000
1000
0000
0001
0000
0010
0100
0000
0000
0110
0000
0000
0000
0001
0000
,  // measure 40
1000
0100
0110
0100
,  // measure 41
1100
0100
0101
0100
,  // measure 42
0010
0001
0101
0001
,  // measure 43
1001
0001
0011
0001
,  // measure 44
0100
0010
1010
0010
,  // measure 45
0110
0010
0011
0010
,  // measure 46
1010
0010
0011
0010
,  // measure 47
1010
0010
0011
0010
,  // measure 48
1000
0100
0101
0100
,  // measure 49
0110
0100
1100
0100
,  // measure 50
0010
0001
0101
0001
,  // measure 51
1001
0001
0100
0010
,  // measure 52
1000
0100
1000
1000
,  // measure 53
0100
1000
1000
0100
,  // measure 54
1100
0100
0100
0110
,  // measure 55
0010
0010
0011
0001
,  // measure 56
1000
0000
0100
0000
0010
0000
0001
1000
0001
0100
0001
0000
1000
0000
0100
0000
,  // measure 57
0010
0000
0001
0000
1000
0000
0010
0100
0010
1000
0010
0000
0001
0000
0010
0000
,  // measure 58
0100
0000
0001
0000
0010
0000
0100
1000
0001
0010
0100
1000
0001
0000
0010
0000
,  // measure 59
0100
0110
0000
0110
0000
0100
1000
0100
,  // measure 60
0010
0001
1000
0010
0100
0000
0001
0000
0100
0000
0001
0000
0001
0000
0100
0000
,  // measure 61
0010
1000
0100
0010
0001
0000
1000
0001
0000
0000
1000
0000
1000
0000
0001
0000
,  // measure 62
0010
0100
1000
0100
1000
0000
0100
0000
0000
0000
0010
0000
0010
0000
0001
0000
,  // measure 63
1000
0010
1000
0010
1000
0000
0001
0010
0001
0010
0001
0000
0100
0010
0100
0000
,  // measure 64
2000
0100
0100
0100
,  // measure 65
0100
0100
0100
3200
,  // measure 66
0010
0010
0010
0010
,  // measure 67
0010
0310
0001
2000
,  // measure 68
0010
0010
0010
0010
,  // measure 69
0010
0010
0010
3010
,  // measure 70
0100
0100
0100
0010
,  // measure 71
0010
0010
1000
1000
,  // measure 72
0001
0100
0001
0010
0100
0000
1000
0000
,  // measure 73
0001
0000
0100
0010
1000
0000
0001
0000
,  // measure 74
1000
0100
0010
0100
1000
0000
0001
0000
,  // measure 75
0100
0010
0100
0001
,  // measure 76
1000
0001
1000
0001
1000
0000
0100
0000
,  // measure 77
0010
0001
0100
0010
,  // measure 78
1000
0001
0100
0010
1000
0001
0010
0100
,  // measure 79
1000
0010
0100
0001
0010
0100
1000
0001
;

//---------------dance-single - Sparks---------------
#NOTES:
     dance-single:
     Sparks:
     Challenge:
     18:
     0.987362,1.084669,1.367323,0.056191,0.571279,738.000000,592.000000,146.000000,6.000000,0.000000,2.000000,0.987362,1.084669,1.367323,0.056191,0.571279,738.000000,592.000000,146.000000,6.000000,0.000000,2.000000:
// measure 0
0000
0000
0000
0000
,  // measure 1
0000
0000
0000
0000
,  // measure 2
0000
1000
0010
0100
0001
0000
0001
0010
,  // measure 3
0000
0000
0000
0000
,  // measure 4
0000
1000
0001
0010
0100
0000
0000
0010
,  // measure 5
0001
0100
0010
0000
0000
0000
0000
0000
,  // measure 6
0000
1000
0010
0100
0001
0000
0001
1000
,  // measure 7
0000
0000
0000
0000
,  // measure 8
1000
0000
0001
0000
0101
0000
0100
0001
1000
0100
0010
0000
0011
0000
0010
0000
,  // measure 9
0100
0000
1000
0000
1010
0000
0010
0100
0001
1000
0100
0000
0110
0000
0010
0000
,  // measure 10
0001
0010
0001
0010
0100
0010
0100
0010
0001
0100
0010
0000
1010
0000
1000
0100
,  // measure 11
0010
0000
0001
0000
1001
0000
1000
0001
0100
0010
1000
0000
1010
0000
1000
0000
,  // measure 12
0100
0000
0010
0000
1001
0000
0100
0010
0000
0000
0101
0000
0000
0000
0010
0000
,  // measure 13
1000
0000
0100
0000
0011
0000
0001
0010
0000
0100
1000
0000
0001
0000
0000
0000
,  // measure 14
0010
1000
0010
1000
0100
1000
0100
1000
0100
0010
0001
0000
0001
0000
0100
0010
,  // measure 15
1000
0000
0100
0000
1010
0000
0001
0100
1000
0100
0001
0000
0000
0000
0010
0000
,  // measure 16
0001
0000
0010
0000
0110
0000
0100
1000
0001
0100
0010
0000
1010
0000
0100
0000
,  // measure 17
0001
0000
1000
0000
0101
0000
0010
1000
0100
0001
0100
0000
1100
0000
0010
0000
,  // measure 18
0001
0000
0101
0000
0101
0000
0010
1000
0000
1000
0100
0000
1100
0000
0000
0000
,  // measure 19
0010
0001
0100
0001
1000
0000
0010
1000
0100
1000
0001
0000
0010
0000
0100
0000
,  // measure 20
1000
0000
0001
0000
0101
0000
0010
1000
0000
0010
0001
0000
0000
0000
1100
0000
,  // measure 21
0010
0000
0001
0000
1001
0000
0001
1000
0000
1000
0010
0000
0110
0000
0100
0000
,  // measure 22
0001
0010
0001
0010
0100
1000
0100
1000
0001
0100
1000
0000
1000
0000
0100
0001
,  // measure 23
0010
0000
0010
0000
0110
0000
0100
1000
0001
0100
0010
0000
0000
0000
1010
0000
,  // measure 24
1000
0000
0010
0000
1010
0000
0100
0001
0010
0100
1000
0000
1100
0000
0100
0000
,  // measure 25
0010
0000
0001
0000
0011
0000
0001
0100
0010
1000
0100
0000
1100
0000
0010
0000
,  // measure 26
1000
0100
1000
0100
0001
0100
0001
0100
1000
0010
1000
0000
0010
0000
0010
0100
,  // measure 27
0001
0000
1000
0000
1100
0000
0100
0010
0000
0000
0001
0000
0100
0000
0000
0000
,  // measure 28
0001
0000
1000
0000
1100
0000
0100
0010
0000
0000
0110
0000
0000
0000
1001
0000
,  // measure 29
0100
0000
0010
0000
1001
0000
1000
0100
0001
0100
1000
0000
1010
0000
0100
0000
,  // measure 30
0001
0100
0001
0100
0001
0010
0001
0010
0100
1000
0001
0000
0001
0000
0100
0010
,  // measure 31
1000
0000
0100
0000
0011
0000
0001
0100
0000
0001
0010
0000
0000
0000
1010
0000
,  // measure 32
0100
0000
0001
0000
0101
0000
0001
0010
0100
1000
0010
0000
1010
0000
1000
0000
,  // measure 33
0001
0000
0100
0000
0110
0000
0010
0100
0001
1000
0100
0000
1100
0000
0010
0000
,  // measure 34
0001
0000
0101
0000
0101
0000
0010
1000
0000
0000
1100
0000
1100
0000
0010
0000
,  // measure 35
0001
0100
1010
1100
,  // measure 36
1000
0000
0100
0000
0110
0000
0010
0001
0000
0001
0100
0000
0000
0000
0010
0000
,  // measure 37
0100
0000
0001
0000
1001
0000
0100
0010
0001
1000
0010
0000
0110
0000
1000
0000
,  // measure 38
0001
0100
0001
0100
0010
0100
0010
0100
1000
0100
0001
0000
0101
0000
0101
0000
,  // measure 39
1000
0000
0001
0000
0101
0000
0100
0010
0000
0000
1010
0000
0000
0000
1001
0000
,  // measure 40
1010
1010
1010
1010
,  // measure 41
1010
1010
1010
1010
,  // measure 42
0010
0100
0010
0000
0110
0000
0110
0000
,  // measure 43
0110
0110
0110
0110
,  // measure 44
0100
0001
0100
0001
0100
0001
0100
0000
0000
0101
0000
0000
,  // measure 45
0101
0101
0101
0101
,  // measure 46
0001
1000
0001
0000
1001
0000
1001
0000
,  // measure 47
1001
1001
1001
1001
,  // measure 48
1000
0100
1000
0100
1000
0100
1000
0000
0000
1100
0000
0000
,  // measure 49
1100
1100
1100
1100
,  // measure 50
0100
0010
0100
0000
0110
0000
0110
0000
,  // measure 51
0110
0110
0110
0110
,  // measure 52
0010
0001
0010
0001
0010
0001
0010
0000
0000
0011
0000
0000
,  // measure 53
0011
0011
0011
0011
,  // measure 54
0001
1000
0001
0000
1001
0000
1001
0000
,  // measure 55
1001
1001
1001
1001
,  // measure 56
1000
0010
0100
0001
0010
0000
0100
0010
0001
1000
0100
0000
0110
0000
1000
0000
,  // measure 57
0001
0100
0010
1000
0001
0000
1000
0100
0001
0100
0010
0000
0011
0000
0001
0000
,  // measure 58
1000
0010
0100
0001
0010
0100
1000
0001
0010
0100
0010
0000
0001
0000
1000
0010
,  // measure 59
0100
0110
1000
0110
1000
0110
0110
0001
,  // measure 60
0001
0010
0100
1000
0010
0100
0001
0000
0000
1010
0000
0000
0001
0000
0000
1010
0000
0000
1010
0000
0000
0000
0000
0000
,  // measure 61
0001
1000
0100
0010
0001
0000
1000
0100
0000
0100
1000
0000
0010
0000
0100
0000
,  // measure 62
0001
0010
0001
0010
0100
1000
0100
1000
0001
0100
0010
0000
0010
0000
1000
0200
,  // measure 63
0001
0010
1300
0020
0001
0100
1030
0001
,  // measure 64
0011
0011
0011
0011
,  // measure 65
0011
0011
0011
0011
,  // measure 66
1100
1100
1100
1100
,  // measure 67
1100
1100
1010
0011
,  // measure 68
0101
0101
0101
0101
,  // measure 69
0101
0101
0101
0101
,  // measure 70
1100
1100
1100
1100
,  // measure 71
0110
0110
1001
1001
,  // measure 72
1000
0010
0100
0001
0010
0100
0010
0100
,  // measure 73
0010
1000
0010
1000
0010
0001
0010
0001
,  // measure 74
0100
1000
0100
1000
0100
0001
0100
0001
,  // measure 75
0100
0010
0100
0010
0100
0010
0100
0010
,  // measure 76
1000
0001
0010
0001
1001
0000
0101
0000
,  // measure 77
1010
1100
0110
0011
,  // measure 78
1000
0001
1000
0001
1000
0001
1000
0001
,  // measure 79
1000
0001
1000
0001
1000
0001
1000
0001
;
