#TITLE:Cyberia lyr3;
#SUBTITLE:;
#ARTIST:Sewerslvt;
#MUSIC:Cyberia lyr3.ogg;
#BANNER:Cyberia lyr3-bn.png;
#BACKGROUND:Cyberia lyr3-bg.png;
#LYRICSPATH:;
#CDTITLE:;
#SAMPLESTART:86.415;
#SAMPLELENGTH:13.584999999999994;
#OFFSET:-0.015;
#BPMS:0.000000=200.000000;
#STOPS:;
#TIMESIGNATURES:;
#BGCHANGES:;
#FGCHANGES:;
#ATTACKS:;
#SPEEDS:;
#SCROLLS:;

//---------------dance-single - Sparks---------------
#NOTES:
     dance-single:
     Sparks:
     Challenge:
     17:
     0,0,0,0,0:
// measure 0
0000
0000
0000
0000
,  // measure 1
0000
0000
0000
0000
,  // measure 2
0000
0000
0000
0000
,  // measure 3
0000
0000
0000
0000
,  // measure 4
0000
0000
0000
0000
,  // measure 5
0000
0000
0000
0000
,  // measure 6
0000
0000
0000
0000
,  // measure 7
0000
0000
0000
0000
,  // measure 8
2000
0000
0000
0000
,  // measure 9
0002
0000
0000
3000
,  // measure 10
0200
0000
0000
0000
,  // measure 11
0000
0000
0000
0003
,  // measure 12
0020
0000
0000
0300
,  // measure 13
2000
0000
0000
0030
,  // measure 14
0200
0000
0000
0000
,  // measure 15
0000
0000
0000
3300
,  // measure 16
1001
0000
0001
0010
0000
0100
1000
0000
,  // measure 17
1001
0000
0100
0001
0000
0001
0100
0010
,  // measure 18
1001
0000
1000
0001
0000
0010
0100
0000
,  // measure 19
1001
0000
0100
1000
0000
1000
0001
0100
,  // measure 20
1010
0000
1000
0001
0000
0010
0100
0000
,  // measure 21
0101
0000
1000
0010
0000
0010
0100
1000
,  // measure 22
0101
0000
0010
0100
0000
0001
0100
0000
,  // measure 23
1010
0000
0100
1000
0000
1000
0100
0010
,  // measure 24
0011
0000
1000
0100
0000
0010
1000
0000
,  // measure 25
0101
0000
0001
0010
0000
0100
0010
0001
,  // measure 26
0011
0000
1000
0010
0000
0001
1000
0000
,  // measure 27
0101
0000
0100
0010
0000
0001
0010
0100
,  // measure 28
1100
0000
0001
0100
0000
0010
0001
0000
,  // measure 29
1010
0000
1000
0010
0000
0010
0100
0001
,  // measure 30
0101
0000
0010
1000
0000
0100
0010
0000
,  // measure 31
1001
0000
0000
0110
0000
0000
1001
0000
,  // measure 32
1000
0000
0000
0000
0001
0000
0000
0000
1000
0000
0100
0000
0000
0010
0001
0000
,  // measure 33
1000
0000
0010
0000
0000
1000
0001
0010
0100
0000
0000
0010
0001
0000
1000
0000
,  // measure 34
1100
0000
1000
1010
0000
0010
0011
0000
,  // measure 35
0001
0000
0101
0000
0000
1000
0100
0010
0001
0000
0001
0100
0000
1000
0100
0000
,  // measure 36
1000
0000
0000
0000
0001
0000
0000
0000
0001
0000
0010
0000
0000
0100
1000
0000
,  // measure 37
0001
0000
0100
0000
0000
0010
1000
0001
0100
0000
0000
0001
0010
0000
0100
0000
,  // measure 38
1100
0000
0100
0101
0000
0001
0011
0000
,  // measure 39
0010
0000
1010
0000
0000
0100
0001
1000
0100
0000
0010
0001
0000
1000
0100
0000
,  // measure 40
0001
0000
0000
0000
1001
0000
0000
0000
1000
0000
0010
0000
0000
0100
0001
0000
,  // measure 41
1000
0000
0100
0000
0000
0010
0001
1000
0010
0000
0000
0001
0010
0000
0000
0000
,  // measure 42
1010
0000
1001
0100
0011
0000
1100
0000
,  // measure 43
1010
0100
1001
0000
0101
0001
0011
0000
,  // measure 44
1000
0100
0010
0001
0100
0010
1000
0001
,  // measure 45
0010
0001
1000
0100
0001
0100
1000
0001
,  // measure 46
1000
0010
0100
0010
1000
0001
0010
0100
1000
0001
0010
0100
0001
0100
1000
0001
,  // measure 47
0000
0000
2000
0000
0000
0000
0000
3001
,  // measure 48
1000
0001
0100
0001
1000
0010
0100
0001
,  // measure 49
1000
0100
0010
0001
0010
0100
1000
1010
,  // measure 50
0000
0000
0010
0100
0001
1000
0100
0010
,  // measure 51
0001
1000
0010
0100
0001
0010
0100
1100
,  // measure 52
0000
0000
1000
0100
0010
0001
1000
0010
,  // measure 53
0001
0010
1000
0001
0010
0100
1000
1001
,  // measure 54
0000
0000
0100
0010
1000
0001
0010
0100
,  // measure 55
1000
0000
1000
0000
0001
0100
1000
0100
0001
0000
1000
0000
1100
0000
0000
0000
,  // measure 56
1000
0001
0100
0010
1000
0100
0001
0100
,  // measure 57
0010
0001
1000
0010
0100
0001
0010
0110
,  // measure 58
0000
0000
1000
0100
0001
0100
0010
0001
,  // measure 59
0100
1000
0100
0010
1000
0100
1000
1010
,  // measure 60
0000
0000
1000
0010
0100
0001
0010
0100
,  // measure 61
1000
0001
0010
0100
0001
0100
1000
1100
,  // measure 62
0000
0000
1000
0001
0100
0010
1000
0100
,  // measure 63
0010
0000
0010
0000
0001
0000
1000
0000
1001
0000
0001
0100
1000
0000
0000
0000
,  // measure 64
1100
0000
0000
0000
0101
0000
0000
0000
0011
0000
1000
0000
0000
1000
0010
0000
,  // measure 65
0100
0000
0001
0000
0000
1000
0100
0000
0010
0000
0000
0001
0100
0000
0010
0000
,  // measure 66
1010
0000
1000
1100
0000
0001
0101
0000
,  // measure 67
0010
0011
0000
1000
1010
0000
0100
0000
,  // measure 68
0100
0001
1000
0100
0010
0001
1000
0010
,  // measure 69
0100
0100
0001
0001
1000
1000
0100
0100
,  // measure 70
0010
0001
1000
0010
0100
0010
1000
0001
0100
0010
1000
0001
0010
0100
0010
0001
,  // measure 71
1000
0001
1000
0001
1000
0001
1000
0001
0100
0000
0010
0000
1000
0000
0001
0000
,  // measure 72
0000
1000
0010
0001
0100
0000
0000
0000
,  // measure 73
0000
1000
0100
0001
0010
0000
0110
0000
,  // measure 74
1001
0100
0010
1000
0100
0010
0001
1000
,  // measure 75
0010
0100
0001
0010
0100
1000
0001
1010
,  // measure 76
0000
1010
0001
0100
0010
1000
0001
0010
,  // measure 77
1000
0010
0001
1000
0010
0100
0001
1100
,  // measure 78
0000
1100
0001
1000
0100
0010
0001
1000
,  // measure 79
0100
0000
0100
0000
1000
0010
0100
0001
0010
0000
0100
0000
1000
0000
0000
0000
,  // measure 80
1001
0100
0010
1000
0100
0001
0100
1000
,  // measure 81
0001
0100
0010
0001
0010
0100
0001
0101
,  // measure 82
0000
1100
0100
0010
0001
1000
0010
0100
,  // measure 83
0010
1000
0100
0010
0001
0100
0010
1001
,  // measure 84
0000
0110
0010
1000
0100
0010
1000
0010
,  // measure 85
0100
1000
0010
0100
1000
0100
0001
0101
,  // measure 86
0000
1100
0001
0010
0100
1000
0002
2000
,  // measure 87
0000
0000
0003
3000
,  // measure 88
1000
0001
0010
0100
1000
0001
0100
0010
,  // measure 89
0001
0010
0100
0001
1000
0100
0010
0011
,  // measure 90
1001
1010
0110
0001
1000
0010
0100
0001
,  // measure 91
0010
0100
0010
0001
1000
0010
0100
0100
,  // measure 92
0001
1000
0100
0010
0001
1000
0010
0100
,  // measure 93
0001
0010
0100
1000
0010
1000
0100
0110
,  // measure 94
0011
0101
1100
1000
0010
1000
0100
0010
,  // measure 95
0001
1000
0010
0100
0001
0010
0100
0100
,  // measure 96
0010
0001
1000
0010
0100
0001
0010
0001
,  // measure 97
1000
0100
1000
0001
0100
0010
1000
0110
,  // measure 98
0101
1010
1100
0001
0010
0100
1000
0100
,  // measure 99
0010
0001
1000
0010
0100
0010
1000
1000
,  // measure 100
0001
0010
0100
0010
1000
0010
0001
1000
,  // measure 101
0010
0100
0001
1000
0100
0010
0001
0011
,  // measure 102
1010
1100
0101
0010
0001
1000
0010
0200
,  // measure 103
0300
0000
0000
0000
,  // measure 104
1000
0001
0100
0010
,  // measure 105
1000
0000
0001
0000
0010
0000
0001
1000
,  // measure 106
0010
1000
1000
1010
0000
0101
0000
1100
,  // measure 107
0000
0011
0000
0110
0000
1000
0010
0100
,  // measure 108
0001
0010
0001
0100
,  // measure 109
0001
0000
0010
0000
0100
0000
1000
0010
,  // measure 110
0100
0010
0010
0110
0000
1010
0000
0101
,  // measure 111
0000
1100
0000
0101
0000
0011
1000
1000
;
