#VERSION:0.83;
#TITLE:Chrysalis;
#SUBTITLE:;
#ARTIST:Purity Filter;
#TITLETRANSLIT:;
#SUBTITLETRANSLIT:;
#ARTISTTRANSLIT:;
#GENRE:;
#CREDIT:;
#MUSIC:Chrysalis.ogg;
#BANNER:Chrysalis-bn.png;
#BACKGROUND:Chrysalis-bg.png;
#JACKET:Chrysalis-jacket.png;
#DISCIMAGE:;
#CDIMAGE:;
#SELECTABLE:YES;
#LYRICSPATH:;
#CDTITLE:;
#SAMPLESTART:48.005;
#SAMPLELENGTH:12;
#OFFSET:-0.0025;
#BPMS:0.000000=160.000000;
#STOPS:;
#WARPS:;
#DELAYS:;
#SPEEDS:0.000000=1.000000=0.000000=0;
#SCROLLS:0.000000=1.000000;
#TICKCOUNTS:;
#TIMESIGNATURES:0.000000=4=4;
#LABELS:;
#COMBOS:;
#FAKES:;
#BGCHANGES:;
#FGCHANGES:;
#ATTACKS:;
#KEYSOUNDS:;

//---------------dance-single - ---------------
#NOTEDATA:;
#CHARTNAME:;
#CHARTSTYLE:;
#CREDIT:Sparks;
#STEPSTYPE:dance-single;
#DESCRIPTION:;
#DIFFICULTY:Hard;
#METER:13;
#METERF:13;
#RADARVALUES:0,0,0,0,0;
#NOTES:
// measure 0
0000
0000
0000
0000
,  // measure 1
0000
0000
0000
0000
,  // measure 2
0000
0000
0000
0000
,  // measure 3
0000
0000
0000
0000
,  // measure 4
2000
0000
0100
3002
,  // measure 5
0100
0000
1000
0023
,  // measure 6
0100
0000
0001
0130
,  // measure 7
2000
0000
0001
3010
,  // measure 8
1000
0000
0000
0000
0001
0000
0000
0010
0000
0000
0002
0000
0000
0100
0000
0000
,  // measure 9
0000
0000
0000
0000
1003
0000
0000
0010
0000
0000
0200
0000
0000
0001
0000
0000
,  // measure 10
0000
0000
0000
0000
0310
0000
0000
1000
0000
0000
0200
0000
0000
0010
0000
0000
,  // measure 11
0000
0000
0000
0000
1300
0000
0000
0100
0000
0000
0020
0000
0000
0001
0000
0000
,  // measure 12
0000
0000
0000
0000
0130
0000
0000
1000
0000
0000
0002
0000
0000
0100
0000
0000
,  // measure 13
0000
0000
0000
0000
1003
0000
0000
0010
0000
0000
2000
0000
0000
0100
0000
0000
,  // measure 14
0000
0000
0000
0000
3001
0000
0000
1000
0000
0000
0020
0000
0000
0100
0000
0000
,  // measure 15
0000
0000
0000
0000
1030
0000
0000
0100
0000
0000
0010
0000
0000
0001
0000
0000
,  // measure 16
0100
0010
1000
0001
0100
0001
0010
0000
,  // measure 17
0100
1000
0010
0100
0001
1000
0100
0100
,  // measure 18
1000
0010
1000
0100
0010
0001
0100
0000
,  // measure 19
0001
0000
1000
0000
0100
0000
1000
0000
0001
0010
0000
0000
0100
1000
0000
0000
,  // measure 20
0001
0010
0100
1000
0010
0100
0001
0000
,  // measure 21
1000
0010
0100
0001
1000
0001
0010
0010
,  // measure 22
0100
1000
0010
0100
0001
1000
0010
0000
,  // measure 23
1000
0000
0010
0000
1000
0000
0100
0000
0010
0001
0000
0000
0100
0001
0000
0000
,  // measure 24
1000
0000
0000
0010
0000
0000
0100
0000
0001
0000
0000
0000
1000
0000
0000
0000
,  // measure 25
0001
0000
0000
0100
0000
0000
0010
0000
1000
0000
0100
0000
0010
0000
0001
0000
,  // measure 26
1000
0000
0000
0100
0000
0000
1000
0000
0010
0000
0000
0000
0100
0000
0000
0000
,  // measure 27
0001
0000
0000
0010
0000
0000
0001
0000
1000
0100
0000
0000
0010
0001
0000
0000
,  // measure 28
0100
0000
0000
0010
0000
0000
0100
0000
0001
0000
0000
0000
1000
0000
0000
0000
,  // measure 29
0100
0000
0000
0010
0000
0000
0100
0000
1000
0000
0010
0000
0100
0000
0010
0000
,  // measure 30
1000
0000
0000
0001
0000
0000
0100
0000
0010
0000
0000
0000
1000
0000
0000
0000
,  // measure 31
0001
0000
0000
0010
0000
0000
0100
0000
1000
0000
0010
0000
0110
0000
0100
0000
,  // measure 32
0010
1000
0010
0000
0100
0000
0001
0000
1000
0000
0010
0000
0100
0000
0000
0000
,  // measure 33
0010
1000
0000
0001
0010
0100
1000
0000
,  // measure 34
0001
0010
0001
0000
1000
0000
0100
0000
0010
0000
0001
0000
1000
0000
0000
0000
,  // measure 35
0001
0010
0000
0001
0100
0010
1000
0000
,  // measure 36
0001
0100
0001
0000
1000
0000
0001
0000
0100
0000
0001
0000
0010
0000
0000
0000
,  // measure 37
0010
0100
0000
0100
1000
0001
1000
0000
,  // measure 38
0010
1000
0010
0000
0100
0000
0010
0000
1000
0000
0010
0000
0100
0000
0000
0000
,  // measure 39
0100
0001
0000
0001
1000
0100
1000
0100
,  // measure 40
1000
0010
0100
0000
0001
0000
0100
0000
0010
0000
1000
0000
0002
0000
0000
0000
,  // measure 41
0010
0010
0000
1000
1003
0000
1010
0000
,  // measure 42
0100
0001
1000
0000
0001
0000
0010
0000
0001
0000
1000
0000
0200
0000
0000
0000
,  // measure 43
0010
0010
0000
2300
0001
0001
3001
0000
,  // measure 44
0010
0001
1000
0000
0100
0000
1000
0000
0001
0000
0100
0000
0020
0000
0000
0000
,  // measure 45
1000
1000
0000
0130
0100
0000
0101
0000
,  // measure 46
0100
0010
1000
0000
0001
0000
0100
0000
0001
0000
0010
0000
0200
0000
0000
0000
,  // measure 47
1000
0000
1000
0000
0000
0000
2300
0000
0001
0000
3001
0000
0100
0010
0100
0010
,  // measure 48
0200
0000
0001
0000
,  // measure 49
0010
0310
1000
0001
,  // measure 50
0020
0100
0100
0000
,  // measure 51
0001
0000
0031
0000
1000
0000
0100
1000
,  // measure 52
0001
0100
0001
0010
,  // measure 53
0100
0000
1000
0000
0010
0100
0001
1000
,  // measure 54
0001
0100
0010
1000
,  // measure 55
0100
0000
0000
0000
0010
0000
0000
0000
0001
0010
0000
0000
0100
1000
0000
0000
,  // measure 56
0001
0010
0001
0100
,  // measure 57
0010
0000
1000
0000
0001
0100
0001
1000
,  // measure 58
0100
1000
0010
2000
,  // measure 59
0100
0100
0010
3010
,  // measure 60
0100
0001
0010
0100
,  // measure 61
0010
0000
0001
0000
1000
0001
0100
0010
,  // measure 62
1000
0001
0100
0001
,  // measure 63
1000
0000
0000
0000
0001
0000
0000
0000
1000
0100
0000
0000
0001
0100
0000
0000
,  // measure 64
1000
0000
0010
0000
0100
0000
0000
0001
0000
0000
0010
0000
0100
0000
0010
0000
,  // measure 65
0001
0000
0100
0000
0010
0000
0000
1000
0000
0000
0100
0000
1000
0000
0010
0000
,  // measure 66
1000
0000
0100
0000
0010
0000
0000
0001
0000
0000
0100
0000
0010
0000
1000
0000
,  // measure 67
0010
0000
0100
0000
0001
0000
0000
0000
1000
0010
0000
0000
0010
0100
0000
0000
,  // measure 68
0100
0000
0001
0000
1000
0000
0000
0100
0000
0000
0010
0000
0100
0000
1000
0000
,  // measure 69
0001
0000
1000
0000
0100
0000
0000
1000
0000
0000
0010
0000
0100
0000
0001
0000
,  // measure 70
1000
0000
0010
0000
0100
0000
0000
0001
0000
0000
0100
0000
0010
0000
1000
0000
,  // measure 71
0001
0000
0010
0000
1000
1000
0001
0001
,  // measure 72
1000
0010
0100
0000
0010
0000
1000
0000
0001
0000
0100
0000
0001
0000
0010
0000
,  // measure 73
0100
1100
0010
0011
,  // measure 74
0001
0100
0010
0000
0100
0000
0001
0000
1000
0000
0001
0000
0100
0000
0010
0000
,  // measure 75
1000
0000
1010
0000
0001
0100
0101
0000
,  // measure 76
1000
0001
0010
0000
0100
0000
0010
0000
0001
0000
0100
0000
0010
0000
0100
0000
,  // measure 77
0001
1010
0100
1001
,  // measure 78
0100
1000
0001
0000
0010
0000
0001
0000
1000
0000
0001
0000
0010
0000
0100
0000
,  // measure 79
1000
0000
1020
0000
0100
0100
0130
0100
,  // measure 80
0001
1000
0001
0000
0010
0000
0100
0000
1000
0000
0010
0000
0100
0000
0000
0000
,  // measure 81
0001
1010
0001
1001
,  // measure 82
1000
0100
1000
0000
0001
0000
0010
0000
0001
0000
1000
0000
0010
0000
0100
0000
,  // measure 83
0001
0000
0101
0000
0010
0010
0011
0000
,  // measure 84
0100
1000
0001
0000
0100
0000
0001
0000
1000
0000
0100
0000
1000
0000
0001
0000
,  // measure 85
0010
2100
3010
0102
,  // measure 86
0013
0100
0010
0000
0001
0000
0010
0000
0100
0000
1000
0000
0100
0000
0000
0000
,  // measure 87
0010
0000
0000
0000
0120
0000
0000
0000
0031
0000
0010
0000
0100
0000
1000
0010
,  // measure 88
0200
0000
0000
0000
,  // measure 89
0300
0000
0000
0000
;

//---------------dance-single - ---------------
#NOTEDATA:;
#CHARTNAME:;
#CHARTSTYLE:;
#CREDIT:Sparks;
#STEPSTYPE:dance-single;
#DESCRIPTION:;
#DIFFICULTY:Medium;
#METER:10;
#METERF:10;
#RADARVALUES:0,0,0,0,0;
#NOTES:
// measure 0
0000
0000
0000
0000
,  // measure 1
0000
0000
0000
0000
,  // measure 2
0000
0000
0000
0000
,  // measure 3
0000
0000
0000
0000
,  // measure 4
2000
0000
0100
0010
,  // measure 5
0002
3000
0010
0100
,  // measure 6
2000
0003
0010
0010
,  // measure 7
3002
0000
0010
0010
,  // measure 8
1003
0000
0000
0000
0100
0000
0000
1000
0000
0000
0010
0000
0000
1000
0000
0000
,  // measure 9
0000
0000
0000
0000
0001
0000
0000
1000
0000
0000
0100
0000
0000
0010
0000
0000
,  // measure 10
0000
0000
0000
0000
0001
0000
0000
1000
0000
0000
0010
0000
0000
0100
0000
0000
,  // measure 11
0000
0000
0000
0000
0001
0000
0000
0010
0000
0000
0001
0000
0000
0100
0000
0000
,  // measure 12
0000
0000
0000
0000
1000
0000
0000
0010
0000
0000
0100
0000
0000
0002
0000
0000
,  // measure 13
0000
0000
0000
0000
0010
0000
0000
0010
0000
0000
0010
0000
0000
0023
0000
0000
,  // measure 14
0000
0000
0000
0000
0130
0000
0000
0010
0000
0000
0001
0000
0000
2000
0000
0000
,  // measure 15
0000
0000
0000
0000
0100
0000
0000
0100
0000
0000
0100
0000
0000
3100
0000
0000
,  // measure 16
0010
0001
0010
0000
0001
0000
1000
0000
,  // measure 17
0010
0100
0010
0000
0100
0001
0100
0000
,  // measure 18
0001
0010
0001
0000
1000
0000
0100
0000
,  // measure 19
1000
0000
0010
0000
1000
0000
0000
0000
0001
0010
0000
0000
0001
0100
0000
0000
,  // measure 20
0001
1000
0100
0000
1000
0000
0010
0000
,  // measure 21
0100
0001
1000
0000
0010
0100
0001
0000
,  // measure 22
0010
0100
1000
0000
0001
0000
0010
0000
,  // measure 23
0001
0000
1000
0000
0100
0000
0000
0000
1000
0010
0000
0000
1000
0100
0000
0000
,  // measure 24
1000
0010
0100
0001
2000
0000
0000
0000
,  // measure 25
3100
0010
0001
0100
0020
0000
0000
0000
,  // measure 26
0130
0001
1000
0100
2000
0000
0000
0000
,  // measure 27
3100
0000
0010
0000
0001
0000
0000
0000
1000
0001
0000
0000
1000
0001
0000
0000
,  // measure 28
0100
0010
1000
0001
0020
0000
0000
0000
,  // measure 29
0031
1000
0100
0010
0002
0000
0000
0000
,  // measure 30
1003
0010
0100
0010
2000
0000
0000
0000
,  // measure 31
3001
0100
0010
1000
0100
0000
0100
0100
,  // measure 32
0010
0011
1000
1100
,  // measure 33
0001
0100
0002
0000
2000
0000
3000
0000
,  // measure 34
0103
1010
0001
1001
,  // measure 35
0010
0100
2000
0000
0002
0000
0003
0000
,  // measure 36
3100
0110
0001
1001
,  // measure 37
1000
0010
0200
0000
0002
0000
0003
0000
,  // measure 38
0310
1010
0001
0011
,  // measure 39
1000
0100
0020
0000
0002
0000
0003
0000
,  // measure 40
0130
1100
1000
1010
,  // measure 41
0010
0100
0002
0000
0020
0000
0030
0000
,  // measure 42
0103
0011
1000
1010
,  // measure 43
0001
0100
0020
0000
2000
0000
3000
0000
,  // measure 44
0130
1010
0001
1001
,  // measure 45
1000
0100
0020
0000
0002
0000
0003
0000
,  // measure 46
0130
1100
1000
1010
,  // measure 47
0001
0010
0001
0100
0010
1000
0010
0100
,  // measure 48
0020
0000
1000
0000
,  // measure 49
0100
0100
1000
1030
,  // measure 50
0100
0001
0020
0000
,  // measure 51
0100
0001
0100
1000
,  // measure 52
0130
1000
0001
0010
,  // measure 53
0001
0000
0100
0000
0010
0010
0100
0100
,  // measure 54
0001
0100
0010
1000
,  // measure 55
0100
0000
0000
0000
1000
0000
0000
0000
0001
1000
0000
0000
0001
0010
0000
0000
,  // measure 56
0001
1000
0001
0010
,  // measure 57
0100
0000
1000
0000
0010
0010
0100
0100
,  // measure 58
0001
1000
0010
0100
,  // measure 59
0010
1000
0001
0010
,  // measure 60
0100
1000
0001
0010
,  // measure 61
0100
0000
1000
0000
0010
0010
0100
0100
,  // measure 62
0001
1000
0010
0100
,  // measure 63
0001
0000
0000
0000
0010
0000
0000
0000
0100
1000
0000
0000
1000
0010
0000
0000
,  // measure 64
0200
0000
0000
0000
0001
0000
0000
0001
0000
0000
1000
0000
0000
1000
0000
0000
,  // measure 65
0320
0000
0000
0000
1000
0000
0000
1000
0000
0000
0001
0000
0000
0001
0000
0000
,  // measure 66
2030
0000
0000
0000
0100
0000
0000
0100
0000
0000
0010
0000
0000
0010
0000
0000
,  // measure 67
3002
0000
0000
0000
0100
0000
0000
0100
0000
0000
1000
0000
0000
1000
0000
0000
,  // measure 68
0023
0000
0000
0000
0001
0000
0000
0100
0000
0000
0001
0000
0000
0100
0000
0000
,  // measure 69
0032
0000
0000
0000
1000
0000
0000
0100
0000
0000
1000
0000
0000
0100
0000
0000
,  // measure 70
2003
0000
0000
0000
0010
0000
0000
0001
0000
0000
0010
0000
0000
0001
0000
0000
,  // measure 71
3020
0000
0100
0000
1000
1000
1000
1030
,  // measure 72
1000
0100
0010
0001
0010
0100
1000
0000
,  // measure 73
0002
0010
0100
1003
,  // measure 74
0010
0100
0001
1000
0001
0100
0010
0000
,  // measure 75
2000
0100
0010
3001
,  // measure 76
0010
0100
1000
0010
0100
0001
1000
0000
,  // measure 77
0020
0100
1000
0130
,  // measure 78
0001
1000
0100
0010
0001
1000
0100
0000
,  // measure 79
0020
0001
0100
0031
,  // measure 80
1000
0000
0001
1000
0001
0000
0100
0000
,  // measure 81
0202
0303
2020
0030
,  // measure 82
3001
0000
1000
0100
1000
0000
0010
0000
,  // measure 83
2002
3003
0022
0030
,  // measure 84
1003
0000
0010
0100
0010
0000
1000
0000
,  // measure 85
0202
0303
0022
0003
,  // measure 86
0130
0000
1000
0001
1000
0000
0100
0000
,  // measure 87
0010
0000
0000
0000
0001
0000
0000
0000
0100
0000
0010
0000
0100
0000
0010
1000
,  // measure 88
0002
0000
0000
0000
,  // measure 89
0003
0000
0000
0000
;

//---------------dance-single - ---------------
#NOTEDATA:;
#CHARTNAME:;
#CHARTSTYLE:;
#CREDIT:Sparks;
#STEPSTYPE:dance-single;
#DESCRIPTION:;
#DIFFICULTY:Easy;
#METER:7;
#METERF:7;
#RADARVALUES:0,0,0,0,0;
#NOTES:
// measure 0
0000
0000
0000
0000
,  // measure 1
0000
0000
0000
0000
,  // measure 2
0000
0000
0000
0000
,  // measure 3
0000
0000
0000
0000
,  // measure 4
0002
0000
0000
0000
,  // measure 5
0203
0000
0000
0000
,  // measure 6
0320
0000
0000
0000
,  // measure 7
2030
0000
0000
0000
,  // measure 8
3002
0000
0010
0023
,  // measure 9
0230
0000
1000
2300
,  // measure 10
3020
0000
1000
2030
,  // measure 11
3200
0000
0010
0320
,  // measure 12
0032
0000
0100
0100
,  // measure 13
0100
0000
0010
2003
,  // measure 14
0001
0000
0010
0010
,  // measure 15
0010
0000
0100
3010
,  // measure 16
1000
0010
0100
0010
,  // measure 17
1000
0001
0010
0100
,  // measure 18
1000
0001
0010
0001
,  // measure 19
1000
0010
2002
0003
,  // measure 20
3010
1000
0001
0010
,  // measure 21
0001
0100
0010
1000
,  // measure 22
0100
0010
0001
1000
,  // measure 23
0100
1000
0020
1000
,  // measure 24
0100
0030
0100
0001
0100
0000
0000
0000
,  // measure 25
0010
0000
0010
1000
0010
0000
1000
0000
,  // measure 26
1000
0000
1000
0100
0010
0000
0000
0000
,  // measure 27
0001
0000
0001
1000
0020
0000
0100
0000
,  // measure 28
1000
0030
0001
0010
0001
0000
0000
0000
,  // measure 29
1000
0000
0010
1000
0010
0000
0100
0000
,  // measure 30
0001
0000
1000
0100
1000
0000
0000
0000
,  // measure 31
0001
0000
0010
0000
0001
0000
0001
1000
,  // measure 32
0001
0100
0010
1000
,  // measure 33
0100
0010
0001
1000
,  // measure 34
0100
0010
0001
0100
,  // measure 35
0010
0000
1000
0000
0001
0100
0001
0000
,  // measure 36
1000
0100
0001
0100
,  // measure 37
1000
0000
0100
0000
0010
0001
0010
0000
,  // measure 38
0001
0100
1000
0100
,  // measure 39
0001
0000
0100
0000
1000
0010
1000
0000
,  // measure 40
0001
0100
0001
0010
,  // measure 41
0001
0100
0010
1000
,  // measure 42
0100
1000
0010
1000
,  // measure 43
0100
0000
0010
0000
0001
1000
0001
0000
,  // measure 44
0100
0001
1000
0100
,  // measure 45
1000
0000
0010
0000
0100
0010
0100
0000
,  // measure 46
0001
0100
0010
0100
,  // measure 47
0001
0000
0010
0000
0100
0010
0100
0010
,  // measure 48
0200
0000
0000
0000
,  // measure 49
1000
1000
0010
1000
,  // measure 50
2300
0000
0000
0000
,  // measure 51
0001
0001
0010
0001
,  // measure 52
3001
0100
0010
1000
,  // measure 53
0001
0010
0100
1000
,  // measure 54
0010
0100
0001
1000
,  // measure 55
0100
2000
0100
3100
,  // measure 56
0001
0010
0100
1000
,  // measure 57
0001
0100
0010
1000
,  // measure 58
0100
0010
0001
0100
,  // measure 59
0010
2000
0010
0010
,  // measure 60
3100
0001
0010
1000
,  // measure 61
0100
0001
0100
1000
,  // measure 62
0100
0001
0010
1000
,  // measure 63
0100
0001
0100
1000
,  // measure 64
0002
0000
0000
0000
0100
0000
0000
0100
0000
0000
0100
0000
0000
0100
0000
0000
,  // measure 65
0000
0000
0000
0000
1000
0000
0000
1000
0000
0000
1000
0000
0000
1000
0000
0000
,  // measure 66
0000
0000
0000
0000
0010
0000
0000
0010
0000
0000
0010
0000
0000
0013
0000
0000
,  // measure 67
0000
0000
0000
0000
0001
0000
0000
0001
0000
0000
0001
0000
0000
0001
0000
0000
,  // measure 68
0000
0000
0000
0000
1000
0000
0000
0100
0000
0000
1000
0000
0000
0100
0000
0000
,  // measure 69
0000
0000
0000
0000
1000
0000
0000
0010
0000
0000
0100
0000
0000
0001
0000
0000
,  // measure 70
0000
0000
0000
0000
0010
0000
0000
0001
0000
0000
0010
0000
0000
0001
0000
0000
,  // measure 71
0000
0020
0200
0300
,  // measure 72
1030
0001
0100
0001
,  // measure 73
0202
0303
2200
0300
,  // measure 74
3001
0100
0001
1000
,  // measure 75
2200
3300
0202
0300
,  // measure 76
0013
0100
1000
0010
,  // measure 77
0220
0330
2002
0003
,  // measure 78
3010
1000
0001
0010
,  // measure 79
0220
0330
2002
3000
,  // measure 80
0013
0100
1000
0001
,  // measure 81
0010
0000
0001
0100
0001
0000
0000
0000
,  // measure 82
1000
0010
0100
0001
,  // measure 83
1000
0000
0100
1000
0100
0000
0000
0000
,  // measure 84
0010
0001
1000
0001
,  // measure 85
0010
0000
0100
0010
0100
0000
0000
0000
,  // measure 86
1000
0010
0100
0001
,  // measure 87
0100
0000
0010
0000
0100
0000
0010
0100
,  // measure 88
0020
0000
0000
0000
,  // measure 89
0030
0000
0000
0000
;

//---------------dance-single - ---------------
#NOTEDATA:;
#CHARTNAME:;
#CHARTSTYLE:;
#CREDIT:Sparks;
#STEPSTYPE:dance-single;
#DESCRIPTION:;
#DIFFICULTY:Challenge;
#METER:14;
#METERF:14;
#RADARVALUES:0,0,0,0,0;
#NOTES:
// measure 0
0000
0000
0000
0000
,  // measure 1
0000
0000
0000
0000
,  // measure 2
0000
0000
0000
0000
,  // measure 3
0000
0000
0000
0000
,  // measure 4
2000
0000
3100
0010
,  // measure 5
0012
0000
0103
0010
,  // measure 6
2010
0000
3001
1000
,  // measure 7
2100
0000
3001
0100
,  // measure 8
0101
0000
0000
0000
1000
0000
0000
0100
0000
0000
0010
0000
0000
0001
0000
0001
,  // measure 9
0000
0000
0000
0000
0100
0000
0000
0001
0000
0000
1000
0000
0000
0100
0000
0100
,  // measure 10
0000
0000
0000
0000
1000
0000
0000
0010
0000
0000
0100
0000
0000
0001
0000
0001
,  // measure 11
0000
0000
0000
0000
0100
0000
0000
0010
0000
0000
1000
0000
0000
0100
0000
1000
,  // measure 12
0000
0000
0000
0000
0001
0000
0000
0010
0000
0000
0100
0000
0000
1000
0000
1000
,  // measure 13
0000
0000
0000
0000
0010
0000
0000
0100
0000
0000
0001
0000
0000
0010
0000
0010
,  // measure 14
0000
0000
0000
0000
0001
0000
0000
1000
0000
0000
0100
0000
0000
0010
0000
0010
,  // measure 15
0000
0000
0000
0000
0001
0000
0000
1000
0000
0000
0001
0000
0000
1000
0000
0000
,  // measure 16
0010
0000
0100
0000
0001
0000
0100
0010
0000
0100
0001
0000
0010
0001
0000
0010
,  // measure 17
0100
0000
0000
0000
1000
0000
0100
0010
0000
0100
1000
0000
0001
0100
0000
0001
,  // measure 18
0010
0000
0000
0000
0001
0000
0100
0010
0000
1000
0010
0000
1000
0100
0000
0010
,  // measure 19
0001
0000
0000
0000
1000
0001
0000
0001
1000
0010
0000
0000
0100
0001
0000
0000
,  // measure 20
0010
0000
0000
0000
0100
0000
1000
0100
0000
0010
0001
0000
1000
0010
0000
1000
,  // measure 21
0001
0000
0000
0000
0100
0000
0001
0010
0000
0001
1000
0000
0010
0100
0000
0001
,  // measure 22
1000
0000
0000
0000
0010
0000
1000
0100
0000
1000
0001
0000
0100
0010
0000
0100
,  // measure 23
0001
0000
0000
0000
0100
0001
0000
0001
0010
0001
0000
0000
1000
0010
0000
0000
,  // measure 24
1001
0000
0000
0001
0100
0000
0001
0000
0010
0000
0100
0000
1000
0000
0000
0000
,  // measure 25
1010
0000
0000
0010
1000
0000
0100
0000
0010
0000
0001
0000
1000
0000
0010
0000
,  // measure 26
0110
0000
0000
0010
1000
0000
0010
0000
0100
0000
0001
0000
1000
0000
0000
0000
,  // measure 27
1010
0000
0000
1000
0100
0000
0010
0000
0001
0010
0000
0000
1000
0100
0000
0000
,  // measure 28
0011
0000
0000
0010
0001
0000
0100
0000
0010
0000
1000
0000
0001
0000
0000
0000
,  // measure 29
1010
0000
0000
1000
0100
0000
1000
0000
0010
0000
0100
0000
0001
0000
0010
0000
,  // measure 30
0110
0000
0000
0100
1000
0000
0100
0000
0010
0000
0001
0000
0010
0000
0000
0000
,  // measure 31
0011
0000
0000
0001
0100
0000
0010
0000
1000
0000
0001
0000
1001
0000
1000
0000
,  // measure 32
0010
0100
0001
0000
1000
0000
0001
0000
0100
0000
0010
0000
1000
0000
0100
0000
,  // measure 33
0010
0000
0011
0001
0101
0000
1000
0000
,  // measure 34
0010
1000
0100
0000
0010
0000
0001
0000
1000
0000
0001
0000
0010
0000
0100
0000
,  // measure 35
1000
0000
1100
1000
1010
0010
0100
0000
,  // measure 36
0010
1000
0001
0000
0100
0000
0001
0000
0010
0000
0001
0000
0100
0000
0010
0000
,  // measure 37
1000
0000
0110
0100
0101
0000
0010
0000
,  // measure 38
1000
0010
1000
0000
0100
0000
1000
0000
0001
0000
0010
0000
0001
0000
1000
0000
,  // measure 39
0100
0000
1100
1000
1001
0001
0100
0000
,  // measure 40
0001
0010
0001
0000
1000
0000
0001
0000
0010
0000
0100
0000
1000
0000
0100
0000
,  // measure 41
0010
0110
0000
1100
1100
0000
0001
0000
,  // measure 42
0100
0001
0100
0000
0010
0000
0100
0000
0001
0000
1000
0000
0010
0000
1000
0000
,  // measure 43
0100
0110
0000
0011
0011
0000
1000
0000
,  // measure 44
0010
1000
0100
0000
0010
0000
0100
0000
1000
0000
0100
0000
0001
0000
0100
0000
,  // measure 45
0010
0110
0000
1100
1100
0000
0001
0000
,  // measure 46
0100
0010
1000
0000
0100
0000
1000
0000
0010
0000
1000
0000
0100
0000
1000
0000
,  // measure 47
0010
0110
0000
0001
1001
1000
1001
1000
,  // measure 48
0100
0000
0000
0000
0010
0001
1000
0010
2000
0000
0000
0000
0000
0000
0000
0000
,  // measure 49
0010
0010
0100
3002
,  // measure 50
0103
0000
0000
0000
0001
0100
0001
1000
0200
0000
0000
0000
0000
0000
0000
0000
,  // measure 51
1000
0000
1000
0000
0010
0000
1000
1300
,  // measure 52
1100
1001
0101
0011
,  // measure 53
0010
0100
1000
0001
0100
0010
1000
0001
,  // measure 54
0100
0110
1010
1100
,  // measure 55
0100
0010
0001
1000
0010
0100
0001
1000
,  // measure 56
0010
1010
0011
1010
,  // measure 57
0001
0010
0100
0010
0001
0100
0010
1000
,  // measure 58
0100
0101
1100
0101
,  // measure 59
0100
0001
1000
0010
0100
0001
0010
0100
,  // measure 60
1000
1010
1100
1010
,  // measure 61
0010
0100
0001
1000
0100
0010
0001
0100
,  // measure 62
0001
0011
0101
0011
,  // measure 63
0010
0100
1000
0001
0100
0010
1000
0000
,  // measure 64
0100
0000
0000
0000
1000
0000
0001
0200
0000
0000
0001
0000
0310
1000
0000
0000
,  // measure 65
0000
0000
0000
0000
1000
0000
0100
0020
0000
0000
0001
0000
0130
1000
0000
0000
,  // measure 66
0000
0000
0000
0000
0010
0000
0001
0200
0000
0000
0010
0000
0301
1000
0000
0000
,  // measure 67
0000
0000
0000
0000
1000
0000
0100
0020
0000
0000
0100
0000
0031
0010
0000
0000
,  // measure 68
0000
0000
0000
0000
1100
0000
0000
1001
0000
0000
0101
0000
0000
0011
0000
0000
,  // measure 69
1001
0000
0000
0000
1010
0000
0000
0110
0000
0000
1001
0000
0000
0011
0000
0000
,  // measure 70
0101
0000
0000
0000
1001
0000
0000
1100
0000
0000
0110
0000
0000
0011
0000
0000
,  // measure 71
1001
0000
0000
0000
0001
1000
0000
1000
0020
0000
0000
0000
0000
0000
0000
0000
,  // measure 72
0130
0001
0100
0000
0010
0000
0010
0000
1000
0000
1000
0000
0100
0000
0000
0000
,  // measure 73
0011
0001
1001
0001
0202
0000
0003
0000
,  // measure 74
0301
1000
0001
0000
0010
0000
0010
0000
0100
0000
0100
0000
1000
0000
0000
0000
,  // measure 75
1010
1000
1001
1000
2200
0000
0300
0000
,  // measure 76
3100
1000
0001
0000
0100
0000
0100
0000
0001
0000
0001
0000
0010
0000
0000
0000
,  // measure 77
0110
0100
1100
0100
0220
0000
0030
0000
,  // measure 78
1300
0001
0100
0000
0010
0000
0010
0000
1000
0000
1000
0000
0100
0000
0000
0000
,  // measure 79
0011
0010
0110
0010
0022
0000
0030
0000
,  // measure 80
1003
0010
1000
0000
0100
0000
0100
0000
1000
0000
1000
0000
0010
0000
0000
0000
,  // measure 81
1010
0010
1010
1000
2020
0000
0030
0000
,  // measure 82
3001
0010
0001
0000
0100
0000
0100
0000
0001
0000
0001
0000
0010
0000
0000
0000
,  // measure 83
0011
0010
0011
0001
0011
0000
0000
0000
,  // measure 84
0100
0010
1000
0000
0001
0000
1000
0000
0100
0000
0010
0000
0001
0000
1000
0000
,  // measure 85
0020
1000
0100
1030
0001
0000
1000
0000
,  // measure 86
0001
0010
0100
0000
1000
0000
0001
0000
0010
0000
0001
0000
1000
0000
0100
0000
,  // measure 87
0020
0000
0001
0000
0100
0000
0031
0000
1000
0000
0010
0000
0100
0000
0010
0100
,  // measure 88
0020
0000
0000
0000
,  // measure 89
0030
0000
0000
0000
;
