#TITLE:CLAMARE;
#SUBTITLE:;
#ARTIST:MAX MAXIMIZER;
#TITLETRANSLIT:;
#SUBTITLETRANSLIT:;
#ARTISTTRANSLIT:;
#GENRE:;
#CREDIT:;
#MUSIC:CLAMARE.ogg;
#BANNER:CLAMARE-bn.png;
#BACKGROUND:CLAMARE-bg.png;
#CDTITLE:;
#SAMPLESTART:82.597;
#SAMPLELENGTH:14.866;
#SELECTABLE:YES;
#OFFSET:-0.637;
#BPMS:0.000=112.000
,48.000=224.000
,188.000=112.000
,218.500=224.000
,292.000=300.000
,292.500=224.000
,293.500=448.000
,293.750=224.000
,308.250=300.000
,308.750=224.000
,309.750=448.000
,310.000=224.000
;
#STOPS:216.000=0.937
,218.250=1.473
;
#DISPLAYBPM:112.000:224.000;
#BGCHANGES:;
#FGCHANGES:;

//--------------- dance-single - Sparks ----------------
#NOTES:
     dance-single:
     Sparks:
     Challenge:
     18:
     0.898689,1.194779,0.307072,0.257276,1.116247,758,721,37,31,0,0,0.898689,1.194779,0.307072,0.257276,1.116247,758,721,37,31,0,0:
0000
0000
0000
0000
,
0000
0000
0000
0000
,
0000
0000
0000
0000
0000
0000
0000
0000
0000
0000
1000
0010
0200
0000
0001
0000
0000
0000
0010
0000
0000
0300
0000
0000
,
0200
0000
0001
0000
0000
0000
0010
0000
0000
0300
0000
0000
0100
0001
0100
0001
0010
0001
0010
0100
0010
0100
1000
0100
,
0001
0000
0200
0000
0000
0000
1000
0000
0000
0300
0000
0000
0020
0000
0001
0000
0000
0000
1000
0000
0000
0030
0000
0000
,
0001
0000
2000
0000
0000
0000
0100
0000
0000
3000
0000
0000
0020
0000
0100
0000
0000
0000
1030
0000
0000
0001
0100
0010
,
1010
0000
0000
0000
0000
0000
0000
0000
0000
0000
0000
0000
0002
0000
0100
0000
0000
0000
0000
0000
0000
0003
0000
0000
,
0010
0000
0002
0000
0000
0000
0000
0000
0000
0003
0000
0000
2000
0000
0100
3000
0000
0000
0001
0100
0010
1000
0001
0010
,
0011
0000
0000
0100
0000
0000
1001
1000
0000
0100
0000
0000
,
1010
0000
0000
0000
0000
0000
0100
0000
0000
0000
0000
0000
1001
0000
0001
0000
0000
0000
0100
0001
0010
0100
1000
0010
,
0200
0000
0000
0000
0000
0000
0010
0000
0000
0000
0000
0000
0301
0000
0200
0000
0000
0000
0010
0000
0000
0300
0000
0000
,
0110
0000
0000
1001
0000
0000
0110
0000
0000
1001
0000
0000
0100
0001
0010
0001
0010
0100
1000
0100
0010
0001
0100
0001
,
1000
0000
0000
0000
,
0000
0000
0000
0000
,
1000
0002
0010
1003
0001
0010
1100
1000
,
0100
0000
0000
0000
0000
0000
0010
0000
0000
0001
0000
0000
0100
0000
0000
0000
0000
0000
0010
0000
0000
0000
0000
0000
1000
0000
0000
0000
0000
0000
0001
0000
0000
0000
0000
0000
0010
0000
0000
0000
0100
0000
0000
0000
1000
0000
0000
0000
,
0010
0200
0010
0301
0100
0001
1001
1000
,
0001
0100
0100
1000
0010
0010
0001
0010
0010
1000
0100
0100
,
0001
0020
0100
0031
1000
0010
0101
0001
,
1000
0000
0000
0000
0000
0000
0001
0000
0000
0100
0000
0000
1000
0000
0000
0000
0000
0000
0100
0000
0000
0000
0000
0000
0001
0000
0000
0000
0000
0000
1000
0000
0000
0000
0000
0000
0001
0000
0000
0000
0010
0000
0000
0000
0001
0000
0000
0000
,
0012
0000
0200
0003
,
1300
0100
0001
0010
0100
1000
0010
0100
1000
0100
0001
0010
,
0100
1000
1001
0100
0010
1000
0100
0010
,
1000
0000
0000
0000
0000
0000
0010
0000
0000
0001
0000
0000
1000
0000
0000
0000
0000
0000
0010
0000
0000
0000
0000
0000
0100
0000
0000
0000
0000
0000
0001
0000
0000
0000
0000
0000
0100
0000
0000
0000
0010
0000
0000
0000
1000
0000
0000
0000
,
0200
0000
0000
0001
0000
1300
0020
0000
0000
0100
0001
0030
,
0100
1000
0001
0100
0001
1000
0100
1000
0001
0010
0001
1000
,
0010
0200
0001
0310
1000
0100
0011
1000
,
0100
0000
0000
0000
0000
0000
0010
0000
0000
0001
0000
0000
0100
0000
0000
0000
0000
0000
0010
0000
0000
0000
0000
0000
0001
0000
0000
0000
0000
0000
0010
0000
0000
0000
0000
0000
0100
0000
0000
0000
0001
0000
0000
0000
0010
0000
0000
0000
,
0100
0000
1010
0000
,
0011
0000
0000
0000
0100
0010
0100
0010
0100
0000
0000
0000
1001
0000
0000
0000
,
0001
0000
0000
0010
0000
0000
0100
0000
0000
1000
0000
0000
0010
0000
0000
1000
0000
0000
0001
0000
0001
0000
0001
0000
,
0100
0000
0000
0010
0000
0000
1000
0000
0000
0100
0000
0000
0010
0000
0000
0100
0000
0000
1000
0000
1000
0000
1000
0000
,
0100
0000
0000
0010
0000
0000
0001
0000
0000
1000
0000
0000
0010
0000
0000
1000
0000
0000
0100
0000
0100
0000
0100
0000
,
1000
0010
0100
0001
0010
0100
1000
0010
0001
1000
0100
0001
,
1000
0000
0000
0100
0000
0000
0010
0000
0000
0001
0000
0000
0100
0000
0000
0001
0000
0000
0010
0000
0010
0000
0010
0000
,
0100
0000
0000
1000
0000
0000
0010
0000
0000
0100
0000
0000
1000
0000
0000
0100
0000
0000
0010
0000
0010
0000
0020
0000
,
1000
0001
0000
0100
0000
0000
0001
0100
0000
1000
0000
0000
,
0100
0000
0000
0000
0001
0000
0000
0000
0000
0000
0000
0000
0100
0000
0000
0000
1000
0000
0000
0000
0000
0000
0000
0000
0001
0000
0000
0000
0000
0000
0030
0000
0000
0000
0000
0000
0100
0000
0000
0001
0000
0000
1000
0000
0000
0010
0000
0000
,
1000
0000
0000
0100
0000
0000
1000
0000
0000
0010
0000
0000
0100
0000
0000
0001
0000
0000
1000
0000
0010
0000
1000
0000
,
0010
0000
0000
0100
0000
0000
0010
0000
0000
1000
0000
0000
0001
0000
0000
0010
0000
0000
0100
0000
1000
0000
0100
0000
,
1000
0001
0100
0001
0010
0100
1000
0100
,
0010
0000
0000
0000
0000
0000
0001
0000
0000
0100
0000
0000
0010
0000
0000
0000
0000
0000
0100
0000
0000
0000
0000
0000
0001
0000
0000
0000
0000
0000
1000
0000
0000
0000
0000
0000
0010
0000
0000
0000
1000
0000
0000
0000
0100
0000
0000
0000
,
0010
0001
0010
0011
0000
0000
0001
0100
0010
1010
0000
0000
,
1000
0100
0010
0011
0000
0000
0001
1000
0010
0110
0000
0000
,
1002
0000
0000
0000
0100
0000
0000
0003
,
0010
0100
0010
0100
1000
0100
1000
0010
1000
0010
0100
0001
1000
0001
0010
0100
,
1000
0000
0000
0000
,
1001
0000
0000
0000
,
0001
0000
0100
0000
0001
0000
0010
0000
0100
0000
0000
0000
1000
0000
1100
0000
0000
0000
0000
0000
0000
0000
0010
1000
0100
0000
0010
0000
0001
0000
0100
0000
,
0010
0000
1000
0000
0001
0000
0010
0000
0001
0000
0000
0000
1000
0000
1010
0000
0000
0000
0000
0000
0000
0000
0100
1000
0001
0000
0100
0000
0010
0000
1000
0000
,
0001
0000
0010
0000
0001
0000
0100
0000
0010
0000
0000
0000
0100
0000
0101
0000
0000
0000
0000
0000
0000
0000
0010
1000
0001
0000
0100
0000
0001
0000
1000
0000
,
0010
0000
0100
0000
0001
0000
1000
0000
0100
0000
0000
0000
0010
0000
0011
0000
0000
0000
0000
0000
0000
0000
0010
0001
1000
0000
0100
0000
1000
0000
0010
0000
,
0100
0000
0001
0000
1000
0000
0010
0000
1000
0000
0000
0000
0001
0000
0101
0000
0000
0000
0000
0000
0000
0000
0010
0001
0100
0000
0010
0000
0001
0000
0010
0000
,
1000
0000
0100
0000
1000
0000
0010
0000
1010
0000
0000
0000
1000
0000
0001
0000
1000
0000
0000
0000
1000
0000
0010
1000
1100
0000
0100
0000
1000
0000
0001
0000
,
2000
0000
0002
0000
0000
3000
0000
0000
0000
0000
0200
0000
0003
0000
0000
0000
0000
0000
1300
0000
1000
0000
0000
0000
0100
0000
0000
0000
0010
0000
0000
0000
,
0001
0010
1000
0001
0100
1000
0010
0100
,
0010
0000
1000
0001
0100
0001
0010
0100
1000
0010
1000
0000
0001
0000
0100
0000
,
0001
1000
0100
0010
0001
0100
0010
1000
,
0100
0000
1000
0001
0010
0100
1000
0001
0100
0001
0010
0000
0001
0000
0100
0000
,
1000
0001
0010
1000
0001
0010
0100
1000
,
0100
0000
0010
0001
1000
0010
0100
0001
0010
0100
1000
0000
0001
0000
0010
0000
,
0100
1000
1100
0000
0001
0000
0100
0000
0001
0100
0101
0000
0000
0000
1001
0000
,
0000
0000
0010
0100
0001
1000
0100
0001
0100
0010
0001
0000
0100
0000
0001
0000
,
1000
0100
0010
0000
0001
0000
1000
0000
0100
0000
0200
0000
0010
0000
0010
0000
,
0310
0000
0100
1000
0010
0100
0001
0010
0001
0100
0010
0000
1000
0000
0001
0000
,
1000
0001
0010
0000
0100
0000
1000
0000
0001
0000
0002
0000
0100
0000
0100
0000
,
0103
0000
0001
1000
0100
0010
0001
0100
0010
1000
0001
0000
0100
0000
0001
0000
,
0010
0100
1000
0000
0100
0000
0010
0000
0001
0100
0010
0000
0100
0000
0001
0000
,
0010
0100
1000
0000
0010
0000
0100
0000
0010
1000
0001
0100
0001
0100
0010
1000
,
0001
0010
0100
1000
0100
1000
0010
0100
0001
1000
0100
0010
0100
0010
0001
1000
,
0100
1000
0010
0100
0001
0100
0010
0001
0010
0100
0020
0000
0000
0000
0000
0000
,
0000
0000
0000
0100
0100
0100
0100
0000
,
0030
0000
1000
0001
0100
0000
0001
1000
0200
0000
0010
0000
0010
0000
0010
0000
,
0310
0000
0001
1000
0001
1000
0001
0100
0000
0000
0000
0000
0000
0000
0000
0000
,
0000
0000
0000
0010
1000
0001
0000
1000
0000
0000
0000
0010
0000
0010
0000
0010
,
0000
0011
0000
0000
0000
0000
0000
0010
0000
0010
0000
0010
0000
1010
0000
0000
,
0000
0000
0000
0001
0010
0001
0000
0100
0001
0200
0000
0010
0000
0010
0000
0010
,
0000
0310
0000
1000
0100
1000
0100
1000
0001
0000
0000
0000
0010
1000
0010
0000
,
0001
1000
0001
0000
0100
0001
0100
0010
1000
0001
0100
0001
0010
0100
1000
0010
,
0100
0001
0100
0001
1000
0100
1000
0001
0010
0100
1000
0001
0100
0000
0100
0000
,
0010
0100
0001
0010
0100
0000
0100
0000
0000
0000
0000
0000
0000
0000
0000
0000
,
0000
0000
0000
0000
0100
1000
0010
0100
0001
1000
0100
0010
0100
0001
0100
0010
,
0100
0000
0000
0220
,
0000
0000
0000
0000
,
0000
0000
0000
0000
,
0000
0000
0000
0000
,
0000
0000
0000
0000
,
0000
0330
0000
0000
;
