#TITLE:Aortic Pressure Valve;
#SUBTITLE:Full Version;
#ARTIST:bye2;
#TITLETRANSLIT:;
#SUBTITLETRANSLIT:;
#ARTISTTRANSLIT:;
#GENRE:;
#CREDIT:;
#MUSIC:Aortic Pressure Valve.ogg;
#BANNER:Aortic Pressure Valve-bn.png;
#BACKGROUND:Aortic Pressure Valve-bg.png;
#CDTITLE:;
#SAMPLESTART:86.187;
#SAMPLELENGTH:13.771;
#SELECTABLE:YES;
#OFFSET:0.460;
#BPMS:0.000=90.011
,50.000=180.023
,814.000=180.022
,848.000=90.011
,869.500=180.022
,1045.500=45.005
;
#STOPS:241.979=0.432
,403.979=0.432
;
#BGCHANGES:0.688=Aortic Pressure Valve-video.mp4=1.000=0=0=1==Aortic Pressure Valve-video.mp4===,
99999.000=-nosongbg-=1.000=0=0=0=StretchNoLoop====
;
#FGCHANGES:;

//--------------- dance-single - Sparks ----------------
#NOTES:
     dance-single:
     Sparks:
     Hard:
     16:
     0.697083,0.965751,0.501689,0.102978,0.470003,1848,1658,190,39,16,0,0.697083,0.965751,0.501689,0.102978,0.470003,1848,1658,190,39,16,0:
0000
0000
0000
0000
,
0000
0000
0000
0000
,
0000
0000
0000
0000
,
0000
0000
0000
0000
,
0000
0000
0000
0000
,
0000
0000
0000
0000
,
0000
0000
0000
0000
,
0000
0000
0000
0000
,
0000
0000
0000
0000
0000
0000
0000
0000
1000
0000
0000
0000
0000
0000
0000
0100
,
0000
0000
0000
0000
0000
0010
0010
0000
0100
0000
0000
0000
0000
0000
0000
1000
,
0000
0000
0000
0000
0000
0001
0001
0000
0100
0000
0000
0000
0000
0000
0000
0010
,
0000
0000
0000
0000
0000
0100
0100
0000
0001
0000
0000
0000
0000
0000
0000
1000
,
0000
0000
0000
0000
0000
0100
0100
0000
1000
0000
0001
0000
0100
0000
0010
1000
,
0001
0010
0100
0000
1000
0000
1002
0000
0000
0000
0013
0000
0000
0000
0100
0000
,
0000
0000
1000
0000
0010
0000
0000
0000
0100
0000
0010
0000
1000
0000
0001
0100
,
0010
1000
0100
0000
0010
0000
0001
0000
0100
0000
0010
0000
1000
0000
0100
0000
,
0001
0000
0100
0000
0010
0000
0010
0000
0010
0000
0001
0000
1000
0000
0100
1000
,
0001
0100
0010
0000
1000
0000
1020
0000
0000
0000
0130
0000
0000
0000
0001
0000
,
0000
0000
1000
0000
0100
0000
0000
0000
0010
0000
0100
0000
1000
0000
0001
0010
,
0100
1000
0001
0000
0100
0000
0010
0000
1000
0000
0100
0000
0001
0000
0100
0000
,
0010
0000
0001
0000
0100
0000
0100
0000
0100
0000
0010
0000
1000
0000
0001
0100
,
0010
0100
0001
0000
0010
0000
0012
0000
0000
0000
0103
0000
0000
0000
0010
0000
,
0000
0000
1000
0000
0100
0000
0010
0000
0001
0000
1000
0000
0100
0000
1000
0001
,
0100
0010
0100
0000
0001
0000
1000
0000
0010
0000
0000
0000
0100
0000
0020
0000
,
0000
0000
0000
0000
1000
0000
1000
0000
1030
0000
0001
0000
0100
0000
0010
0100
,
0001
1000
0100
0000
0010
0000
0021
0000
0000
0000
0130
0000
0000
0000
1000
0000
,
0000
0000
0010
0000
0100
0000
0010
0000
1000
0000
0001
0000
0100
0000
0010
1000
,
0100
0010
0001
0000
0010
0000
0100
0000
1000
0000
0000
0000
0001
0000
0010
0000
,
0000
0000
0000
0000
MMMM
0000
0000
0000
1001
0000
0100
0000
0010
0000
0001
0100
,
0010
1000
0001
0000
0010
0000
0210
0000
0000
0000
1300
0000
0000
0000
0001
0000
,
0000
0000
0100
0000
0010
0000
0000
0000
0100
0000
0010
0000
1000
0000
0001
1000
,
0001
0010
0100
0000
1000
0000
0100
0000
0010
0000
0001
0000
0100
0000
0010
0000
,
1000
0000
0001
0000
0010
0000
0010
0000
0010
0000
0001
0000
0100
0000
0010
1000
,
0001
1000
0100
0000
0010
0000
0012
0000
0000
0000
0103
0000
0000
0000
0010
0000
,
0000
0000
1000
0000
0100
0000
0000
0000
1000
0000
0100
0000
0010
0000
0001
0100
,
0010
1000
0001
0000
0010
0000
0100
0000
1000
0000
0001
0000
0100
0000
0010
0000
,
0100
0000
0001
0000
1000
0000
1000
0000
1000
0000
0100
0000
0010
0000
0001
1000
,
0100
0010
0100
0000
1000
0000
2001
0000
0000
0000
3010
0000
0000
0000
0100
0000
,
0000
0000
0001
0000
0100
0000
0100
0000
0100
0000
0010
0000
1000
0000
0001
0010
,
0100
0010
0001
0000
1000
0000
0100
0000
0010
0000
0000
0000
0010
0000
0022
0000
,
0000
0000
0000
0000
0033
0000
0100
0000
0100
0000
0010
0000
0001
0000
1000
0010
,
0001
0010
0100
0000
0001
0000
0102
0000
0000
0000
0013
0000
0000
0000
0100
0000
,
0000
0000
1000
0000
0001
0000
0001
0000
0001
0000
1000
0000
0100
0000
1000
0001
,
0100
0001
0010
0000
0100
0000
1000
0000
1000
0000
0000
0000
0001
0000
0001
0000
,
0000
0000
0000
0000
1001
0000
1000
0100
,
0000
0000
0100
0000
0010
0000
0000
0000
0001
0000
1000
0000
0010
0100
0010
1000
,
0010
0000
0000
0000
1010
0000
0000
0000
1000
0000
1000
0001
0000
0001
1000
0000
,
0100
0010
0001
0100
0010
0010
0100
0001
,
1000
0000
0000
0000
0000
0000
1000
0000
0000
0000
0000
0000
0010
0000
0000
0000
0000
0000
0100
0000
0000
0000
0000
0000
0001
0000
0000
0010
0000
0000
0100
0000
0000
1000
0000
0000
0001
0000
0000
0000
0000
0000
0100
0000
0000
0000
0010
0000
,
1000
0000
0000
0001
0000
1000
0100
0000
0000
0010
0000
0000
0001
0000
0000
0011
0000
0000
1001
0000
0000
0000
0000
0000
,
1010
0000
1010
0000
0100
0010
0100
0010
1000
0000
0100
0000
0001
0000
0100
1000
,
0001
0000
0100
0000
0010
0000
0100
0010
1000
0100
0001
0000
0100
0000
0010
0001
,
0010
0001
0101
0100
0010
0000
1000
1100
,
0100
0010
0100
0010
0001
0010
0001
0010
1000
0000
1010
0000
0011
0000
1001
0000
,
0101
0000
0000
0110
0000
0000
1010
0000
0000
0000
0000
0000
0001
0000
0000
0001
0000
0000
1000
0000
0000
0100
0010
0001
,
1000
0000
0010
0000
0100
0000
0000
0000
0001
0100
0001
0000
1000
0100
1000
0000
,
0010
0000
0010
0000
0110
0000
0000
0000
1000
0001
0100
0010
1000
0100
0010
0000
,
0001
0010
0001
0010
0001
0000
0000
0000
1000
0000
1000
0100
0010
0000
0001
0000
,
0011
0000
0011
0000
0001
0000
0001
0100
,
0000
0000
0100
0000
0010
1000
0001
0010
0100
0000
0010
0000
1000
0000
0010
0000
,
0001
0000
1000
0000
1000
0001
0100
0010
1000
0000
1000
0000
0000
0000
0000
0000
,
0001
0000
0001
0000
0000
0000
0100
0000
0000
0010
0000
0000
1000
0000
0001
0010
,
0001
0000
1100
0000
0010
0010
0000
0000
,
0100
0000
0100
0000
0000
0000
0001
0000
0000
0100
0000
0000
0010
0000
1000
0001
,
1000
0000
0100
0000
0010
0010
0000
0000
,
0001
0000
0001
0000
0000
0000
1000
0000
0000
0010
0000
0000
0100
0000
0001
0010
,
0100
0000
1000
0000
0001
0010
0100
1000
,
1010
0000
0000
0110
0000
0000
0101
0000
0000
0000
1100
0000
0000
0000
0011
0000
,
0000
1001
0000
0000
0010
0100
0000
0000
,
0001
0000
0010
0000
0000
0000
1100
0000
0000
0101
0000
0000
0110
0000
0010
1000
,
0001
0000
1000
0000
0100
0010
0000
0000
,
0001
0000
0100
0000
0000
0000
1010
0000
0000
0110
0000
0000
0101
0000
0001
0010
,
0100
0000
1000
0000
0100
1000
0000
0000
,
0100
0000
0001
0000
0000
0000
0110
0000
0000
0011
0000
0000
1010
0000
1000
0010
,
0001
0000
0100
0000
0010
0001
0100
0001
,
0101
0000
0000
1001
0000
0000
1100
0000
0000
0000
1010
0000
0000
0000
0011
0000
,
0000
0102
0100
0203
0010
0320
1000
1030
,
0001
0010
1000
0001
0100
1000
0001
0001
,
1000
0010
0001
1000
0100
0001
1000
1000
,
0001
0100
0010
0001
0010
1000
0001
0001
,
1000
0100
0010
1000
0010
0001
1000
1000
,
0001
0010
0001
1000
0010
1000
0100
0100
,
0010
0001
0010
0100
1000
0100
0001
0001
,
0100
1000
0010
0100
0001
0010
1000
1000
,
0010
0001
0100
0010
1000
0100
0010
0000
,
1001
0000
1001
0000
0001
0100
0010
1000
0100
0000
0100
0000
0010
0000
0110
0000
,
0000
0011
0000
0000
1010
0000
0010
0001
0200
0000
0000
0000
0310
0000
0000
0000
,
1000
1000
0010
0100
0001
0001
0100
0110
,
0000
1010
0000
0000
1100
0000
0100
0010
0001
0000
0000
0000
0010
0000
0000
0000
,
0010
0000
0010
0001
0000
0001
1000
0010
0100
0000
0100
0000
0001
0000
0101
0000
,
0000
1001
0000
0000
1100
0000
0100
0010
0001
0000
0000
0000
1000
0100
1000
0100
,
1000
0000
0010
0000
0100
0001
0100
0001
0100
0010
1000
0000
0100
0000
1100
0000
,
0000
0000
0101
0000
0000
0000
0110
0000
0000
0000
0011
0000
0001
1000
0010
1000
,
0001
0001
0100
0010
1000
1000
0010
1010
,
0000
0011
0000
0000
0110
0000
0010
0100
0001
0000
0000
0000
1001
0000
0000
0000
,
1000
0001
0100
0010
1000
0100
0010
0001
1000
0000
0010
0000
0100
0000
0101
0000
,
0000
1001
0000
0000
1010
0000
1000
0100
0010
0000
0000
0000
0001
0000
0000
0000
,
0001
0000
1000
0010
0000
1000
0001
0010
0100
0000
0100
0000
1000
0001
0100
0010
,
1000
0000
0100
0000
0010
0000
0001
0100
0001
0000
0000
0000
0001
0100
0001
0100
,
0010
0000
1000
0000
0100
0010
0100
0010
0001
0000
0000
0101
0000
0000
1100
0000
,
0000
0110
0000
0011
0000
0101
0000
0000
,
1000
0000
0001
0100
0010
1000
0100
0000
0100
0010
0001
1000
,
0100
0000
0100
1000
0010
0100
0001
0000
0001
0100
0010
1000
,
0001
0000
0001
0010
0100
1000
0010
0000
0010
0100
0001
1000
,
0010
0000
1000
0000
0100
0000
0001
0000
0100
0000
0010
0100
0010
0000
0000
0000
0000
0000
0011
0000
0000
0000
0000
0000
,
0001
0000
1000
0001
0100
0010
1000
0000
1000
0100
0010
0001
,
0100
0000
0100
0001
1000
0100
0010
0000
0010
0100
1000
0001
,
0010
0000
0010
0001
1000
0010
0100
0000
0100
0010
1000
0100
,
0010
0000
0001
0000
1000
0000
0010
0000
0100
0000
0001
1000
0001
0000
0000
0000
0000
0000
1001
0000
0000
0000
0000
0000
,
1000
0010
0000
1000
0000
0100
0010
0001
0000
1000
0000
0000
,
1001
0000
0101
0000
0011
0000
MMMM
0000
0000
0000
0000
0000
,
0010
0100
0000
0001
0000
1000
0400
0000
0000
0000
0000
0000
,
0310
0001
0000
1000
0000
0001
0010
0100
1000
0010
0000
0000
,
1010
0000
0110
0000
0101
0000
0001
0010
0100
1000
0000
0000
,
1100
0000
0110
0000
0011
0000
0001
0100
0010
1000
0000
0000
,
1100
0000
0101
0000
0110
0000
1000
0010
1000
0001
0010
0001
,
0100
0000
0000
0010
0000
0000
0100
0000
0000
0010
0000
0000
1000
0000
0000
0000
0100
0000
0000
0000
1000
0000
0000
0000
0001
0000
0000
0000
0100
0000
0000
0000
0001
0000
0000
0000
0010
0000
0000
0000
0000
0000
0000
0000
0000
0000
0000
0000
,
MMMM
0000
0000
0000
,
0000
0000
0000
0000
0000
2000
0000
0000
,
0000
0000
0000
0000
,
0000
0000
0000
0000
,
0000
0000
0200
0000
,
0000
0000
0000
0000
,
0000
0000
0000
3000
,
0002
0000
0000
0000
,
0000
0000
0000
0300
,
0020
0000
0000
0000
,
0003
0000
2000
0000
0000
0030
0000
0001
,
0002
0000
0000
0000
,
0000
0000
0000
3000
,
0020
0000
0003
0200
,
0000
0000
0000
0330
,
0100
0000
0010
0000
0001
0000
0100
0010
1000
0000
0001
0000
0100
0000
0000
0000
,
0001
0000
0100
0000
0010
1000
0100
0010
0001
0000
1000
0000
0100
0000
0000
0000
,
0010
0000
0010
0010
0000
0010
0010
0000
,
0001
0000
1001
0000
0010
0000
0200
0001
,
0301
0000
1000
0000
0100
0000
1000
0001
0010
0000
0100
0000
1000
0000
0000
0000
,
0010
0000
0100
0000
0010
1000
0010
0001
0010
0000
0100
0000
0001
0000
0000
0000
,
0100
0000
0100
0100
0000
0100
0100
0000
,
0100
0000
0100
0000
0010
1000
0001
0010
0100
0000
0100
0000
0110
0000
0000
0000
,
0010
0000
0001
0000
1000
0000
0010
0100
0001
0000
1000
0000
0100
0000
0000
0000
,
0010
0000
0100
0000
1000
0001
0100
0001
0010
0000
0100
0000
1000
0000
0000
0000
,
0001
0000
0001
0001
0000
0001
0001
0000
,
1000
0000
1001
0000
0001
0000
0200
0010
,
0310
0000
1000
0000
0001
0000
0100
0001
0010
0000
0100
0000
1000
0000
0000
0000
,
0001
0000
0010
0000
0100
0010
0001
1000
0010
0000
0100
0000
0001
0000
0000
0000
,
1000
0000
1000
1000
0000
1000
1000
0000
,
1000
0000
1000
0000
0001
0100
0010
1000
0001
0000
0001
0000
0101
0000
0000
0000
,
0010
0000
0100
0000
1000
0000
0010
0100
0001
0000
1000
0000
0010
0000
0000
0000
,
1000
0000
0010
0000
0100
0001
0010
0100
1000
0000
0001
0000
0010
0000
0000
0000
,
0100
0000
0100
0100
0000
0100
0100
0000
,
1000
0000
1001
0000
0100
0000
0020
1000
,
1030
0000
0001
0000
0010
0000
0001
1000
0100
0000
0010
0000
0001
0000
0000
0000
,
0100
0000
0010
0000
0100
0001
0100
1000
0100
0000
0010
0000
1000
0000
0000
0000
,
0010
0000
0010
0010
0000
0010
0010
0000
,
0010
0000
0010
0000
0100
0001
1000
0100
0010
0000
0010
0000
0110
0000
0000
0000
,
0100
0000
1000
0000
0001
0000
0100
0010
1000
0000
0001
0000
0010
0000
0000
0000
,
0100
0000
0010
0000
0001
1000
0010
1000
0100
0000
0010
0000
0001
0000
0000
0000
,
1000
0000
1000
1000
0000
1000
1000
0000
,
0001
0000
1001
0000
1000
0000
0020
0100
,
0130
0000
0001
0000
1000
0000
0010
1000
0100
0000
0010
0000
0001
0000
0000
0000
,
1000
0000
0100
0000
0010
0100
1000
0001
0100
0000
0010
0000
1000
0000
0000
0000
,
0001
0000
0001
0001
0000
0001
0001
0000
,
0001
0000
0001
0000
1000
0010
0100
0001
1000
0000
1000
0000
1001
0000
0000
0000
,
1000
0000
0001
1000
0100
0010
0001
0000
,
1000
0000
0010
0000
0000
0000
0100
0001
0010
0000
0000
0000
0100
0000
1000
0000
,
0001
0000
0100
0010
0000
1000
0000
0000
,
1100
0000
0101
0000
0000
0011
0000
0001
,
0100
0010
1000
0100
0000
1000
0100
0010
,
0001
0000
0000
0000
1000
0100
0010
0000
0000
0000
0001
0010
0100
0000
0000
0000
,
1000
0010
0000
1000
0010
0100
0001
0000
,
0010
0000
0100
0000
0000
0000
1000
0001
0100
0000
0000
0000
0001
0000
1000
0000
,
0100
0000
0010
0001
1000
0010
0100
0000
,
0001
0000
0010
0000
0000
0000
0100
0010
0001
0000
0000
0000
0100
0000
0010
0000
,
1000
0000
0001
1000
0000
0001
0000
0000
,
1010
0000
0110
0000
0000
0101
0000
0001
,
0010
0100
1000
0001
0000
0010
1000
0100
,
0010
0000
0000
0000
0001
0010
0100
0000
0000
0000
1000
0001
0100
0000
0000
0000
,
0001
0010
0000
0100
1000
0001
0100
0000
,
0010
0000
1000
0000
0000
0000
0010
0100
0001
0000
0000
0000
1000
0000
0001
0000
,
0010
0000
0100
1000
0001
0100
0010
0000
,
1000
0000
0001
0000
0000
0000
0100
0001
0010
0000
0000
0000
0001
0000
0010
0000
,
0100
0000
1000
0001
0000
0100
0000
0000
,
1001
0000
0101
0000
0000
0011
0000
0001
,
0100
0010
1000
0001
0000
1000
0100
0010
,
0001
0000
0000
0000
1000
0100
0010
0000
0000
0000
0001
0010
0100
0000
0000
0000
,
0001
1000
0000
0010
0001
0100
0010
0000
,
1000
0000
0100
0000
0000
0000
1000
0001
0100
0000
0000
0000
0001
0000
0100
0000
,
0010
0000
1000
0001
0010
0100
1000
0000
,
0001
0000
1000
0000
0000
0000
0010
1000
0100
0000
0000
0000
0010
0000
0001
0000
,
1000
0000
0001
0100
0000
0010
0000
0000
,
1000
0000
0001
0000
0000
0001
0000
0100
,
0010
1000
0001
0010
0000
0001
1000
0010
,
0100
0000
0000
0000
0010
1000
0001
0000
0000
0000
1000
0001
0010
0000
0000
0000
,
0100
1000
0000
0100
0010
0001
1000
0000
,
0010
0000
1000
0000
0000
0000
0010
0100
0001
0000
0000
0000
1000
0000
0100
0000
,
2000
0000
0100
0100
0000
0010
0010
0000
,
3100
0000
0010
0000
0001
1000
0010
0100
0010
0000
1000
0000
0001
0000
0000
0000
,
0002
0000
1000
1000
0000
1000
1000
0000
,
0013
0000
0200
0000
0001
0000
1300
0010
,
0020
0000
1000
1000
0000
0001
0001
0000
,
0130
0000
0010
0000
1000
0001
0010
0100
0010
0000
0001
0000
1000
0000
0000
0000
,
2000
0000
0100
0100
0000
0001
3002
0000
,
0100
0100
1000
0000
0010
0000
0100
0000
,
0023
0000
0001
0001
0000
1000
1000
0000
,
0130
0000
0010
0000
0001
1000
0010
0100
0001
0000
0010
0000
0100
0000
0000
0000
,
0200
0000
0010
0010
0000
1000
1000
0000
,
0301
0000
2000
0000
0100
0000
0001
3010
,
0020
0000
0100
0100
0000
1000
1000
0000
,
0130
0000
0001
0000
1000
0100
0001
0100
0010
0000
0001
0000
0100
0000
0000
0000
,
0200
0000
0001
0001
0000
0010
0320
0000
,
0100
0100
1000
0000
0001
0000
0100
0030
,
MMMM
0000
0000
0000
,
0000
0000
0000
0000
,
0000
0000
0000
0000
,
0000
0000
0000
0000
0000
0000
0000
0000
0000
0000
0000
0000
0001
0000
0000
0001
0000
0000
1000
0000
0000
1000
0000
0000
0010
0000
0100
0000
0001
0000
0010
0001
,
0000
0000
1000
0000
0000
0100
0000
0000
0010
0000
0001
0000
1000
0000
0000
1000
0000
0000
0010
0000
0000
0010
0000
0000
0100
0000
0010
0000
1000
0000
0001
1000
,
0000
1001
0000
0000
0000
0000
0011
0000
0000
1100
0000
0000
1010
0000
0000
0101
,
0000
0000
0100
0000
0010
0000
1000
0000
0100
0010
0000
0000
0001
0000
0000
0100
,
0000
0000
0010
0000
1000
0000
1010
0000
0000
0110
0000
0000
1001
0000
0000
0011
,
0000
0000
0100
0000
1000
0000
0001
0000
0100
0010
0000
0000
1000
0000
0000
0001
,
0000
0000
0010
0000
0100
0000
1100
0000
0000
1100
0000
0000
0011
0000
0000
0011
,
0000
0000
1000
0000
0010
0000
0100
0000
0001
1000
0000
0000
0100
0000
0000
0001
,
0000
0000
0100
0000
0010
0000
0011
0000
0000
0101
0000
0000
1100
0000
0000
1010
,
0000
0000
0100
0000
0010
0000
0001
0000
1000
0010
0000
0000
0100
0000
0000
0001
,
0000
0000
1000
0000
0100
0000
1100
0000
0000
0011
0000
0000
1010
0000
0000
1100
,
0000
0000
0010
0000
0100
0000
0001
0000
1000
0100
0000
0000
0010
0000
0000
0001
,
0000
0000
0100
0000
0001
0000
0101
0000
0000
1100
0000
0000
1001
0000
0000
0011
,
0000
0000
0010
0000
0001
0000
1000
0000
0001
0100
0000
0000
0010
0000
0000
1000
,
0000
0000
0100
0000
0010
0000
0011
0000
0000
1010
0000
0000
1100
0000
0000
0101
,
0000
0000
0001
0000
0100
0000
0010
0000
1000
0001
0000
0000
0010
0000
0000
0001
,
0000
0000
0010
0000
0100
0000
1100
0000
0000
0110
0000
0000
1001
0000
0000
0101
,
0000
0000
0010
0000
1000
0000
0001
0000
1000
0100
0000
0000
0010
0000
0000
0001
,
0000
0000
1000
0000
0010
0000
1010
0000
0000
0101
0000
0000
0011
0000
0000
1100
,
0000
0000
0100
0000
0010
0000
0001
0000
0100
0010
0000
0000
1000
0000
0000
0100
,
0000
0000
0010
0000
0001
0000
0011
0000
0000
0110
0000
0000
1001
0000
0000
1010
,
0000
0000
0100
0000
0001
0000
1000
0000
0100
0010
0000
0000
0001
0000
0000
1000
,
0000
0000
0010
0000
0100
0000
0101
0000
0000
0101
0000
0000
1010
0000
0000
1010
,
0000
0000
0001
0000
0010
0000
0100
0000
1000
0001
0000
0000
0100
0000
0000
1000
,
0000
0000
0100
0000
0010
0000
1010
0000
0000
1100
0000
0000
0101
0000
0000
0011
,
0000
0000
0100
0000
0010
0000
1000
0000
0001
0010
0000
0000
0100
0000
0000
1000
,
0000
0000
0001
0000
0100
0000
0101
0000
0000
1010
0000
0000
0011
0000
0000
0101
,
0000
0000
0010
0000
0100
0000
1000
0000
0001
0100
0000
0000
0010
0000
0000
1000
,
0000
0000
0100
0000
1000
0000
1100
0000
0000
0101
0000
0000
1001
0000
0000
1010
,
0000
0000
0010
0000
1000
0000
0001
0000
1000
0100
0000
0000
0010
0000
0000
0001
,
0000
0000
0100
0000
0010
0000
1010
0000
0000
0011
0000
0000
0101
0000
0000
1100
,
0000
0000
1000
0000
0100
0000
0010
0000
0001
1000
0000
0000
0010
0000
0000
1000
,
0000
0000
0010
0000
0100
0000
0101
0000
0000
0110
0000
0000
1001
0000
0000
1100
,
0000
0000
0010
0000
0001
0000
1000
0000
0001
0100
0000
0000
0010
0000
0000
1000
,
0000
0001
0010
0011
0000
0000
0011
0000
,
0000
0011
0011
1100
0000
0000
1100
0000
,
0000
0000
1100
0000
1100
0000
0010
0000
0000
0001
0000
0000
1000
0000
0010
0000
,
0000
0000
0000
0000
0000
0000
1000
0000
0000
0000
0000
0000
0000
0000
0000
0000
0000
0000
0001
0000
0000
0000
0100
0000
0000
0000
0010
0000
0000
0000
1000
0000
0000
0000
0000
0000
0100
0000
0000
0000
0000
0000
0000
0000
0000
0010
0000
0000
,
0000
0000
0100
0000
1000
0000
0001
0000
0000
0100
0000
0000
0010
1000
0000
1001
,
0000
0000
0100
0001
0000
0000
0010
0000
0100
0010
0000
0000
0100
0000
1000
0100
,
0000
0000
1000
0000
1000
0000
0100
0000
0000
1000
0000
0000
0001
0000
0100
0000
,
0000
0000
0000
0000
0000
0000
0010
0000
0000
0000
0000
0000
0000
0000
0000
0000
0000
0000
1000
0000
0000
0000
0001
0000
0000
0000
0010
0000
0000
0000
0100
0000
0000
0000
0000
0000
0010
0000
0000
0000
0000
0000
0000
0000
0000
0100
0000
0000
,
0000
0000
0010
0000
0100
0000
1000
0000
0000
0010
0000
0000
0100
0001
0000
0011
,
0000
0000
0010
0001
0000
0000
0100
0000
0010
1000
0000
0000
0001
0000
1000
0100
,
0000
0010
0010
0011
0000
0000
0101
0000
,
0000
1100
1100
1100
0000
0000
1010
0000
,
0000
0011
0011
0000
0000
0000
0000
0000
;
