#TITLE:Angel Blade;
#SUBTITLE:Short Version;
#ARTIST:Nfract;
#MUSIC:Angel Blade.ogg;
#BANNER:Angel Blade-bn.png;
#BACKGROUND:Angel Blade-bg.png;
#LYRICSPATH:;
#CDTITLE:;
#SAMPLESTART:103.191002;
#SAMPLELENGTH:12.173000;
#OFFSET:-0.004233;
#BPMS:0.000000=186.063004;
#STOPS:;
#TIMESIGNATURES:;
#BGCHANGES:;
#FGCHANGES:;
#ATTACKS:;
#SPEEDS:;
#SCROLLS:;
#DISPLAYBPM:186.000000;
#KEYSOUNDS:;

//---------------dance-single - Sparks---------------
#NOTES:
     dance-single:
     Sparks:
     Hard:
     15:
     0.778706,1.007819,0.211981,0.375510,0.251349,900.000000,865.000000,35.000000,62.000000,0.000000,0.000000,0.778706,1.007819,0.211981,0.375510,0.251349,900.000000,865.000000,35.000000,62.000000,0.000000,0.000000:
// measure 0
0000
0000
0000
0000
,  // measure 1
0000
0000
0000
0000
,  // measure 2
0000
0000
0000
0000
,  // measure 3
0000
0000
0000
0000
,  // measure 4
0000
0000
0000
0000
,  // measure 5
0000
0000
0000
0000
,  // measure 6
0000
0000
0000
0000
,  // measure 7
0000
0000
0000
0000
,  // measure 8
1000
0100
0010
0100
1000
0001
0100
0010
,  // measure 9
0001
0010
0100
0010
1000
0001
0010
0100
,  // measure 10
1000
0010
0001
0010
1000
0100
0001
0100
,  // measure 11
0010
0000
0001
0000
0100
0000
0001
0000
1000
0000
0010
0000
1000
0100
0000
0000
,  // measure 12
0011
0000
0000
0101
0000
0000
0001
0000
1000
0000
0100
0000
0001
0000
0100
0000
,  // measure 13
1000
0001
1000
0010
0100
1000
0001
0010
,  // measure 14
0100
0001
1000
0100
0010
0001
1000
0010
,  // measure 15
1000
0001
0010
0100
1000
0001
0100
0000
,  // measure 16
0010
1000
0001
0100
0010
1000
0100
0010
,  // measure 17
0001
0100
0010
1000
0001
0010
0100
1000
,  // measure 18
0010
0100
0001
1000
0001
1000
0100
0001
,  // measure 19
0100
0000
1000
0000
0100
0000
1000
0000
0010
0000
0001
0000
0010
1000
0000
0000
,  // measure 20
0110
0000
0000
1010
0000
0000
0001
0000
1000
0000
0100
0000
0010
0000
0001
0000
,  // measure 21
1000
0100
1000
0100
0010
0100
0010
0100
0010
0001
0010
0001
1000
0001
1000
0002
,  // measure 22
0000
0000
1000
0000
2003
0010
0000
0000
,  // measure 23
0000
0000
0100
0100
0000
0000
0000
3000
,  // measure 24
0001
0100
0010
1000
0100
0010
0001
1000
,  // measure 25
1000
0010
0100
0001
1000
0100
0001
0100
,  // measure 26
0100
0010
0001
1000
0100
1000
0010
0100
,  // measure 27
0100
0010
1000
0001
0010
0100
1000
0010
,  // measure 28
0010
0100
0000
0101
0000
0000
0000
0000
1000
0000
0100
0000
0010
0000
0001
0000
,  // measure 29
0001
0010
0100
1000
0001
0100
0010
1000
,  // measure 30
1000
0001
0100
0010
0001
1000
0100
0010
,  // measure 31
0010
1000
0000
0000
1100
0000
0000
0101
0000
0000
0000
0000
0010
0000
0000
0000
,  // measure 32
0001
1000
0100
0100
1000
0010
0100
0001
,  // measure 33
1000
0000
0110
0000
0001
0010
0100
1000
,  // measure 34
0001
0100
0010
1000
0001
0010
0100
0001
,  // measure 35
0100
0000
0101
0000
0001
0100
1000
0010
,  // measure 36
0100
0001
0000
0011
0000
0000
0000
0000
0001
0000
0100
0000
0010
0000
1000
0000
,  // measure 37
0001
0000
0011
0000
0010
0100
1000
0001
,  // measure 38
0100
0010
1000
0100
0001
0100
1000
0001
,  // measure 39
0100
0010
0000
0000
1010
0000
0000
1100
0000
0000
0000
0000
0010
0000
0001
0000
,  // measure 40
1000
0001
0100
0100
0010
1000
0100
0010
,  // measure 41
0001
0000
1001
0000
0010
0100
0001
1000
,  // measure 42
0100
1000
0001
0100
0010
1000
0001
0010
,  // measure 43
0100
0000
1100
0000
0010
0001
1000
0010
,  // measure 44
0100
0010
0000
1010
0000
0000
0000
0000
1000
0000
0100
0000
0010
0000
0001
0000
,  // measure 45
0100
0000
0110
0000
1000
0001
0100
0010
,  // measure 46
1000
0001
0010
0100
1000
0001
0010
0001
,  // measure 47
0100
0010
0000
0000
1010
0000
0000
0101
0000
0000
0000
0000
1000
0000
0010
0000
,  // measure 48
0100
0000
0110
0000
0010
1000
0100
0010
,  // measure 49
0001
1000
0100
1000
0010
0100
0001
1000
,  // measure 50
0010
0001
0010
1000
0001
1000
0100
0010
,  // measure 51
0001
0000
0000
0000
1100
0000
0000
0000
0010
0000
0001
0000
1000
0010
0000
0000
,  // measure 52
0101
0000
0000
1100
0000
0000
0000
0000
0010
0000
0001
0000
0100
0000
0010
0000
,  // measure 53
1000
0000
0101
0000
0010
1000
0100
0010
,  // measure 54
0001
1000
0001
0100
0010
1000
0001
0010
,  // measure 55
0100
0000
0100
0000
0010
0001
1000
0100
0020
0000
0001
0000
0031
0000
0000
0000
,  // measure 56
1000
0002
0003
0200
0300
0020
0030
2000
,  // measure 57
3000
0002
0003
2000
3000
0200
0300
0020
,  // measure 58
0030
0002
0003
2000
3000
0020
0030
0200
,  // measure 59
0300
2000
3000
0002
0003
0020
0030
1000
,  // measure 60
1001
0002
0003
0020
0030
0200
0300
1000
,  // measure 61
0001
0100
0010
0000
1000
0000
0001
1000
0000
1000
0100
0000
0010
0000
0001
1000
,  // measure 62
0010
0100
0001
0000
1000
0000
0100
1000
0000
1000
0001
0000
0100
0000
0010
1000
,  // measure 63
0100
0010
0001
0000
1000
0000
0100
1000
0000
1000
0010
0000
0100
0000
0000
0000
,  // measure 64
0001
0000
1000
0000
0010
0000
0100
0000
0001
0000
0010
0000
0100
1000
0100
0000
,  // measure 65
0010
0000
0100
0000
1000
0000
0001
0000
0010
0000
0001
0000
0100
0010
0100
0000
,  // measure 66
1000
0000
0100
0000
0010
0000
1000
0000
0100
0000
0001
0000
0100
0010
0100
0000
,  // measure 67
0010
0000
0001
0000
0100
0000
0010
0000
1000
0000
0001
0000
0010
0001
0010
0000
,  // measure 68
0100
0000
1000
0000
0010
0000
0100
0000
0001
0000
1000
0000
0010
1000
0010
0000
,  // measure 69
0100
0000
0001
0000
1000
0000
0100
0000
0010
0000
1000
0000
0010
0100
0010
0000
,  // measure 70
0001
0000
0100
0000
0010
0000
1000
0000
0001
0000
0100
0000
0001
0010
0001
0000
,  // measure 71
1000
0000
0100
0000
0010
0000
0001
0000
1000
0000
0001
0000
0100
0010
0100
0000
,  // measure 72
0010
1000
0001
0020
0000
0100
0100
0130
,  // measure 73
0000
0010
0001
1000
0010
0100
0001
1000
,  // measure 74
0100
1000
0001
0020
0000
1000
1000
1030
,  // measure 75
0000
0000
0010
0000
0100
0000
1000
0000
0001
0000
0100
0000
0010
1000
0001
0000
,  // measure 76
0001
0010
0000
0001
0000
0000
0200
0000
0000
0000
0010
0000
0010
0000
0310
0000
,  // measure 77
0000
1000
0100
0010
0100
1000
0001
0100
,  // measure 78
0010
1000
0100
0020
0000
0001
0001
0001
,  // measure 79
0031
1000
0000
0000
0010
0000
0000
0100
0000
0000
0001
0000
0010
0000
0100
0000
,  // measure 80
2000
0001
3002
0200
0303
0010
1000
0100
,  // measure 81
0001
0100
1000
0010
0001
0010
1000
0001
,  // measure 82
0200
0010
0320
2000
3030
1000
0100
0010
,  // measure 83
0001
1000
0010
1000
0001
0100
0010
0100
,  // measure 84
0002
0010
0023
0200
0330
0100
0010
0001
,  // measure 85
0010
1000
0010
0001
1000
0010
0100
0010
,  // measure 86
2000
0001
3002
0200
0303
0010
1000
0001
,  // measure 87
0010
0100
0000
0000
1100
0000
0000
0101
0000
0000
0010
0000
0001
0000
1000
0000
,  // measure 88
0020
0100
0100
0130
0002
1000
1000
1003
,  // measure 89
0200
0010
0310
0002
2003
0100
3100
2000
,  // measure 90
3020
0001
0001
0031
0020
0100
0100
0130
,  // measure 91
0002
1000
1003
0200
0320
0001
0031
2000
,  // measure 92
3200
0010
0010
0310
0002
1000
1000
1003
,  // measure 93
0020
0100
0130
0020
2030
0001
3001
0020
,  // measure 94
0230
1000
1000
1300
0002
0010
0010
0013
,  // measure 95
0002
0100
0103
0020
2030
0001
3002
0013
,  // measure 96
0100
1000
0001
0100
0010
1000
0100
0010
,  // measure 97
0001
0010
1000
0001
0100
1000
0001
0100
,  // measure 98
0010
0100
0001
1000
0010
0100
0001
0010
,  // measure 99
0100
0010
0001
1000
0100
0010
0001
1000
,  // measure 100
0010
1000
0100
0010
0001
0100
1000
0001
,  // measure 101
0010
0001
1000
0100
0001
1000
0100
0001
,  // measure 102
1000
0001
0100
0010
0001
1000
0010
0100
,  // measure 103
0001
0100
0010
1000
0100
0010
0001
1000
,  // measure 104
0010
1000
0100
0010
0001
1000
0010
0100
,  // measure 105
0001
0100
1000
0001
0010
0100
0001
1000
,  // measure 106
0100
1000
0010
0100
0001
0010
0100
1000
,  // measure 107
0001
0000
1000
0000
0100
0000
0010
0000
0001
0000
1000
0000
0010
0100
0000
0000
,  // measure 108
0101
0000
0000
1010
0000
0000
1000
0000
0100
0000
0010
0000
0001
0000
0100
0000
,  // measure 109
0010
0100
0001
1000
0010
0001
0010
0100
,  // measure 110
0001
0100
1000
0001
0010
0100
0001
0010
,  // measure 111
0100
0010
0000
0000
0011
0000
0000
1100
0000
0000
0100
0000
0010
0000
0001
0000
,  // measure 112
1000
0010
1000
0000
0100
0000
0010
0000
0001
0100
0001
0000
1000
0000
0001
0000
,  // measure 113
0010
0100
0010
0000
0001
0000
1000
0000
0100
0010
0100
0000
1000
0000
0001
0000
,  // measure 114
0100
0001
0100
0000
0010
0000
1000
0000
0001
0010
0001
0000
1000
0000
0100
0000
,  // measure 115
0001
0100
0001
0000
0100
0000
0010
0000
0001
1000
0001
0000
0100
0000
0010
0000
,  // measure 116
1000
0010
0000
0101
0000
0000
0011
0000
0001
0010
0001
0000
0010
0001
0010
0000
,  // measure 117
0100
1000
0100
0000
1000
0100
1000
0000
0010
0100
0010
0000
0100
0010
0100
0000
,  // measure 118
0001
0100
0001
0000
1000
0100
1000
0000
0001
0010
0001
0000
1000
0010
1000
0000
,  // measure 119
0100
0010
0000
0000
1001
0000
0000
0110
0000
0000
0001
1000
0010
0100
0001
0010
,  // measure 120
0200
0000
0000
0000
,  // measure 121
0000
0000
0000
0000
,  // measure 122
0000
0000
0000
0000
,  // measure 123
0000
0000
0000
0000
,  // measure 124
0000
0000
0000
0000
,  // measure 125
0000
0000
0000
0000
,  // measure 126
0000
0000
0000
0000
,  // measure 127
0000
0000
0000
0000
,  // measure 128
0300
0000
0000
0000
;
