#TITLE:8OROCHI;
#SUBTITLE:;
#ARTIST:REDALiCE;
#TITLETRANSLIT:;
#SUBTITLETRANSLIT:;
#ARTISTTRANSLIT:;
#GENRE:;
#CREDIT:;
#BANNER:8OROCHI-bn.png;
#BACKGROUND:8OROCHI-bg.png;
#LYRICSPATH:;
#CDTITLE:;
#MUSIC:8OROCHI.ogg;
#OFFSET:-0.251000;
#SAMPLESTART:111.412003;
#SAMPLELENGTH:12.849000;
#SELECTABLE:YES;
#BPMS:0.000000=200.800003
;
#STOPS:
;
#BGCHANGES:;
#KEYSOUNDS:;
#ATTACKS:;

//---------------dance-single - Sparks----------------
#NOTES:
     dance-single:
     Sparks:
     Challenge:
     18:
     0.970914,1.356937,0.763964,0.446847,0.731532,943.000000,837.000000,106.000000,62.000000,0.000000,0.000000,0.970914,1.356937,0.763964,0.446847,0.731532,943.000000,837.000000,106.000000,62.000000,0.000000,0.000000:
0000
0000
0000
0000
,
0000
0000
0000
0000
,
0000
0000
0000
0000
,
0000
0000
0000
0000
,
1000
0100
0010
0001
1000
0100
1000
0010
,
0100
0001
0010
0100
0001
0100
0010
0001
,
1000
0100
1000
0100
1000
0010
1000
0010
0100
0010
0100
0010
0100
0001
0010
0001
,
1000
0100
0010
0001
0100
0010
1000
0001
0100
0010
1000
0100
0010
0100
1000
0001
,
0010
0000
0000
0000
,
1200
0000
0000
0000
0020
0300
0001
0000
0001
0000
0000
0000
0230
0000
1000
0000
,
1000
1000
0300
1010
0000
0101
0000
0000
,
0010
1000
0010
0000
0100
0001
0100
0000
1000
0100
1000
0000
0100
0010
1000
0100
,
0010
0001
0010
0000
0100
1000
0100
0000
0011
0000
2002
0000
3003
0000
0000
0000
,
0210
0000
0000
0000
0002
0300
0010
0000
0010
0000
0000
0000
2000
0003
0100
0000
,
0100
0000
0100
3000
0000
0000
0011
0000
0000
0000
0101
0000
0000
0000
0010
1000
,
0001
0010
0001
0010
0001
0000
0100
0010
0100
0010
0100
0000
1000
0100
1000
0100
,
1000
0100
0001
0000
1000
0000
0001
0000
1001
0000
2002
0000
3003
0000
0000
0000
,
1000
0100
0100
0001
0010
0000
0100
0000
1000
0000
0100
0000
0010
0000
0001
0000
,
1000
0001
0100
0010
0001
0010
1000
0100
,
0010
0001
1000
0000
0100
0000
1000
0000
0010
1000
0001
0000
0100
0000
0010
0000
,
1000
0100
1000
0000
0001
0100
0001
0000
0010
0100
1000
0010
0100
0000
0000
0000
,
0001
0100
0010
0100
0001
0010
0100
1000
,
0010
0000
0100
0000
0001
0000
0100
0000
0010
0000
1000
0000
0001
0000
1000
0010
,
0100
0010
0100
0010
0100
0000
0001
1000
0001
1000
0001
0000
1000
0010
1000
0010
,
1000
0001
0010
0000
0100
0000
0010
0000
0110
0000
0220
0000
0330
0000
0000
0000
,
2002
0000
0000
0000
,
0000
0000
0000
0000
0000
0000
0000
0003
,
0200
0000
0000
0000
0000
0000
0000
0300
,
0010
0010
0010
0000
0001
0000
0002
3000
,
0100
0000
0020
0003
1000
0000
0100
0030
,
2000
0000
0010
0000
0200
3000
0001
0000
,
0020
0300
0001
0000
1000
0000
0001
0030
,
1000
0010
0100
0001
0010
0100
1000
0001
,
1001
1002
0003
1100
2100
3000
0101
0201
,
0000
0300
1100
0000
1200
0000
0000
0300
0100
0010
1000
0001
0100
0001
0010
0000
,
1100
0000
2100
0000
0000
3000
1001
0000
1001
0000
0000
0000
0110
0000
0120
0000
,
0000
0030
0011
0000
0011
0000
0000
0000
0100
0000
0010
1000
0001
0000
1000
0000
,
0011
1001
0001
0110
1010
1000
1100
1002
,
0103
0000
0010
1000
0001
0000
0100
0000
0001
1000
0100
0010
0001
1000
0100
0000
,
1100
1100
1000
1010
1010
0010
0011
0011
,
0001
0000
0010
1000
0010
1000
0001
0000
0010
0000
0100
1000
0100
0000
0010
0000
,
0001
0010
0001
0010
0001
0000
1000
0010
1000
0010
1000
0000
0100
0010
0100
0010
,
0100
0000
1000
0001
1000
0001
1000
0000
1010
0000
0000
0000
0101
0000
0000
0000
,
0010
0001
0010
0100
0010
0000
0001
1000
0001
0100
0001
0000
1000
0010
0100
0010
,
0001
0000
0010
0100
0001
0010
0100
0000
1100
0000
0000
0000
1001
0000
0000
0000
,
0000
0000
2001
3010
0200
0001
1000
0000
0310
0011
0000
0000
,
0000
0000
1100
1000
0100
0100
0001
0010
0100
1001
0000
0000
,
0000
0000
0101
0100
0100
1000
0010
0010
0010
0020
0000
0000
,
0000
0000
1000
0000
0001
1000
0000
0001
1030
0200
0000
0000
,
2000
0000
0000
3300
,
0100
0200
0000
0002
0300
2000
0000
3003
,
1000
0010
0100
0010
1000
0100
0001
0100
,
1000
0000
0010
0000
0100
0001
0010
0001
2000
0000
0000
0000
0010
0000
3010
0000
,
1000
0000
0001
0000
0010
0000
0001
0000
1000
0000
0010
0100
0001
0000
0101
0000
,
0000
0011
0000
1010
0000
1100
0000
0000
,
1000
0010
1000
0000
0100
0000
0010
0001
0010
0000
0100
0000
1000
0010
0001
0000
,
0010
0000
1000
0100
0001
0000
0100
0000
0010
0000
0001
0000
1000
0000
0100
1000
,
0010
1000
0010
1000
0010
0000
0100
0001
0100
0001
0100
0000
0001
0010
0001
0010
,
0001
1000
0100
0000
1000
0010
1000
0000
1001
0000
2002
0000
3003
0000
0000
0000
,
0010
0100
0001
0100
0010
0001
0010
1000
,
0100
0010
1000
0020
0100
0000
0130
0100
,
1000
0000
0001
0000
0100
0000
0001
0000
1000
0000
0100
0010
0100
0000
1100
0000
,
0000
0101
0000
1001
0000
0011
0000
0000
,
1000
0100
1000
0000
0010
0000
0100
0001
0100
0000
0010
0000
1000
0100
0010
0000
,
0100
0000
1000
0020
0100
0000
0000
0000
1000
0000
0000
0000
1030
0000
0001
0010
,
0001
0100
0010
0100
0001
0100
0001
0100
0010
0100
0001
0100
0001
0100
0010
1000
,
0000
1000
0100
0000
1001
2002
3003
0000
,
0020
0000
0000
0000
,
1030
0000
0010
0000
0100
0000
0001
0000
0000
0000
0000
0000
1000
0000
0000
0000
0000
0000
0000
0000
0000
0000
0000
0000
0100
0000
0000
0010
0000
0000
0100
0000
0000
0000
0000
0000
0000
0000
0000
0000
0000
0000
1100
0000
0000
0000
0000
0000
,
0000
1000
1010
0000
1010
0000
0001
0000
,
1100
0101
1001
1100
,
0010
0200
0010
0001
0010
0001
0310
0000
,
1000
0001
0100
0001
0010
1000
0010
0100
,
1000
0000
1010
0000
1010
0000
0000
0000
0001
0000
0000
0000
0100
0000
0001
0010
,
0100
0000
1000
1100
0000
1000
1010
0000
,
0010
0000
1000
0001
0010
0000
0100
0000
1100
0000
1100
0000
0000
0000
0000
0000
,
0001
0010
0001
0100
0000
0000
0010
0000
0000
1000
0000
0000
0100
0000
0000
0010
0000
0000
0100
0000
0000
1000
0000
0000
,
0010
0001
0010
1000
0010
0000
0110
0000
0000
0000
0110
0000
0000
0000
1000
0000
,
0100
0000
0010
0000
0100
0000
1000
0000
0000
0000
0000
0000
0001
0000
0000
0000
0000
0000
0010
0000
0000
0001
0000
0000
0100
0000
0000
0000
0000
0000
0010
0000
0000
0000
0000
0000
0000
0000
0000
0000
0000
0000
2000
0000
0000
0000
0000
0000
,
0100
0100
3001
1001
,
1000
0000
0100
0000
0010
0000
0001
0000
0000
0010
0000
0000
0100
0000
0000
1000
0000
0000
0010
0000
0000
0100
0000
0000
0001
0000
0000
1000
0000
0000
0001
0000
0000
1000
0000
0000
0100
0000
0000
0010
0000
0000
0100
0000
0000
0010
0000
0000
,
0001
0100
0010
1000
0001
0010
0100
1000
0010
0100
0001
1000
0010
0100
0010
1000
,
0100
0000
0000
0010
0000
0000
0001
0000
,
0000
1000
0000
0000
0100
0100
0000
0000
,
1001
1010
2000
0010
0010
3010
0100
0000
,
0110
0101
0200
0001
0001
0301
1000
0000
,
1001
0000
0012
0000
0010
0000
0010
0003
0020
0000
1000
0030
0100
0000
0000
0000
,
1010
0120
0001
0100
0100
0130
0000
0000
,
0000
0000
1000
0001
1000
0000
0010
0000
0100
0000
0001
0000
0010
0000
0100
0000
1000
0000
0011
0000
0000
0000
0000
0000
,
0000
0000
0100
1000
0100
0000
0010
0000
0001
0000
0100
0000
0010
0000
1000
0000
0001
0000
0110
0000
0000
0000
0000
0000
,
0000
0000
0010
0100
0001
0000
0010
0000
0100
0000
0001
0000
0100
0000
1000
0000
0010
0000
0101
0000
0000
0000
0000
0000
,
0000
0000
2000
0100
0001
3020
0001
0100
1030
0020
0000
0000
,
0100
0100
0000
0100
0000
2000
0000
3030
,
1000
0010
0001
0010
1000
0100
0001
0100
,
1000
0000
0001
0000
0100
0010
0100
0010
0100
0000
0000
0000
0001
0000
0001
0000
,
0100
0000
0010
0000
1000
0000
0010
0000
0100
0000
0001
1000
0100
0000
1100
0000
,
0000
0101
0000
1100
0000
0110
0000
0000
,
0001
1000
0001
0000
0100
0000
0010
1000
0010
0000
1000
0000
0100
1000
0100
0000
,
0010
0000
0001
0100
0100
0000
1000
0000
0010
0000
0000
0000
0100
0000
0001
0000
,
1100
0000
1100
0000
0100
0000
0011
0000
0011
0000
0010
0000
1001
0000
0001
1000
,
0000
2000
0100
0000
0010
0020
3030
0000
,
0100
0001
0010
0100
1000
0000
0000
0000
0100
0000
0100
0000
0010
0000
0100
0001
,
0100
0000
2002
0000
3003
0000
1000
1000
,
0010
0000
1000
0000
0001
0000
0100
0000
1000
0000
0100
0010
0100
0000
0101
0000
,
0000
0000
1100
0000
0000
0000
1010
0000
0000
0000
1000
0100
1000
0000
0000
0000
,
0001
1000
0001
0000
0100
0000
0010
0000
1000
0000
0100
0000
0010
0000
0001
0000
,
1000
0010
1000
0000
0001
0000
0100
0000
0010
0000
1000
0000
0001
0000
0010
0001
,
0010
0100
1000
0001
0010
0001
0010
0001
0100
0001
0010
0001
0010
0001
0100
0001
,
0100
0000
0000
0010
0000
0000
0100
0000
0000
0000
0000
0000
0010
0000
0000
0000
0000
0000
0010
0000
0000
0000
0000
0000
0110
0000
0000
0000
0000
0000
0220
0000
0000
0000
0000
0000
0330
0000
0000
0000
0000
0000
0000
0000
1000
0000
0001
0000
,
0100
0000
0001
0010
0000
1000
0100
0000
,
0100
1000
0010
0000
0100
0000
0001
0000
1001
0000
2002
0000
3003
0000
0000
0000
;
