#VERSION:0.83;
#TITLE:VIU;
#SUBTITLE:;
#ARTIST:B2ST;
#TITLETRANSLIT:;
#SUBTITLETRANSLIT:;
#ARTISTTRANSLIT:;
#GENRE:;
#ORIGIN:;
#CREDIT:;
#BANNER:;
#BACKGROUND:bg.png;
#PREVIEWVID:;
#JACKET:jacket.jpg;
#CDIMAGE:;
#DISCIMAGE:;
#LYRICSPATH:;
#CDTITLE:;
#MUSIC:VIU.ogg;
#OFFSET:0.000000;
#SAMPLESTART:36.000000;
#SAMPLELENGTH:12.000000;
#SELECTABLE:YES;
#BPMS:0.000=132.000,
9.000=66.000,
13.000=132.000,
108.000=66.000,
117.000=132.000,
228.000=66.000;
#STOPS:;
#DELAYS:;
#WARPS:;
#TIMESIGNATURES:0.000=4=4;
#TICKCOUNTS:0.000=4;
#COMBOS:0.000=1;
#SPEEDS:0.000=1.000=0.000=0;
#SCROLLS:0.000=1.000;
#FAKES:;
#LABELS:0.000=Song Start;
#BGCHANGES:;
#KEYSOUNDS:;
#ATTACKS:
;

//---------------dance-single - ----------------
#NOTEDATA:;
#CHARTNAME:;
#STEPSTYPE:dance-single;
#DESCRIPTION:;
#CHARTSTYLE:;
#DIFFICULTY:Hard;
#METER:15;
#RADARVALUES:0.707091,1.079056,1.150877,0.207677,0.432661,572.000000,439.000000,133.000000,24.000000,0.000000,0.000000,0.000000,0.000000,0.000000,0.707091,1.079056,1.150877,0.207677,0.432661,572.000000,439.000000,133.000000,24.000000,0.000000,0.000000,0.000000,0.000000,0.000000;
#CREDIT:;
#NOTES:
0000
0000
0000
0000
1000
0100
0010
0000
1000
0001
0010
0000
1000
0100
0010
0000
,
1000
0001
0010
0000
0001
0000
0000
0000
0001
0000
0010
0100
0000
1000
0000
0010
,
0001
0000
0000
0000
2002
0000
0000
0000
0000
0000
0000
0000
3003
0000
0100
0010
,
0001
0010
0100
1000
1000
0000
0100
0000
1000
0000
0100
0000
0010
0000
0001
0000
,
0010
0100
0010
0000
0220
0000
0000
0000
0330
0000
1000
0100
0010
0000
1000
0000
,
0100
0010
0100
0000
2002
0000
0000
0000
3003
0000
0100
0010
0001
0000
0001
0000
,
0010
0000
0100
0000
1000
0000
0000
0000
1000
0001
0000
0000
0100
0010
0000
0000
,
1001
0220
0000
0000
0000
0000
0000
0330
,
0000
0000
1000
0100
1000
0100
0010
0001
,
0010
0001
0010
0000
0110
0000
0100
0000
,
0110
0000
1000
0100
0010
0001
0010
0100
,
1000
0000
0100
0000
0010
0001
0010
0000
0110
0000
1001
0000
0100
1000
0100
0000
,
0110
0000
1001
0000
0100
0010
0001
0000
0110
0000
1001
0000
0010
0100
1000
0000
,
0110
0000
1001
0000
0001
0010
0100
0000
0110
0000
0110
0000
0100
0010
0001
0000
,
0110
0110
0110
0000
1001
0000
0110
0000
,
1001
0220
0000
0000
0000
0000
0000
0330
,
0110
0000
1000
0100
0010
0001
0010
0000
,
0110
1001
0110
1001
,
0110
1001
0110
1001
,
0110
0000
0000
0000
1000
0100
0010
0000
1001
0000
0110
0000
0001
0010
0100
0000
,
1001
0000
0110
0000
1000
0100
0010
0000
0110
0000
1001
0000
0001
0000
0010
0000
,
0100
0000
1000
0000
1000
0100
0010
0000
0110
0000
1001
0000
0001
0010
0100
0000
,
0110
0000
1001
0000
1000
0100
1000
0000
1100
0000
1100
0000
0001
0010
0001
0000
,
0011
0011
0002
0000
1000
0000
1003
0000
,
2000
0000
0001
0000
3001
0000
0001
0010
,
0100
2002
0000
3003
,
0000
0000
0220
0000
0000
0000
0000
0330
,
0110
0000
0000
0000
1000
0100
0010
0001
0010
0000
0100
0000
1000
0000
0010
0001
0010
0100
1000
0100
0010
0001
0010
0100
1000
0000
0100
0000
0010
0001
0000
0010
,
0000
0000
0100
0000
0000
0100
0010
0001
0010
0100
1000
0100
0010
0000
0010
0100
0000
0000
0100
0000
0010
0000
0001
0000
0010
0000
0100
0000
1000
0000
0010
0000
,
0001
0110
0000
0100
1000
0000
0100
0010
0000
0010
0100
0000
0110
0000
1001
0000
,
0110
0000
1000
0100
0010
0000
0010
0000
0001
0000
0010
0000
0100
0000
0000
0000
,
0100
0010
0100
0010
0100
0000
0000
0000
1000
0001
1000
0001
1000
0000
0000
0000
,
1000
0100
0010
0001
0010
0100
1000
0100
0010
0001
0010
0100
1000
0100
0010
0001
,
0010
0100
0010
0000
0000
0000
0110
0000
0000
0000
1001
0000
0000
0000
0110
0000
,
0000
0000
1001
0000
0000
0000
0110
0000
1001
0000
0110
0000
0100
0010
0100
0010
,
0100
0011
0000
1100
0000
0011
0000
1100
,
0000
0011
0000
0011
0000
0110
0000
2200
,
0000
0000
0000
3300
2200
0000
0000
3300
,
0010
0001
0010
0100
1000
0000
1001
0110
,
1000
0100
0010
0001
1001
0000
1001
0110
,
0000
0000
1001
0220
0000
0330
0110
1001
,
0110
1100
0011
1100
,
0011
0011
0000
0110
1001
0000
1001
0000
,
1000
0100
0010
0000
1001
0000
0110
0000
,
1000
0100
0010
0001
0010
0000
0110
1001
,
0110
1100
0011
1100
,
0011
0011
0000
0000
1100
0000
1100
0000
,
1001
0110
1001
0110
1001
0110
1001
0110
,
1000
0100
0010
0001
0010
0100
1000
0100
0010
0001
0010
0100
1000
0000
0110
0000
,
0001
0010
0100
0000
0110
0000
0110
0000
1000
0100
0010
0000
0110
0000
0110
0000
,
0001
0010
0001
0000
0011
0000
0011
0000
0100
1000
0100
0000
1100
0000
1100
0000
,
0001
0010
0100
0000
0110
0000
0110
0000
1000
0100
0010
0000
0110
0000
0110
0000
,
0001
0010
0001
0000
0011
0000
0011
0000
0100
0000
1000
0000
0100
0000
0010
0000
,
0001
0010
0001
0000
1001
0000
1001
0000
1000
0100
1000
0000
1001
0000
1001
0000
,
1000
0100
0010
0000
0110
0000
0110
0000
0001
0010
0100
0000
0110
0000
0110
0000
,
1000
0100
1000
0000
0001
0010
0001
0000
1000
0100
1000
0000
0001
0010
0001
0000
,
0001
0010
0100
1000
0100
0010
0001
0010
,
0220
0000
0000
0000
0000
0000
0000
0000
0330
0000
0000
0000
0000
1000
0100
0010
,
0001
0000
0000
0000
;

//---------------dance-single - ----------------
#NOTEDATA:;
#CHARTNAME:;
#STEPSTYPE:dance-single;
#DESCRIPTION:;
#CHARTSTYLE:;
#DIFFICULTY:Medium;
#METER:11;
#RADARVALUES:0.603253,0.727735,1.150877,0.207677,0.069226,488.000000,355.000000,133.000000,24.000000,0.000000,0.000000,0.000000,0.000000,0.000000,0.603253,0.727735,1.150877,0.207677,0.069226,488.000000,355.000000,133.000000,24.000000,0.000000,0.000000,0.000000,0.000000,0.000000;
#CREDIT:;
#NOTES:
0000
0000
1000
0010
1000
0010
1000
0010
,
1000
0010
0001
0000
0001
0010
0000
0000
,
0001
0000
2002
0000
0000
0000
3003
0100
,
0001
0100
1000
0100
1000
0100
0010
0001
,
0010
0010
0220
0000
0330
1000
0010
1000
,
0100
0100
2002
0000
3003
0100
0001
0001
,
0010
0100
1000
0000
1000
0000
0100
0000
,
1001
0220
0000
0000
0000
0000
0000
0330
,
0000
0000
1000
0100
1000
0100
0010
0001
,
0010
0001
0010
0000
0110
0000
0100
0000
,
0110
0000
1000
0100
0010
0001
0010
0100
,
1000
0100
0010
0010
0110
1001
0100
0100
,
0110
1001
0100
0001
0110
1001
0010
1000
,
0110
1001
0001
0100
0110
0110
0100
0001
,
0110
0110
0110
0000
1001
0000
0110
0000
,
1001
0220
0000
0000
0000
0000
0000
0330
,
0110
0000
1000
0100
0010
0001
0010
0000
,
0110
1001
0110
1001
,
0110
1001
0110
1001
,
0110
0000
1000
0010
1001
0110
0001
0100
,
1001
0110
1000
0010
0110
1001
0001
0010
,
0100
1000
1000
0010
0110
1001
0001
0100
,
0110
1001
1000
1000
1100
1100
0001
0001
,
0011
0011
0002
0000
1000
0000
1003
0000
,
2000
0000
0001
0000
3001
0000
0001
0010
,
0100
2002
0000
3003
,
0000
0000
0220
0000
0000
0000
0000
0330
,
0110
0000
1000
0010
0010
0100
1000
0010
0010
1000
0010
0010
1000
0100
0010
0000
,
0000
0100
0000
0010
0010
1000
0010
0010
0000
0100
0010
0001
0010
0100
1000
0010
,
0001
0110
0000
0100
1000
0000
0100
0000
0000
0000
0100
0000
0110
0000
1001
0000
,
0110
1000
0010
0010
0001
0010
0100
0000
,
0100
0100
0100
0000
1000
1000
1000
0000
,
1000
0010
0010
1000
0010
0010
1000
0010
,
0010
0010
0000
0110
0000
1001
0000
0110
,
0000
1001
0000
0110
1001
0110
0100
0100
,
0100
0011
0000
1100
0000
0011
0000
1100
,
0000
0011
0000
0011
0000
0110
0000
2200
,
0000
0000
0000
3300
2200
0000
0000
3300
,
0010
0001
0010
0100
1000
0000
1001
0110
,
1000
0100
0010
0001
1001
0000
1001
0110
,
0000
0000
1001
0220
0000
0330
0110
1001
,
0110
1100
0011
1100
,
0011
0011
0000
0110
1001
0000
1001
0000
,
1000
0100
0010
0000
1001
0000
0110
0000
,
1000
0100
0010
0001
0010
0000
0110
1001
,
0110
1100
0011
1100
,
0011
0011
0000
0000
1100
0000
1100
0000
,
1001
0110
1001
0110
1001
0110
1001
0110
,
1000
0010
0010
1000
0010
0010
1000
0110
,
0001
0100
0110
0110
1000
0010
0110
0110
,
0001
0001
0011
0011
0100
0100
1100
1100
,
0001
0100
0110
0110
1000
0010
0110
0110
,
0001
0001
0011
0011
0100
1000
0100
0010
,
0001
0001
1001
1001
1000
1000
1001
1001
,
1000
0010
0110
0110
0001
0100
0110
0110
,
1000
1000
0001
0001
1000
1000
0001
0001
,
0001
0010
0100
1000
0100
0010
0001
0010
,
0220
0000
0000
0000
0330
0000
0000
0100
,
0001
0000
0000
0000
;

//---------------dance-single - ----------------
#NOTEDATA:;
#CHARTNAME:;
#STEPSTYPE:dance-single;
#DESCRIPTION:;
#CHARTSTYLE:;
#DIFFICULTY:Easy;
#METER:6;
#RADARVALUES:0.339948,0.451698,0.674951,0.138451,0.000000,275.000000,197.000000,78.000000,16.000000,0.000000,0.000000,0.000000,0.000000,0.000000,0.339948,0.451698,0.674951,0.138451,0.000000,275.000000,197.000000,78.000000,16.000000,0.000000,0.000000,0.000000,0.000000,0.000000;
#CREDIT:;
#NOTES:
0000
1000
1000
1000
,
1000
0001
0001
0000
,
0001
2002
0000
3003
,
0001
1000
1000
0010
,
0010
0220
0330
0010
,
0100
2002
3003
0001
,
0010
1000
1000
0100
,
1001
0000
0000
0000
,
0000
1000
1000
0010
,
0010
0010
0110
0100
,
0110
1000
0010
0010
,
1000
0010
0110
0100
,
0110
0100
0110
0010
,
0110
0001
0110
0100
,
0110
0110
1001
0110
,
1001
0000
0000
0000
,
0110
1000
0010
0010
,
0110
1001
0110
1001
,
0110
1001
0110
1001
,
0110
1000
1001
0001
,
1001
1000
0110
0001
,
0100
1000
0110
0001
,
0110
1000
1100
0001
,
0011
0002
1000
1003
,
2000
0001
3001
0001
,
0100
2002
0000
3003
,
0000
0000
0220
0000
0000
0000
0000
0330
,
0110
1000
0010
1000
0010
0010
1000
0010
,
0000
0000
0010
0010
0000
0010
0010
1000
,
0001
1000
0000
0110
,
0110
0010
0001
0100
,
0100
0100
1000
1000
,
1000
0010
0010
1000
,
0010
0000
0000
0000
,
0000
0000
1001
0100
,
0100
0000
0000
0000
,
0000
0000
0000
0000
,
0000
0000
0000
0000
2200
0000
0000
3300
,
0010
0010
1000
1001
,
1000
0010
1001
1001
,
0000
1001
0000
0110
,
0110
1100
0011
1100
,
0011
0000
1001
1001
,
1000
0010
1001
0110
,
1000
0010
0010
0110
,
0110
1100
0011
1100
,
0011
0000
1100
1100
,
1001
1001
1001
1001
,
1000
0010
0010
1000
,
0001
0110
1000
0110
,
0001
0011
0100
1100
,
0001
0110
1000
0110
,
0001
0011
0100
0100
,
0001
1001
1000
1001
,
1000
0110
0001
0110
,
1000
0001
1000
0001
,
0001
0100
0100
0001
,
0220
0000
0330
0000
,
0001
0000
0000
0000
;

//---------------dance-single - ----------------
#NOTEDATA:;
#CHARTNAME:;
#STEPSTYPE:dance-single;
#DESCRIPTION:;
#CHARTSTYLE:;
#DIFFICULTY:Beginner;
#METER:3;
#RADARVALUES:0.186662,0.250943,0.449967,0.000000,0.000000,151.000000,99.000000,52.000000,0.000000,0.000000,0.000000,0.000000,0.000000,0.000000,0.186662,0.250943,0.449967,0.000000,0.000000,151.000000,99.000000,52.000000,0.000000,0.000000,0.000000,0.000000,0.000000,0.000000;
#CREDIT:;
#NOTES:
// measure 0
0000
1000
0000
0000
,  // measure 1
1000
0001
0000
0000
,  // measure 2
0001
1001
0000
0000
,  // measure 3
0001
1000
0000
0010
,  // measure 4
0000
0110
0000
0000
,  // measure 5
0000
1001
0000
0000
,  // measure 6
0010
0000
1000
0000
,  // measure 7
1001
0000
0000
0000
,  // measure 8
0000
1000
0000
0000
,  // measure 9
0010
0000
0110
0000
,  // measure 10
0110
0000
0010
0000
,  // measure 11
1000
0000
0110
0000
,  // measure 12
0110
0000
0000
0000
,  // measure 13
0110
0000
0110
0000
,  // measure 14
0110
0000
1001
0000
,  // measure 15
1001
0000
0000
0000
,  // measure 16
0000
1000
0000
0010
,  // measure 17
0000
1001
0000
1001
,  // measure 18
0000
1001
0000
1001
,  // measure 19
0000
0000
1001
0000
,  // measure 20
1001
0000
0110
0000
,  // measure 21
0100
0000
0110
0000
,  // measure 22
0110
0000
1100
0000
,  // measure 23
0011
0001
0000
0000
,  // measure 24
1000
0000
0001
0000
,  // measure 25
0000
1001
0000
0000
,  // measure 26
0000
0110
0000
0000
,  // measure 27
0110
0010
0010
1000
,  // measure 28
0000
0010
0000
0010
,  // measure 29
0001
1000
0000
0110
,  // measure 30
0000
0000
0001
0000
,  // measure 31
0100
0000
1000
0000
,  // measure 32
1000
0000
0010
0000
,  // measure 33
0010
0000
0000
0000
,  // measure 34
0000
0000
1001
0000
,  // measure 35
0100
0000
0000
0000
,  // measure 36
0000
0000
0000
0000
,  // measure 37
0000
0000
1100
0000
,  // measure 38
0010
0000
0000
1001
,  // measure 39
0000
0000
1001
0000
,  // measure 40
0000
1001
0000
0110
,  // measure 41
0000
0000
0011
0000
,  // measure 42
0000
0000
1001
0000
,  // measure 43
1000
0000
1001
0000
,  // measure 44
1000
0000
0010
0000
,  // measure 45
0110
0000
0011
0000
,  // measure 46
0011
0000
1100
0000
,  // measure 47
1001
0000
0000
1001
,  // measure 48
0000
0010
0000
1000
,  // measure 49
0000
0110
0000
0110
,  // measure 50
0000
0011
0000
1100
,  // measure 51
0000
0110
0000
0110
,  // measure 52
0000
0011
0000
0100
,  // measure 53
0000
1001
0000
0000
,  // measure 54
1000
0000
0001
0000
,  // measure 55
1000
0000
1000
0000
,  // measure 56
0001
0000
0100
0000
,  // measure 57
0110
0000
0000
0000
,  // measure 58
0001
0000
0000
0000
;

//---------------dance-single - ----------------
#NOTEDATA:;
#CHARTNAME:;
#STEPSTYPE:dance-single;
#DESCRIPTION:;
#CHARTSTYLE:;
#DIFFICULTY:Challenge;
#METER:16;
#RADARVALUES:0.854196,1.079056,1.072999,0.103839,0.679277,691.000000,567.000000,124.000000,12.000000,0.000000,0.000000,0.000000,0.000000,0.000000,0.854196,1.079056,1.072999,0.103839,0.679277,691.000000,567.000000,124.000000,12.000000,0.000000,0.000000,0.000000,0.000000,0.000000;
#CREDIT:;
#NOTES:
0000
0000
0000
0000
1000
0000
0000
0000
1000
0000
0010
0100
0000
1000
0000
0010
,
0001
0000
0000
0000
1001
0000
0000
0000
0001
0000
0010
0100
0000
1000
0000
0010
,
0001
0000
0000
0000
0000
0000
0000
0000
1000
0000
0100
0000
0010
0000
0001
0000
0010
0000
0100
0000
1000
0000
0100
0000
0010
0000
0000
0000
0100
0010
0100
0010
,
0100
0010
0100
0010
0100
0000
0000
0000
1000
0000
0100
0000
0010
0000
0000
0000
1000
0000
0100
0000
0010
0000
0000
0000
0010
0000
0000
0000
0001
0000
0000
0000
,
0010
0100
0010
0000
0010
0100
0010
0000
0010
0100
1000
0100
0010
0000
1000
0000
,
0100
0010
0100
0000
1000
0001
1000
0010
0100
0010
0100
0010
0001
0010
0001
0000
,
0010
0100
0010
0000
1000
0100
0010
0000
0001
0010
0100
0000
0100
0010
0000
0000
,
1001
0220
0000
0000
0000
0000
0000
0330
,
1000
0100
1000
0100
1000
0100
0010
0001
,
0010
0100
1000
0000
0110
0000
1001
0000
0110
0000
1001
0000
0110
0000
1001
0000
,
0110
0000
1000
0100
0010
0001
0010
0100
,
1000
0000
0100
0000
0010
0001
0010
0000
0110
0000
1001
0000
0100
1000
0100
0000
,
0110
0000
1001
0000
0100
0010
0001
0000
0110
0000
1001
0000
0010
0100
1000
0000
,
0110
0000
1001
0000
0001
0010
0100
0000
0110
0000
0110
0000
0100
0010
0001
0000
,
0110
0000
0110
0000
0110
0000
0000
0000
1000
0100
0010
0000
0010
0100
1000
0000
,
1001
0100
0010
0001
0010
0100
1000
0100
,
0110
0000
1000
0100
0010
0001
0010
0000
,
0110
0000
0000
0000
1000
0100
0010
0000
0010
0001
0010
0000
0010
0100
1000
0000
,
0100
0010
0001
0000
0001
0010
0100
1000
0100
0010
0001
0010
1001
0000
0000
0000
,
0110
0000
0000
0000
1000
0100
0010
0000
1001
0000
0110
0000
0001
0010
0100
0000
,
1001
0000
0110
0000
1000
0100
0010
0000
0110
0000
1001
0000
0001
0010
0100
0000
,
0100
0000
0010
0000
1000
0100
0010
0000
0110
0000
1001
0000
0001
0010
0100
0000
,
0110
0000
1001
0000
1000
0100
1000
0000
1100
0000
1100
0000
0001
0010
0001
0000
,
0011
0011
1002
0100
0010
0100
1003
0000
,
2001
0010
0100
0010
3001
0000
0001
0010
,
0100
0000
0102
0100
0100
0103
2010
0010
,
0010
0000
0010
0000
3100
0000
0010
0000
0001
0000
0010
0100
1000
0100
0010
0001
,
0110
0000
0000
0000
1000
0100
0010
0001
0010
0000
0100
0000
1000
0000
0010
0001
0010
0100
1000
0100
0010
0001
0010
0100
1000
0000
0100
0000
0010
0001
0000
0010
,
0000
0000
0100
0000
0000
0100
0010
0001
0010
0100
1000
0100
0010
0000
0010
0100
0000
0000
0100
0000
0010
0000
0001
0000
0010
0000
0100
0000
1000
0000
0010
0000
,
0001
0110
0000
0100
1000
0000
0100
0010
0000
0010
0100
0000
0110
0000
1001
0000
,
0110
0000
1000
0100
0010
0000
0010
0000
0001
0000
0010
0000
0100
0000
0000
0000
,
0100
0010
0100
0010
0100
0000
0000
0000
1000
0001
1000
0001
1000
0000
0000
0000
,
1000
0100
0010
0001
0010
0100
1000
0100
0010
0001
0010
0100
1000
0100
0010
0001
,
0010
0100
0010
0000
0000
0000
0100
0010
0100
0000
0001
1000
0001
0000
0100
0010
,
0100
0000
1000
0100
0010
0000
0110
0000
1001
0000
0110
0000
0100
0010
0100
0010
,
0100
0000
0001
0010
0001
0000
0100
0010
0100
0000
0010
0100
0010
0000
0100
1000
,
0100
0000
0010
0001
0010
0000
0010
0100
0010
0000
0010
0100
0010
0000
2200
0000
,
0000
0000
0000
3300
2200
0000
0000
3300
,
0010
0001
0010
0100
1000
0000
1001
0110
,
1000
0100
0010
0001
1001
0000
1001
0110
,
0000
0000
1001
0220
0000
0330
0110
1001
,
0110
1000
0100
0010
1100
0000
0110
0000
0011
0100
0010
0000
1100
0000
0110
0000
,
0011
0100
0010
0000
0110
0000
0110
0000
1001
0000
0110
0000
1001
0000
0100
0000
,
1000
0100
0010
0000
1001
0000
0110
0000
,
1000
0100
0010
0001
0010
0000
0110
1001
,
0110
0000
1100
0110
0011
0110
1100
0110
,
0010
0001
0010
0000
0110
0000
0011
0000
1100
0000
0011
0000
1100
0000
0000
0000
,
1001
0110
1001
0110
1001
0110
1001
0110
,
1000
0100
0010
0001
0010
0100
1000
0100
0010
0001
0010
0100
1000
0000
0110
0000
,
0001
0010
0100
0000
0110
0000
0110
0000
1000
0100
0010
0000
0110
0000
0110
0000
,
0001
0010
0001
0000
0011
0000
0011
0000
0100
1000
0100
0000
1100
0000
1100
0000
,
0001
0010
0100
0000
0110
0000
0110
0000
1000
0100
0010
0000
0110
0000
0110
0000
,
0001
0010
0001
0000
0011
0000
0011
0000
0100
0000
1000
0000
0100
0000
0010
0000
,
0001
0010
0001
0000
1001
0000
1001
0000
1000
0100
1000
0000
1001
0000
1001
0000
,
1000
0100
0010
0000
0110
0000
0110
0000
0001
0010
0100
0000
0110
0000
0110
0000
,
1000
0100
1000
0000
0001
0010
0001
0000
1000
0100
1000
0000
0001
0010
0001
0000
,
0001
0010
0100
1000
0100
0010
0001
0010
,
0100
0000
0010
0000
0100
0000
0010
0000
0100
0000
0010
0000
0100
0000
0010
0000
0100
0000
0010
0000
0100
0000
1000
0100
0010
0001
0000
0010
0100
1000
0100
0010
,
0001
0000
0000
0000
;
