#TITLE:Supa Luv;
#SUBTITLE:;
#ARTIST:TEEN TOP;
#TITLETRANSLIT:;
#SUBTITLETRANSLIT:;
#ARTISTTRANSLIT:;
#GENRE:;
#CREDIT:;
#BANNER:bn.png;
#BACKGROUND:bg.png;
#LYRICSPATH:;
#CDTITLE:;
#MUSIC:Supa Luv.ogg;
#OFFSET:0.000000;
#SAMPLESTART:100.008003;
#SAMPLELENGTH:12.000000;
#SELECTABLE:YES;
#BPMS:0.000000=117.000000
,31.000000=58.500000
,32.000000=115.300003
,63.000000=116.300003
,80.000000=232.600006
,82.000000=116.300003
,85.000000=232.600006
,87.000000=116.300003
,90.000000=232.600006
,92.000000=116.300003
,95.000000=232.600006
,97.000000=116.300003
,108.000000=232.600006
,110.000000=116.300003
,115.000000=232.600006
,119.000000=116.300003
,133.000000=57.500000
,150.000000=117.000000
,182.000000=232.600006
,184.000000=116.000000
,187.000000=232.600006
,189.000000=116.000000
,192.000000=232.600006
,194.000000=116.000000
,197.000000=232.600006
,200.000000=116.000000
,210.500000=232.600006
,212.000000=119.000000
;
#STOPS:
;
#BGCHANGES:;
#KEYSOUNDS:;
#ATTACKS:;

//---------------dance-single - ----------------
#NOTES:
     dance-single:
     :
     Hard:
     13:
     0.545658,0.722834,0.826997,0.224270,0.350422,545.000000,427.000000,118.000000,32.000000,0.000000,0.000000,0.545658,0.722834,0.826997,0.224270,0.350422,545.000000,427.000000,118.000000,32.000000,0.000000,0.000000:
0000
0000
0000
0000
1000
0000
0000
1000
0000
0000
1000
0000
0001
0000
0000
0001
,
0000
0000
0001
0000
1000
0000
0000
1000
0000
0000
1000
0000
0110
0000
1001
0000
,
0110
0000
1001
0000
0010
0000
0000
0010
0000
0000
0010
0000
0100
0000
0000
0100
,
0000
0000
0100
0000
0010
0000
0000
0010
0000
0000
0010
0000
0110
0000
0000
0000
,
1001
0000
0000
0000
1000
0100
1000
0100
0000
0000
0110
0000
0001
0010
0001
0010
,
0000
0000
0110
0000
1000
0100
0010
0001
0000
0000
1001
0000
1001
0000
0110
0000
,
1001
0000
0110
0000
1000
0100
1000
0100
0000
0000
0110
0000
0001
0010
0001
0010
,
0000
0000
0110
0000
1000
0100
0010
0001
0000
0000
1001
0000
2002
0000
3003
0000
,
1000
0100
0010
0100
1001
0000
0000
0000
0001
0010
0100
0010
1001
0000
0000
0000
,
1000
0100
1000
0100
0010
0001
0010
0000
0110
0000
1001
0000
0110
0000
1001
0000
,
1000
0100
0010
0001
0000
0000
0110
0000
0001
0010
0100
1000
0000
0000
0110
0000
,
0001
0010
0100
1000
0110
1001
0110
1001
,
1000
0000
0100
0000
0010
0001
0010
0000
0010
0000
0100
0000
1000
0100
1000
0000
,
1000
0000
0100
0000
0010
0001
0010
0000
0110
0000
1001
0000
0110
0000
1000
0100
,
0010
0000
0001
0000
0010
0100
0010
0000
0110
0000
1001
0000
0110
0000
1001
0000
,
0110
0000
0110
0000
0110
0000
1000
0100
,
0010
0000
0110
0000
1001
0000
0001
0010
,
0100
1000
0100
0010
0001
0000
0110
0000
,
1001
0000
0110
0000
1001
0000
1000
0100
,
0010
0001
0010
0100
1000
0110
1001
0110
,
2002
0000
0000
3003
1000
0100
0010
0001
,
0010
0100
2002
0000
0000
3003
0100
0010
,
0100
0010
0100
0010
0220
0000
0000
0000
,
0000
0330
1001
0110
1001
0110
2002
0000
,
0000
0000
3003
0000
1000
0000
0100
0000
0010
0000
0001
0000
0010
0100
1000
0100
,
0010
0000
0000
0010
0000
0000
0010
0000
0100
0000
0000
0100
0000
0000
0100
0000
,
0010
0000
0000
0010
0000
0000
0010
0000
0110
0000
1001
0000
0110
0000
1001
0000
,
0220
0000
0000
0330
0110
0100
0010
0100
,
0010
0100
0110
1001
1000
0100
0010
0001
,
0010
0000
0100
0000
1000
0100
1000
0100
1000
0100
1000
0100
1000
0000
0000
1000
,
0000
0000
1000
0000
0001
0000
0000
0001
0000
0000
0001
0000
1000
0000
0000
1000
,
0000
0000
1000
0000
0100
0000
0010
0000
0001
0000
0010
0000
0100
0000
0000
0100
,
0000
0000
0100
0000
0010
0000
0000
0010
0000
0000
0010
0000
0100
0000
0000
0100
,
0000
0100
0220
0330
0110
1001
0110
1001
,
0100
0000
0010
0100
0000
0010
0100
0000
0110
0000
0000
0000
0220
0000
0000
0330
1001
0000
0100
0010
0000
0100
0010
0000
0100
0000
0001
0000
0100
0000
1000
0000
,
0100
0010
0001
0010
0110
0000
1001
0000
0110
0000
1001
0000
1000
0100
0010
0001
,
0000
1001
0000
0110
0000
1001
0000
0000
0110
0000
1001
0220
0000
0330
1001
0000
,
0110
0000
1001
0220
0000
0000
0330
0100
1000
0100
0010
0001
0000
0010
0100
0010
,
0100
0010
0100
0100
1000
0100
0010
0000
0001
0010
0100
0000
0110
0000
1001
0000
,
0110
0000
0000
0000
1001
0000
0110
0000
1001
0000
1000
0100
0010
0001
0010
0100
,
1001
0000
0110
0000
1000
0100
0010
0001
0000
0001
0010
0100
1000
0000
0110
0000
,
1001
0000
0000
0000
0100
0010
0100
0010
0100
0000
0000
0000
1000
0000
0100
0000
,
0010
0001
0001
0100
1000
0100
0010
0001
,
0010
0100
1001
0110
1001
0000
0011
1100
,
0011
0000
0000
0000
1000
0100
0010
0001
0001
0010
0100
1000
0100
0010
0110
0000
,
1001
0110
1001
0110
2002
0000
0000
3003
,
1000
0100
0010
0001
0010
0100
2002
0000
,
0000
3003
1000
0100
0010
0001
0010
0100
,
2002
0000
0000
3003
1000
0100
1000
0100
,
1000
0000
2002
0000
0000
0000
0000
3003
,
0001
0000
0010
0000
0100
0000
1000
0100
0010
0001
1000
0000
0000
1000
0000
0000
,
1000
0000
0001
0000
0000
0001
0000
0000
0001
0000
0010
0000
0000
0010
0000
0000
,
0010
0110
1001
0110
1001
0220
0000
0330
,
1000
0100
0010
0000
0001
0000
0010
0000
0100
0000
1000
0000
0110
0000
0001
0000
,
0001
0000
0001
0000
0001
0000
1000
0100
0010
0001
0010
0100
1000
0000
0000
0000
,
0000
2002
0000
0000
0000
0000
3003
0000
;

//---------------dance-single - ----------------
#NOTES:
     dance-single:
     :
     Medium:
     8:
     0.440531,0.488401,0.791954,0.196236,0.000000,440.000000,327.000000,113.000000,28.000000,0.000000,0.000000,0.440531,0.488401,0.791954,0.196236,0.000000,440.000000,327.000000,113.000000,28.000000,0.000000,0.000000:
0000
0000
1000
0000
0000
1000
0001
0000
,
0000
0001
1000
0000
0000
1000
0110
1001
,
0110
1001
0010
0000
0000
0010
0100
0000
,
0000
0100
0010
0000
0000
0010
0110
0000
,
1001
0000
1000
1000
0000
0110
0001
0001
,
0000
0110
1000
0010
0000
1001
1001
0110
,
1001
0110
1000
1000
0000
0110
0001
0001
,
0000
0110
1000
0010
0000
1001
2002
3003
,
1000
0010
1001
0000
0001
0100
1001
0000
,
1000
1000
0010
0010
0110
1001
0110
1001
,
1000
0010
0000
0110
0001
0100
0000
0110
,
0001
0010
0100
1000
0110
1001
0110
1001
,
1000
0100
0010
0010
0010
0100
1000
1000
,
1000
0100
0010
0010
0110
1001
0110
1000
,
0010
0001
0010
0010
0110
1001
0110
1001
,
0110
0000
0110
0000
0110
0000
1000
0100
,
0010
0000
0110
0000
1001
0000
0001
0010
,
0100
1000
0100
0010
0001
0000
0110
0000
,
1001
0000
0110
0000
1001
0000
1000
0100
,
0010
0001
0010
0100
1000
0110
1001
0110
,
2002
0000
0000
3003
1000
0100
0010
0001
,
0010
0100
2002
0000
0000
3003
0100
0010
,
0100
0010
0100
0010
0220
0000
0000
0000
,
0000
0330
1001
0110
1001
0110
2002
0000
,
0000
3003
1000
0100
0010
0001
0010
1000
,
0010
0000
0000
0010
0100
0000
0000
0100
,
0010
0000
0000
0010
0110
1001
0110
1001
,
0220
0000
0000
0330
0110
0100
0010
0100
,
0010
0100
0110
1001
1000
0100
0010
0001
,
0010
0100
1000
1000
1000
1000
1000
0000
,
0000
1000
0001
0000
0000
0001
1000
0000
,
0000
1000
0100
0010
0001
0010
0100
0000
,
0000
0100
0010
0000
0000
0010
0100
0000
,
0000
0100
0220
0330
0110
1001
0110
1001
,
0100
0000
0000
0000
0000
0000
0000
0000
0110
0000
0000
0000
0220
0000
0000
0330
1001
0000
0000
0000
0000
0000
0000
0000
0100
0000
0000
0000
0100
0000
0000
0000
,
0100
0001
0110
1001
0110
1001
1000
0010
,
0000
0000
0000
0000
0110
1001
0000
1001
,
0110
1001
0000
0000
1000
0010
0000
0100
,
0100
0100
1000
0010
0001
0100
0110
1001
,
0110
0000
1001
0110
1001
1000
0010
0010
,
1001
0110
1000
0010
0000
0010
1000
0110
,
1001
0000
0100
0100
0100
0000
1000
0100
,
0010
0001
0001
0100
1000
0100
0010
0001
,
0010
0100
1001
0110
1001
0000
0011
1100
,
0011
0000
1000
0010
0001
0100
0100
0110
,
1001
0110
1001
0110
2002
0000
0000
3003
,
1000
0100
0010
0001
0010
0100
2002
0000
,
0000
3003
1000
0100
0010
0001
0010
0100
,
2002
0000
0000
3003
1000
0100
1000
0100
,
1000
0000
2002
0000
0000
0000
0000
3003
,
0001
0010
0100
1000
0010
1000
0000
0000
,
1000
0001
0000
0000
0001
0010
0000
0000
,
0010
0110
1001
0110
1001
0220
0000
0330
,
1000
0010
0001
0010
0100
1000
0110
0001
,
0001
0001
0001
1000
0010
0010
1000
0000
,
0000
2002
0000
0000
0000
0000
3003
0000
;

//---------------dance-single - ----------------
#NOTES:
     dance-single:
     :
     Easy:
     4:
     0.243293,0.312577,0.469566,0.168203,0.000000,243.000000,176.000000,67.000000,24.000000,0.000000,0.000000,0.243293,0.312577,0.469566,0.168203,0.000000,243.000000,176.000000,67.000000,24.000000,0.000000,0.000000:
0000
1000
0000
0001
,
0000
1000
0000
0110
,
0110
0010
0000
0100
,
0000
0010
0000
0110
,
1001
1000
0000
0001
,
0000
1000
0000
1001
,
1001
1000
0000
0001
,
0000
0000
1000
0000
0000
0000
2002
3003
,
1000
1001
0001
1001
,
1000
0010
0110
0110
,
1000
0000
0001
0000
,
0001
0100
0110
0110
,
1000
0010
0010
1000
,
1000
0010
0110
0110
,
0010
0010
0110
0110
,
0110
0110
0110
1000
,
0010
0110
1001
0001
,
0100
0100
0001
0110
,
1001
0110
1001
1000
,
0010
0010
1000
1001
,
2002
0000
0000
3003
1000
0000
0010
0000
,
0010
0000
2002
0000
0000
3003
0100
0000
,
0100
0100
0220
0000
,
0000
0330
1001
0000
1001
0000
2002
0000
,
0000
3003
1000
0000
0010
0000
0010
0000
,
0010
0000
0100
0000
,
0010
0000
0110
0110
,
0220
0000
0000
0330
0110
0000
0010
0000
,
0010
0110
1000
0010
,
0010
1000
1000
1000
,
0000
0001
0000
1000
,
0000
0100
0001
0100
,
0000
0010
0000
0100
,
0000
0000
0220
0330
0110
0000
0110
0000
,
0100
0110
1001
0100
,
0100
0110
0110
1000
,
0000
0000
0110
0000
,
0110
0000
1000
0000
,
0100
1000
0001
0110
,
0110
1001
1001
0010
,
1001
1000
0000
1000
,
1001
0100
0100
1000
,
0010
0001
1000
0010
,
0010
1001
1001
0011
,
0011
1000
0001
0100
,
1001
0000
1001
0000
2002
0000
0000
3003
,
1000
0010
0010
2002
,
0000
3003
1000
0000
0010
0000
0010
0000
,
2002
0000
0000
3003
1000
0000
1000
0000
,
1000
0000
2002
0000
0000
0000
0000
3003
,
0001
0100
0010
0000
,
1000
0000
0001
0000
,
0010
1001
1001
0000
,
1000
0001
0100
0110
,
0001
0001
0010
1000
,
0000
2002
0000
0000
0000
0000
3003
0000
;

//---------------dance-single - ----------------
#NOTES:
     dance-single:
     :
     Beginner:
     2:
     0.117141,0.153485,0.217262,0.000000,0.000000,117.000000,86.000000,31.000000,0.000000,0.000000,0.000000,0.117141,0.153485,0.217262,0.000000,0.000000,117.000000,86.000000,31.000000,0.000000,0.000000,0.000000:
// measure 0
0000
1000
0000
0000
,  // measure 1
0000
1000
0000
0000
,  // measure 2
0110
0000
0000
0100
,  // measure 3
0000
0000
0000
0000
,  // measure 4
1001
0000
0000
0001
,  // measure 5
0000
1000
0000
0000
,  // measure 6
1001
0000
0000
0001
,  // measure 7
0000
1000
0000
0000
,  // measure 8
1000
0000
0001
0000
,  // measure 9
1000
0000
0110
0000
,  // measure 10
1000
0000
0001
0000
,  // measure 11
0001
0000
0110
0000
,  // measure 12
1000
0000
0010
0000
,  // measure 13
1000
0000
0110
0000
,  // measure 14
0010
0000
0000
0110
,  // measure 15
0000
0110
0000
1000
,  // measure 16
0000
0110
0000
0001
,  // measure 17
0000
0100
0000
0110
,  // measure 18
0000
0000
1001
0000
,  // measure 19
0010
0000
0000
0000
,  // measure 20
1001
0000
0000
0000
,  // measure 21
0000
1001
0000
0000
,  // measure 22
0000
0000
0110
0000
,  // measure 23
0000
0000
0000
1001
,  // measure 24
0000
1000
0000
0010
,  // measure 25
0000
0000
0100
0000
,  // measure 26
0010
0000
0000
0000
,  // measure 27
0110
0000
0000
0000
,  // measure 28
0000
0110
0000
0010
,  // measure 29
0000
0000
0000
1000
,  // measure 30
0000
0001
0000
1000
,  // measure 31
0000
0100
0000
0100
,  // measure 32
0000
0010
0000
0100
,  // measure 33
0000
0110
0000
0000
,  // measure 34
0100
0000
1001
0000
,  // measure 35
0000
0110
0000
1000
,  // measure 36
0000
0000
0110
0000
,  // measure 37
0110
0000
1000
0000
,  // measure 38
0100
0000
0001
0000
,  // measure 39
0110
0000
0000
0010
,  // measure 40
0000
1000
0000
0000
,  // measure 41
1001
0000
0000
1000
,  // measure 42
0000
0001
1000
0000
,  // measure 43
0010
0000
1001
0000
,  // measure 44
0000
1000
0001
0100
,  // measure 45
0000
0000
1001
0000
,  // measure 46
0000
0000
0000
1001
,  // measure 47
0000
0000
0000
0000
,  // measure 48
1001
0000
0000
0000
,  // measure 49
0000
1001
0000
0000
,  // measure 50
0001
0000
0010
0000
,  // measure 51
1000
0000
0001
0000
,  // measure 52
0010
0000
1001
0000
,  // measure 53
1000
0000
0000
0110
,  // measure 54
0000
0001
0000
1000
;
