#VERSION:0.83;
#TITLE:Shut Up;
#SUBTITLE:;
#ARTIST:UKISS;
#TITLETRANSLIT:;
#SUBTITLETRANSLIT:;
#ARTISTTRANSLIT:;
#GENRE:;
#ORIGIN:;
#CREDIT:;
#BANNER:bn.png;
#BACKGROUND:bg.png;
#PREVIEWVID:;
#JACKET:jacket.png;
#CDIMAGE:;
#DISCIMAGE:;
#LYRICSPATH:;
#CDTITLE:;
#MUSIC:Shut Up.ogg;
#OFFSET:0.000000;
#SAMPLESTART:91.699997;
#SAMPLELENGTH:12.000000;
#SELECTABLE:YES;
#BPMS:0.000=126.000,
161.000=63.000,
169.125=126.000,
185.500=252.000,
282.500=63.000,
289.250=252.000;
#STOPS:;
#DELAYS:;
#WARPS:;
#TIMESIGNATURES:0.000=4=4;
#TICKCOUNTS:0.000=4;
#COMBOS:0.000=1;
#SPEEDS:0.000=1.000=0.000=0;
#SCROLLS:0.000=1.000;
#FAKES:;
#LABELS:0.000=Song Start;
#BGCHANGES:;
#KEYSOUNDS:;
#ATTACKS:
;

//---------------dance-single - ----------------
#NOTEDATA:;
#CHARTNAME:;
#STEPSTYPE:dance-single;
#DESCRIPTION:;
#CHARTSTYLE:;
#DIFFICULTY:Hard;
#METER:14;
#RADARVALUES:0.610616,0.817137,0.363435,0.173817,0.387138,541.000000,495.000000,46.000000,22.000000,0.000000,0.000000,0.000000,0.000000,0.000000,0.610616,0.817137,0.363435,0.173817,0.387138,541.000000,495.000000,46.000000,22.000000,0.000000,0.000000,0.000000,0.000000,0.000000;
#CREDIT:;
#NOTES:
0000
0000
0000
0000
0000
0000
0000
0000
1000
0200
0000
0000
0000
0000
0300
0000
,
1000
0020
0000
0000
0000
0000
0000
0030
1000
0002
0000
0000
0000
0000
0000
0003
,
1000
0020
0000
0000
0000
0000
0000
0030
0001
2000
0000
0000
0000
0000
0000
3000
,
0001
0200
0000
0000
0000
0000
0000
0300
0001
0020
0000
0000
0000
0000
0030
0000
,
0001
2000
0000
0000
0000
0000
0000
3000
0010
0000
0100
0000
0000
0000
0100
0000
,
0000
0000
0100
0010
0100
0010
0100
0010
,
0000
0010
0000
0000
0100
0010
0000
0100
,
0000
0000
1000
0000
0100
0010
0100
0010
,
0000
0110
0000
0000
1000
0100
1000
0100
,
0010
0001
0010
0001
0010
0100
1000
0110
,
0000
1001
0000
0000
1000
0100
0010
0001
,
0010
0100
1000
0100
1000
0100
0010
1001
,
0000
0110
0000
0000
1000
0100
0010
0001
,
0010
0100
1000
0100
1000
0100
1000
0100
,
0010
0001
0010
0000
0100
0010
0100
0010
,
0100
0010
0100
0010
1000
0100
0010
0001
,
0010
0000
0100
0000
1000
0100
1000
0000
0000
0100
0100
0000
0010
0010
0000
0100
,
0100
0000
0010
0000
0010
0000
1000
1000
0000
0100
0100
0000
0010
0010
0000
0001
,
0001
0000
0010
0000
0010
0100
0010
0000
0000
0100
0100
0000
0010
0010
0000
0100
,
0100
0000
0010
0000
0010
0000
1000
1000
0000
0100
0100
0000
0010
0010
0000
0001
,
0001
0000
1001
0000
0100
0010
0100
0000
0000
0010
0001
0000
0100
1000
0000
0010
,
0001
0000
1001
0000
0000
0000
1000
1000
0000
0100
0100
0000
0010
0010
0000
0001
,
0001
0010
0001
0000
1000
0100
2000
0000
0000
0000
0000
3000
0100
0100
0000
0001
,
0001
0000
1001
0000
0000
0000
1000
1000
0000
0100
0100
0000
0010
0010
0000
0001
,
0001
1001
0110
1001
1000
0100
0010
0001
,
0010
0100
1000
0100
1000
0100
1000
2002
,
0000
3003
0000
0000
0100
1000
0100
0010
,
0001
0010
0100
0010
0100
0010
0100
0220
,
0000
0330
0000
0000
0100
0010
0001
0010
,
0100
1000
0100
0010
0001
0010
0100
1000
,
0100
1000
0100
0000
0001
0010
0100
0010
,
0001
0010
0100
1000
0100
1000
0100
0010
,
0001
0000
0010
0000
1000
0100
1000
0000
0000
0100
0100
0000
0010
0010
0000
0100
,
0100
0000
0220
0000
0330
0000
1000
1000
0000
0100
0100
0000
0010
0010
0000
0001
,
0001
0000
1001
0000
0010
0100
0010
0000
0000
1000
1000
0000
0100
0100
0000
0010
,
0010
0000
1001
0000
0000
0000
0100
0100
0000
0010
0010
0000
0100
0100
0000
0010
,
0010
0000
0110
0000
0010
0100
0010
0000
0000
0100
0100
0000
0010
0010
0000
0100
,
0100
0000
1001
0000
0000
0000
0100
0100
0000
0010
0010
0000
0100
0100
0000
0010
,
0010
0000
0110
0000
0010
0100
0010
0000
0000
1000
0100
0000
0010
0001
0000
0010
,
0100
0000
0220
0000
0330
0000
1000
0100
0000
0100
0010
0000
0010
0001
0000
0010
,
0110
0000
1001
0000
0220
0000
0000
0000
0330
0000
1000
0100
2000
0000
3100
0010
,
0100
0000
0010
0001
0010
0100
0000
1000
0100
0000
0010
0000
0001
0000
0010
0100
,
1000
0100
0010
0001
0010
0100
1000
0100
0010
0001
0000
0000
0000
0000
0000
0000
1000
0000
0000
0000
0100
0000
0000
0000
1000
0000
0000
0000
0000
0000
0000
0000
,
0100
0010
0100
0000
0010
0001
0010
0000
,
1000
0100
1000
0100
0010
0001
0010
0100
,
1000
0100
0010
0000
0001
0010
0100
0101
,
0000
0000
1010
0000
1000
0100
1000
0000
0000
0000
0000
0000
0100
0000
0100
0000
,
0000
0010
0010
0000
0100
0100
0000
0110
,
0000
0000
0000
0100
0010
0000
0010
0100
,
0000
0010
0100
0000
0010
0100
0000
0110
,
0000
0110
0000
0010
0100
0000
0010
0100
,
0000
0001
1000
0000
0001
1000
0000
1001
,
0000
0000
0000
0100
0010
0000
0010
0100
,
0000
0100
0010
0000
0010
0100
0000
0110
,
0000
0010
0100
0010
0000
0000
0100
1000
,
0000
0010
0001
0000
1000
0100
0000
0110
,
0000
0110
0000
1000
0100
1000
0100
0010
,
0001
0010
0001
0010
0100
1000
0100
0010
,
0000
0100
0010
0100
0000
0000
0100
1000
,
0000
0001
0010
0000
0100
1000
0000
0110
,
0000
0000
1000
0100
1000
0100
0010
0001
,
0010
0001
0010
0100
1000
0100
0010
0001
,
0010
0100
1000
0000
0000
0100
1000
0100
,
0000
0110
0000
0001
0000
0010
0000
0100
,
0000
1000
0000
0000
0000
0110
0000
0000
,
0000
0110
0000
0000
0000
0110
0000
0000
,
0000
1000
0100
1000
0000
0100
0010
0100
,
0000
0010
0000
0001
0000
0010
0000
0100
,
0000
1000
0000
0000
0000
0110
0000
0000
,
0000
0110
0000
0000
0000
0110
0000
0000
,
0000
0000
0110
0000
0000
0000
0110
0000
0000
0000
1000
0100
0000
0110
0100
0010
,
0100
0000
0100
0010
0100
0110
0000
0110
0000
0100
0010
0100
0000
0100
0010
0001
,
0010
0000
1000
0100
0010
0001
1000
0000
0100
0000
0010
0000
0001
0000
0010
0000
,
0100
2002
0000
0000
0000
0000
0000
3003
;

//---------------dance-single - ----------------
#NOTEDATA:;
#CHARTNAME:;
#STEPSTYPE:dance-single;
#DESCRIPTION:;
#CHARTSTYLE:;
#DIFFICULTY:Medium;
#METER:8;
#RADARVALUES:0.320545,0.408568,0.244924,0.086908,0.000000,284.000000,253.000000,31.000000,11.000000,0.000000,0.000000,0.000000,0.000000,0.000000,0.320545,0.408568,0.244924,0.086908,0.000000,284.000000,253.000000,31.000000,11.000000,0.000000,0.000000,0.000000,0.000000,0.000000;
#CREDIT:;
#NOTES:
0000
0000
1000
0000
,
0100
0000
0010
0000
,
0001
0000
0001
0000
,
0010
0000
0100
0000
,
1000
0000
0000
0000
0000
0100
0000
0100
,
0000
0000
0100
0010
0100
0000
0000
0010
,
0000
0010
0000
0000
0100
0000
0000
0100
,
0000
0000
1000
0000
0100
0010
0100
0000
,
0000
0110
0000
0000
1000
0100
1000
0000
,
0010
0001
0010
0000
0000
0000
0000
0110
,
0000
1001
0000
0000
0000
0000
0010
0001
,
0010
0000
1000
0100
1000
0000
0000
1001
,
0000
0110
0000
0000
1000
0100
0010
0000
,
0000
0000
1000
0100
1000
0000
0000
0000
,
0010
0001
0010
0000
0000
0000
0100
0010
,
0100
0000
0000
0000
0000
0000
0010
0001
,
0010
0000
0000
1000
0000
0100
0010
0000
,
0100
0000
0010
1000
0000
0100
0010
0000
,
0001
0000
0010
0010
0000
0100
0010
0000
,
0100
0010
0010
1000
0000
0100
0010
0000
,
0000
1001
0000
0100
0000
0001
0100
0000
,
0000
1001
0000
1000
0000
0100
0010
0000
,
0001
0000
0001
0000
1000
0000
2000
0000
0000
0000
0000
3000
0100
0000
0000
0000
,
0000
1001
0000
1000
0000
0100
0010
0000
,
0001
0000
0110
0000
0000
0000
0010
0001
,
0010
0000
0000
0000
1000
0100
0000
2002
,
0000
3003
0000
0000
0100
1000
0100
0000
,
0000
0000
0100
0010
0100
0000
0000
0220
,
0000
0330
0000
0000
0000
0000
0001
0010
,
0100
0000
0000
0000
0001
0010
0100
0000
,
0000
0100
0000
0000
,
0001
0010
0100
0000
0000
1000
0100
0010
,
0000
0010
1000
1000
0000
0100
0010
0000
,
0000
0220
0330
1000
0000
0100
0010
0000
,
0000
1001
0000
0010
0000
1000
0100
0000
,
0010
0001
0000
0100
0000
0010
0100
0000
,
0010
0000
0010
0000
0000
0100
0010
0000
,
0100
0000
0000
0100
0000
0010
0100
0000
,
0000
0110
0000
0010
0000
0100
0010
0000
,
0000
0110
0000
1000
0000
0010
0010
0000
,
0110
0000
0220
0000
0330
1000
1000
0100
,
0100
0010
0010
0000
0100
0010
0001
0000
,
1000
0010
0010
0000
1000
0100
1000
0000
,
0000
0000
0000
0000
0010
0001
0010
0000
,
0000
0000
1000
0100
0010
0000
0000
0000
,
1000
0100
0010
0000
0001
0010
0100
0000
,
0000
1000
0000
0000
0000
0000
0100
0000
,
0000
0010
0100
0000
,
0000
0000
0010
0010
,
0000
0000
0100
0000
0010
0000
0000
0110
,
0000
0110
0000
0000
0100
0000
0010
0000
,
0000
0000
1000
0000
0001
0000
0000
1001
,
0000
0000
0010
0010
,
0000
0010
0010
0000
,
0000
0100
0000
0100
,
0000
0000
0001
0000
1000
0000
0000
0110
,
0000
0110
0000
0000
0100
0000
0100
0000
,
0001
0001
0100
0100
,
0000
0010
0000
0100
,
0000
0010
0100
0000
,
0000
1000
1000
0010
,
0010
0010
1000
0010
,
0010
1000
0000
1000
,
0000
0110
0000
0000
0000
0010
0000
0100
,
0000
0000
0000
0000
0000
0110
0000
0000
,
0000
0110
0000
0000
0000
0110
0000
0000
,
0000
0100
0000
0010
,
0000
0010
0000
0000
0000
0010
0000
0000
,
0000
0100
0000
0000
0000
0110
0000
0000
,
0000
0110
0000
0000
0000
0110
0000
0000
,
0000
0000
0000
0110
0000
1000
0000
0100
,
0100
0100
0100
0000
0000
0010
0000
0010
,
0010
1000
0010
0000
0100
0000
0001
0000
,
0000
2002
0000
0000
0000
0000
0000
3003
;

//---------------dance-single - ----------------
#NOTEDATA:;
#CHARTNAME:;
#STEPSTYPE:dance-single;
#DESCRIPTION:;
#CHARTSTYLE:;
#DIFFICULTY:Easy;
#METER:4;
#RADARVALUES:0.177203,0.291835,0.071107,0.047405,0.000000,157.000000,148.000000,9.000000,6.000000,0.000000,0.000000,0.000000,0.000000,0.000000,0.177203,0.291835,0.071107,0.047405,0.000000,157.000000,148.000000,9.000000,6.000000,0.000000,0.000000,0.000000,0.000000,0.000000;
#CREDIT:;
#NOTES:
0000
0000
1000
0000
,
0100
0000
0010
0000
,
0001
0000
0001
0000
,
0010
0000
0100
0000
,
1000
0000
0000
0000
,
0000
0100
0100
0000
,
0000
0000
0100
0000
,
0000
1000
0100
0100
,
0000
0000
1000
1000
,
0010
0010
0000
0000
,
0000
0000
0000
0010
,
0010
1000
1000
0000
,
0000
0000
1000
0010
,
0000
1000
1000
0000
,
0010
0010
0000
0100
,
0100
0000
0000
0010
,
0010
0000
0000
0010
,
0100
0010
0000
0010
,
0001
0010
0000
0010
,
0100
0010
0000
0010
,
0000
0000
0000
0100
,
0000
0000
0000
0010
,
0001
1000
0000
0100
,
0000
0000
0000
0010
,
0001
0110
0000
0010
,
0010
0000
1000
0000
,
0000
0000
0100
0100
,
0000
0100
0100
0000
,
0000
0000
0000
0001
,
0100
0000
0001
0100
,
0000
0100
0000
0000
,
0001
0100
0000
0100
,
0000
1000
0000
0010
,
0000
0220
0330
0000
0000
0000
0010
0000
,
0000
0000
0000
0100
,
0010
0000
0000
0100
,
0010
0010
0000
0010
,
0100
0000
0000
0100
,
0000
0000
0000
0010
,
0000
0000
0000
0010
,
0110
0220
0330
1000
,
0100
0010
0100
0001
,
1000
0010
1000
1000
,
0000
0000
0010
0010
,
0000
1000
0010
0000
,
1000
0010
0001
0100
,
0000
0000
0000
0100
,
0000
0000
0100
0000
,
0000
0000
0010
0000
,
0000
0100
0000
0000
,
0000
0000
0100
0000
,
0000
1000
0001
0000
,
0000
0000
0010
0010
,
0000
0010
0010
0000
,
0000
0100
0000
0100
,
0000
0001
1000
0000
,
0000
0000
0100
0100
,
0001
0001
0100
0100
,
0000
0010
0000
0100
,
0000
0010
0100
0000
,
0000
1000
1000
0010
,
0010
0010
1000
0010
,
0010
1000
0000
1000
,
0000
0000
0000
0000
,
0000
0000
0000
0000
0000
0110
0000
0000
,
0000
0000
0000
0000
0000
0110
0000
0000
,
0000
0100
0000
0010
,
0000
0000
0000
0000
0000
0010
0000
0000
,
0000
0000
0000
0000
,
0000
0110
0000
0000
0000
0000
0000
0000
,
0000
0000
0000
0110
0000
1000
0000
0000
,
0100
0100
0000
0000
,
0010
0010
0100
0001
,
0000
2002
0000
0000
0000
0000
0000
3003
;

//---------------dance-single - ----------------
#NOTEDATA:;
#CHARTNAME:;
#STEPSTYPE:dance-single;
#DESCRIPTION:;
#CHARTSTYLE:;
#DIFFICULTY:Beginner;
#METER:2;
#RADARVALUES:0.097067,0.144436,0.047405,0.015802,0.000000,86.000000,80.000000,6.000000,2.000000,0.000000,0.000000,0.000000,0.000000,0.000000,0.097067,0.144436,0.047405,0.015802,0.000000,86.000000,80.000000,6.000000,2.000000,0.000000,0.000000,0.000000,0.000000,0.000000;
#CREDIT:;
#NOTES:
// measure 0
0000
0000
1000
0000
,  // measure 1
0000
0000
0010
0000
,  // measure 2
0000
0000
0001
0000
,  // measure 3
0000
0000
0100
0000
,  // measure 4
0000
0000
0000
0000
,  // measure 5
0000
0100
0000
0000
,  // measure 6
0000
0000
0100
0000
,  // measure 7
0000
1000
0000
0000
,  // measure 8
0000
0000
1000
0000
,  // measure 9
0010
0000
0000
0000
,  // measure 10
0000
0000
0000
0000
,  // measure 11
0010
0000
1000
0000
,  // measure 12
0000
0000
1000
0000
,  // measure 13
0000
1000
0000
0000
,  // measure 14
0010
0000
0000
0000
,  // measure 15
0100
0000
0000
0000
,  // measure 16
0010
0000
0000
0000
,  // measure 17
0100
0000
0000
0000
,  // measure 18
0001
0000
0000
0000
,  // measure 19
0100
0000
0000
0000
,  // measure 20
0000
0000
0000
0100
,  // measure 21
0000
0000
0000
0000
,  // measure 22
0001
0000
0000
0100
,  // measure 23
0000
0000
0000
0000
,  // measure 24
0001
0000
0000
0000
,  // measure 25
0010
0000
1000
0000
,  // measure 26
0000
0000
0100
0000
,  // measure 27
0000
0000
0100
0000
,  // measure 28
0000
0000
0000
0000
,  // measure 29
0100
0000
0000
0100
,  // measure 30
0000
0100
0000
0000
,  // measure 31
0001
0000
0000
0100
,  // measure 32
0000
1000
0000
0010
,  // measure 33
0000
0000
0000
0010
,  // measure 34
0000
0000
0000
0100
,  // measure 35
0000
0000
0000
0100
,  // measure 36
0000
0010
0000
0000
,  // measure 37
0100
0000
0000
0100
,  // measure 38
0000
0000
0000
0010
,  // measure 39
0000
0000
0000
0000
,  // measure 40
0000
0220
0330
0000
,  // measure 41
0100
0000
0100
0000
,  // measure 42
1000
0000
0000
1000
,  // measure 43
0000
0000
0010
0000
,  // measure 44
0000
1000
0000
0000
,  // measure 45
1000
0000
0001
0000
,  // measure 46
0000
0000
0000
0100
,  // measure 47
0000
0000
0000
0000
,  // measure 48
0000
0000
0010
0000
,  // measure 49
0000
0000
0000
0000
,  // measure 50
0000
0000
0100
0000
,  // measure 51
0000
1000
0000
0000
,  // measure 52
0000
0000
0010
0000
,  // measure 53
0000
0000
0010
0000
,  // measure 54
0000
0000
0000
0100
,  // measure 55
0000
0000
1000
0000
,  // measure 56
0000
0000
0100
0000
,  // measure 57
0001
0000
0000
0100
,  // measure 58
0000
0010
0000
0100
,  // measure 59
0000
0000
0100
0000
,  // measure 60
0000
0000
1000
0000
,  // measure 61
0010
0000
1000
0000
,  // measure 62
0000
1000
0000
1000
,  // measure 63
0000
0000
0000
0000
,  // measure 64
0000
0000
0000
0000
0000
0110
0000
0000
,  // measure 65
0000
0000
0000
0000
0000
0110
0000
0000
,  // measure 66
0000
0100
0000
0010
,  // measure 67
0000
0000
0000
0000
0000
0010
0000
0000
,  // measure 68
0000
0000
0000
0000
,  // measure 69
0000
0110
0000
0000
0000
0000
0000
0000
,  // measure 70
0000
0000
0000
0110
0000
0000
0000
0000
,  // measure 71
0100
0000
0000
0000
,  // measure 72
0010
0000
0100
0000
,  // measure 73
0000
1001
0000
0000
0000
0000
0000
0000
;

//---------------dance-single - ----------------
#NOTEDATA:;
#CHARTNAME:;
#STEPSTYPE:dance-single;
#DESCRIPTION:;
#CHARTSTYLE:;
#DIFFICULTY:Challenge;
#METER:15;
#RADARVALUES:0.720098,0.846320,0.379237,0.102710,0.639962,638.000000,590.000000,48.000000,13.000000,0.000000,0.000000,0.000000,0.000000,0.000000,0.720098,0.846320,0.379237,0.102710,0.639962,638.000000,590.000000,48.000000,13.000000,0.000000,0.000000,0.000000,0.000000,0.000000;
#CREDIT:;
#NOTES:
0000
0000
0000
0000
0000
0000
0000
0000
1000
0100
0010
0100
1000
0000
0000
0000
,
0001
0010
0100
0010
0001
0000
0000
0000
1000
0100
0010
0001
0010
0000
0000
0000
,
0001
0010
0100
1000
0100
0000
0000
0000
0001
0010
0001
0010
0001
0000
0000
0000
,
1000
0100
1000
0100
1000
0000
0000
0000
0100
0010
0100
0010
0100
0000
0000
0000
,
0010
0001
0010
0001
0010
0000
0000
0000
0010
0100
0010
0100
0010
0000
0110
0000
,
1000
0000
0100
0000
0010
0000
0010
0000
0100
0010
0100
0000
0010
0100
0010
0000
,
0110
0000
1001
0000
0110
0000
0000
0000
0100
0010
0001
0000
0010
0100
1000
0000
,
0110
0000
1001
0000
0100
0010
0100
0000
0100
0000
0010
0000
0100
0000
0010
0100
,
0000
0001
0010
0000
1001
0000
0000
0000
1000
0100
0010
0000
1000
0000
0100
0000
,
0010
0000
0001
0000
0010
0000
0001
0000
0010
0000
0100
0000
1000
0000
0100
0010
,
0100
0000
0010
0100
0010
0000
0110
0000
0110
0000
0100
0000
0010
0000
0001
0000
,
0010
0000
0100
0000
1000
0000
0100
0000
1000
0000
0100
0000
0010
0000
1000
0100
,
0010
0001
0010
0100
1000
0000
0000
0000
1000
0000
0100
0000
0010
0000
0001
0000
,
0010
0000
0100
0000
1000
0100
0010
0000
1000
0100
0010
0000
1000
0100
0010
0000
,
0010
0000
0001
0000
0010
0000
0000
0000
0100
0010
0100
0000
0100
0000
0010
0000
,
0100
0000
0010
0000
0100
0000
0010
0000
1000
0000
0100
0000
0010
0000
0001
0010
,
0000
0010
0100
0000
1000
0100
1000
0000
0000
0100
0010
0000
0010
0001
0000
0100
,
1000
0000
0010
0000
0001
0000
1000
0100
1000
0100
1000
0100
0010
0001
0010
0001
,
0010
0000
0000
0000
0010
0100
1000
0000
0000
0100
0010
0000
0010
0001
0000
0100
,
1000
0000
0010
0001
0000
0000
1000
0100
0000
0100
0010
0000
0010
0001
0000
0001
,
0010
0100
1000
0000
0100
0010
0100
0000
0000
0010
0001
0000
0100
1000
0000
0010
,
0001
0000
1001
0000
0000
0000
1000
0100
0000
0100
0010
0000
0010
0001
0000
0001
,
0010
0100
1000
0000
0100
0010
0001
0000
0000
0010
0100
0000
0010
0100
0000
0001
,
0010
0100
1000
0000
0000
0000
1000
0100
0010
0001
0010
0100
1000
0100
0010
0001
,
0000
0000
1001
0000
0110
0000
1001
0000
1000
0100
0010
0000
0010
0000
0001
0000
,
0010
0100
1000
0100
1000
0100
1000
2002
,
0000
0000
3003
0000
0000
0000
0000
0000
0100
0010
0100
0000
0100
0000
0010
0000
,
0001
0010
0100
0010
0100
0010
0100
0220
,
0000
0000
0330
0000
0000
0000
0000
0000
0100
0010
0100
0000
0001
0000
0010
0000
,
0100
0000
1000
0000
0100
0000
0010
0001
0010
0000
0010
0000
0100
0000
1000
0000
,
0100
0000
1000
0000
0100
0000
0000
0000
0001
0010
0100
0000
0100
0000
0010
0000
,
0001
0010
0100
1000
0100
1000
0100
0010
,
0001
0000
0010
0000
1000
0100
0010
0000
0000
0100
0010
0001
0010
0100
0000
0100
,
0010
0000
0220
0000
0330
0000
1000
0100
0000
0100
0010
0000
0010
0001
0000
0001
,
0010
0000
1001
0000
0010
0100
0010
0000
0000
1000
0100
0000
0100
0010
0000
0010
,
0001
0000
1001
0000
0000
0000
0100
0010
0000
0010
0100
0000
0100
0010
0000
0010
,
0100
0000
0110
0000
0010
0100
0010
0000
0000
0100
1000
0000
0010
0001
0000
0100
,
0010
0000
1001
0000
0000
0000
0100
1000
0000
0010
0001
0000
0100
1000
0000
0010
,
0001
0000
0110
0000
0010
0100
0010
0000
0000
1000
0100
0000
0010
0001
0000
0010
,
0100
0000
0220
0000
0330
0000
1000
0100
0000
0100
0010
0000
0010
0001
0000
0010
,
0110
0000
1001
0000
0220
0000
0000
0000
0330
0000
1000
0100
2000
0000
3100
0010
,
0100
0000
0010
0001
0010
0100
0000
1000
0100
0000
0010
0000
0001
0000
0010
0100
,
1000
0100
0010
0001
0010
0100
1000
0100
0010
0001
0000
0000
0000
0000
0000
0000
1000
0000
0100
0000
1000
0000
0000
0000
1000
0000
0000
0000
0000
0000
0000
0000
,
0100
0010
0100
0000
0100
0000
0000
0000
0010
0001
0010
0000
0010
0000
0000
0000
,
1000
0100
1000
0100
0010
0001
0010
0100
,
1000
0100
0010
0000
0001
0010
0100
0101
,
0000
0000
1010
0000
1000
0100
1000
0000
0000
0000
0000
0000
0100
0010
0100
0000
,
0000
0000
0010
0100
0010
0000
0000
0000
0100
0010
0100
0000
0000
0000
0110
0000
,
0000
0000
0000
0100
0010
0000
0010
0100
,
0000
0000
0010
0000
0100
0000
0000
0000
0010
0100
0010
0000
0000
0000
0110
0000
,
0000
0000
0110
0000
0000
0000
0010
0001
0010
0000
0000
0000
0010
1000
0010
0000
,
0000
0001
1000
0000
0001
1000
0000
1001
,
0000
0000
0000
0000
0000
0000
0100
0010
0100
0000
0000
0000
0010
0100
0010
0000
,
0000
0000
0100
0010
0100
0000
0000
0000
0010
0100
0010
0000
0000
0000
0110
0000
,
0000
0010
0100
0010
0000
0000
0100
1000
,
0000
0010
0001
0000
1000
0100
0000
0110
,
0000
0000
0110
0000
0000
0000
1000
0100
0010
0000
1000
0100
0010
0000
0000
0000
,
0001
0010
0100
0000
0001
0010
0100
0000
0100
0000
1000
0000
0100
0000
0010
0000
,
0000
0000
0100
0000
0010
0000
0100
0000
0000
0000
0000
0000
0100
1000
0100
0000
,
0000
0000
0001
0010
0001
0000
0000
0000
0100
0010
0100
0000
0000
0000
0110
0000
,
0000
0000
1000
0100
1000
0100
0010
0001
,
0010
0001
0010
0100
1000
0100
0010
0001
,
0010
0100
1000
0000
0000
0100
1000
0100
,
0000
0110
0000
0001
0000
0010
0000
0100
,
0000
1000
0000
0000
0000
0110
0000
0000
,
0000
0110
0000
0000
0000
0110
0000
0000
,
0000
1000
0100
1000
0000
0100
0010
0100
,
0000
0010
0000
0001
0000
0010
0000
0100
,
0000
1000
0000
0000
0000
0110
0000
0000
,
0000
0110
0000
0000
0000
0110
0000
0000
,
0000
0000
0110
0000
0000
0000
0110
0000
0000
0000
1000
0100
0000
0110
0100
0010
,
0100
0000
0100
0010
0100
0110
0000
0110
0000
0100
0010
0100
0000
0100
0010
0001
,
0010
0000
1000
0100
0010
0001
1000
0100
1000
0000
0010
0001
0010
0000
0010
0100
,
0010
2002
0000
0000
0000
0000
0000
3003
;
