#TITLE:SALTY;
#SUBTITLE:;
#ARTIST:THE BOYZ;
#TITLETRANSLIT:;
#SUBTITLETRANSLIT:;
#ARTISTTRANSLIT:;
#GENRE:;
#CREDIT:;
#BANNER:banner.png;
#BACKGROUND:;
#LYRICSPATH:;
#CDTITLE:;
#MUSIC:SALTY.ogg;
#OFFSET:-0.500000;
#SAMPLESTART:30.500000;
#SAMPLELENGTH:12.000000;
#SELECTABLE:YES;
#BPMS:0.000000=133.000000
,16.000000=135.000000
,50.500000=133.500000
,100.000000=135.000000
,116.000000=133.500000
,132.000000=66.750000
,148.000000=133.500000
,164.000000=135.000000
,180.000000=66.750000
,196.000000=135.000000
;
#STOPS:
;
#BGCHANGES:;
#KEYSOUNDS:;
#ATTACKS:;

//---------------dance-single - ----------------
#NOTES:
     dance-single:
     :
     Hard:
     12:
     0.443059,0.514440,0.369216,0.139481,0.188710,378.000000,333.000000,45.000000,17.000000,0.000000,0.000000,0.443059,0.514440,0.369216,0.139481,0.188710,378.000000,333.000000,45.000000,17.000000,0.000000,0.000000:
0000
0000
0000
0000
,
1000
0100
0010
0000
1001
0000
0110
0000
,
0001
0000
0010
0100
1000
0100
0010
0001
,
1000
0100
0010
0000
1001
0000
0000
0000
,
0001
0010
0100
1000
0100
0010
0001
0010
,
0100
1000
0100
0000
0110
0000
0000
0000
,
1000
0100
0010
0001
0010
0100
1000
0100
,
0010
0001
0020
0000
0000
0000
0030
0000
,
0220
0000
0330
0000
,
1000
0000
0000
0000
0100
0000
0000
0000
0010
0000
0000
0001
0010
0000
0100
0000
,
1000
0000
0000
0000
0100
0000
0000
0000
0010
0000
0000
0001
0010
0000
0100
0000
,
0100
0000
0010
0000
0100
0000
0010
0100
,
0000
0000
0110
0000
0000
1000
0100
0010
,
0001
0000
0000
0000
1000
0001
1000
0001
,
0000
0000
0000
0100
0010
0001
0010
0100
,
1000
0000
1000
0000
1000
0000
0100
0010
,
0001
0000
0000
0000
0000
0000
0000
0000
0000
0000
0000
0000
0001
0000
0000
0000
0000
0000
0000
0000
0000
0000
0000
0000
2002
3003
0000
0000
0000
0000
0000
0000
0000
0000
0000
0000
0000
0000
0000
0000
0000
0000
0000
0000
0000
0000
0000
0000
,
2002
3003
0220
0330
,
1000
0000
0100
0000
0010
0001
0010
0100
,
2000
0000
3001
0110
,
0010
0000
0000
0010
0000
0000
0010
0000
0100
0000
0000
0100
0000
0000
0100
0000
,
0000
0000
0010
0000
0000
0000
1000
0100
0010
0000
0001
0000
0010
0000
0000
0000
,
1000
0100
0010
0001
0010
0100
1000
0100
,
0020
0000
0000
0000
0130
0000
1000
0100
,
0010
0000
0001
0010
0000
0100
1000
0000
0110
0000
0000
0000
1001
0000
0000
0000
,
1000
0000
0100
0000
0010
0001
0010
0000
0010
0000
0100
0000
1000
0100
1000
0000
,
1000
0100
0010
0000
0001
0000
0010
0000
0100
0000
1000
0000
0110
0000
0000
0000
,
0010
0000
0001
0000
0010
0001
0010
0000
0010
0000
0100
0000
1000
0100
1000
0000
,
0100
0000
0010
0100
0010
0000
0100
0000
1000
0000
0100
0000
0010
0000
0001
0000
,
0110
0000
1001
0000
0100
0010
0100
0000
0010
0000
0001
0000
0010
0100
0010
0000
,
0010
0100
1000
0100
0010
0001
0010
0100
,
1000
0100
0010
0001
,
0220
0000
0330
0000
,
0110
0000
0000
0000
0000
0000
0000
0100
0010
0100
0000
0000
0000
0000
0000
1000
0001
1000
0000
0000
0000
0000
0000
0100
0010
0100
0000
0000
0000
0100
0000
0000
,
0000
0000
0000
0000
0000
0000
0000
0100
0010
0100
0000
0000
0000
0000
0000
1000
0001
1000
0000
0000
0000
0000
0000
0100
0010
0100
0000
0000
0000
0100
0000
0000
,
0000
0000
0000
0000
0000
0000
0000
1000
0100
0010
0000
0000
0000
0000
0000
0001
0010
0100
0000
0000
0000
1000
0000
0000
0000
0000
0000
0000
0100
0000
0000
0000
,
0010
0000
0110
0000
1000
0010
0100
0000
,
0100
0100
0100
0100
,
0010
0000
0010
0000
0010
0100
0010
0100
,
0010
0010
0010
0010
,
0001
0000
0000
0001
0000
0000
0001
0000
1000
0000
0000
1000
0000
0000
1000
0000
,
0100
0000
0010
0000
0000
0000
0010
0100
0010
0000
0100
0000
0010
0000
0000
0000
,
1001
0000
0110
0000
1000
0100
0010
0001
,
0100
0100
0100
0100
,
0010
0010
0010
0010
,
0110
0000
0000
0000
1001
0000
0000
0000
1000
0000
0100
0000
0010
0001
0010
0100
,
1000
0000
0000
0000
0100
0000
0000
0000
0010
0000
0000
0000
0001
0000
0000
0000
1000
0000
0000
0000
1000
0000
0000
0000
1000
0000
0000
1000
0000
0000
1000
0000
,
0110
0000
0001
0000
0010
0100
1000
0000
0100
0000
0010
0000
0001
0010
0100
0000
,
1000
0000
0110
0000
0001
0010
0100
1000
,
0100
1001
0000
0110
0000
1001
0000
0110
,
0000
0000
0010
0000
0100
1000
0100
0000
0010
0000
0001
0000
0010
0000
0000
0000
,
0110
1001
0000
0110
0000
1001
0000
0110
,
0000
0000
0010
0000
0100
0010
0100
0000
0010
0000
0001
0000
0010
0000
0100
0000
,
1000
0110
0000
1001
0000
0110
0000
1001
,
0100
0000
0010
0000
0100
0000
0010
0100
0010
0000
0110
0000
1001
0000
0000
0000
,
0110
1001
1001
0110
,
2002
0000
0000
3003
0220
0000
0000
0000
,
0330
0000
0000
0000
;

//---------------dance-single - ----------------
#NOTES:
     dance-single:
     :
     Medium:
     8:
     0.341085,0.397522,0.123072,0.065638,0.000000,291.000000,276.000000,15.000000,8.000000,0.000000,0.000000,0.341085,0.397522,0.123072,0.065638,0.000000,291.000000,276.000000,15.000000,8.000000,0.000000,0.000000:
0000
0000
0000
0000
,
1000
0100
0010
0000
1001
0000
0000
0000
,
0001
0000
0010
0100
1000
0100
0010
0001
,
1000
0100
0010
0000
1001
0000
0000
0000
,
0001
0010
0100
1000
0100
0010
0001
0010
,
0100
1000
0100
0000
0000
0000
0000
0000
,
1000
0100
0010
0001
0010
0100
1000
0100
,
0010
0001
0010
0000
0000
0000
0000
0000
,
0110
0000
0000
0000
,
1000
0000
0100
0000
0010
0000
0010
0100
,
1000
0100
0010
0010
,
0100
0000
0010
0000
0100
0000
0010
0100
,
0000
0000
0000
0000
0000
1000
0100
0010
,
0001
0000
0000
0000
1000
0001
1000
0001
,
0000
0000
0000
0100
0010
0001
0010
0100
,
1000
0000
0000
0000
1000
0000
0100
0010
,
0001
0000
1001
0000
,
1001
0000
0110
0000
,
1000
0000
0100
0000
0010
0001
0010
0100
,
2000
0000
3001
0000
,
0010
0000
0000
0010
0100
0000
0000
0100
,
0000
0010
0000
1000
0010
0001
0010
0000
,
1000
0100
0010
0001
0010
0100
1000
0100
,
0020
0000
0000
0000
0130
0000
1000
0100
,
0010
0001
0000
1000
0000
0000
0000
0000
,
1000
0100
0010
0010
0010
0100
1000
1000
,
1000
0010
0001
0010
0100
1000
0110
0000
,
0010
0001
0010
0010
0010
0100
1000
1000
,
0100
0010
0010
0100
1000
0100
0010
0001
,
0100
1000
0100
0100
0010
0001
0010
0010
,
0010
0100
1000
0100
0010
0001
0010
0100
,
1000
0100
0010
0001
,
0220
0000
0330
0000
,
0110
0010
0001
0010
,
0000
0010
0001
0010
,
0000
0000
0100
0000
0010
0000
0000
0100
,
0010
0000
0010
0000
1000
0010
0100
0000
,
0100
0100
0100
0100
,
0010
0010
0010
0010
,
0010
0010
0010
0010
,
0001
0000
0000
0001
1000
0000
0000
1000
,
0100
0010
0000
0010
0010
0100
0010
0000
,
1000
0000
0100
0000
1000
0100
0010
0001
,
0100
0100
0100
0100
,
0010
0010
0010
0010
,
0110
0000
1001
0000
1000
0100
0010
0010
,
1000
0100
0010
0001
1000
1000
1000
0000
,
0110
0001
0010
1000
0100
0010
0001
0100
,
1000
0000
0110
0000
0001
0010
0100
1000
,
0100
1000
0000
0100
0000
1000
0000
0100
,
0000
0010
0100
0100
0010
0001
0010
0000
,
0100
1000
0000
0010
0000
1000
0000
0100
,
0000
0010
0100
0100
0010
0001
0010
0100
,
1000
0100
0000
0001
0000
0100
0000
1000
,
0100
0010
0100
0010
0010
0100
1000
0000
,
0100
0001
1000
0100
,
2002
0000
0000
3003
0220
0000
0000
0000
,
0330
0000
0000
0000
;

//---------------dance-single - ----------------
#NOTES:
     dance-single:
     :
     Easy:
     4:
     0.219185,0.280604,0.123072,0.065638,0.000000,187.000000,172.000000,15.000000,8.000000,0.000000,0.000000,0.219185,0.280604,0.123072,0.065638,0.000000,187.000000,172.000000,15.000000,8.000000,0.000000,0.000000:
0000
0000
0000
0000
,
1000
0010
1001
0000
,
0001
0010
1000
0010
,
1000
0010
1001
0000
,
0001
0100
0100
0001
,
0100
0100
0000
0000
,
1000
0010
0010
1000
,
0010
0010
0000
0000
,
0110
0000
0000
0000
,
1000
0100
0010
0010
,
1000
0100
0010
0010
,
0100
0010
0100
0010
,
0000
0000
0000
0100
,
0001
0000
1000
1000
,
0000
0000
0010
0010
,
1000
0000
1000
0100
,
0001
0000
1001
0000
,
1001
0000
0110
0000
,
1000
0100
0010
0010
,
2000
0000
3001
0000
,
0010
0000
0100
0000
,
0000
0000
0010
0010
,
1000
0010
0010
1000
,
0020
0000
0130
1000
,
0010
0000
0000
0000
,
1000
0010
0010
1000
,
1000
0001
0100
0110
,
0010
0010
0010
1000
,
0100
0010
1000
0010
,
0100
0100
0010
0010
,
0010
1000
0010
0010
,
1000
0100
0010
0001
,
0220
0000
0330
0000
,
0110
0010
0001
0010
,
0000
0010
0001
0010
,
0000
0100
0010
0000
,
0010
0010
1000
0100
,
0100
0100
0100
0100
,
0010
0010
0010
0010
,
0010
0010
0010
0010
,
0001
0000
1000
0000
,
0100
0000
0010
0010
,
1000
0100
1000
0010
,
0100
0100
0100
0100
,
0010
0010
0010
0010
,
0110
1001
1000
0010
,
1000
0010
1000
1000
,
0110
0010
0100
0001
,
1000
0110
0001
0100
,
0100
0000
0000
0000
,
0000
0100
0010
0010
,
0100
0000
0000
0000
,
0000
0100
0010
0010
,
1000
0000
0000
0000
,
0100
0100
0010
1000
,
0100
0001
1000
0100
,
2002
0000
0000
3003
0220
0000
0000
0000
,
0330
0000
0000
0000
;

//---------------dance-single - ----------------
#NOTES:
     dance-single:
     :
     Beginner:
     3:
     0.118383,0.185428,0.065638,0.000000,0.000000,101.000000,93.000000,8.000000,0.000000,0.000000,0.000000,0.118383,0.185428,0.065638,0.000000,0.000000,101.000000,93.000000,8.000000,0.000000,0.000000,0.000000:
// measure 0
0000
0000
0000
0000
,  // measure 1
1000
0000
1000
0000
,  // measure 2
0001
0000
1000
0000
,  // measure 3
1000
0000
1000
0000
,  // measure 4
0001
0000
0100
0000
,  // measure 5
0100
0000
0000
0000
,  // measure 6
1000
0000
0000
1000
,  // measure 7
0000
0010
0000
0000
,  // measure 8
0110
0000
0000
0000
,  // measure 9
1000
0000
0010
0000
,  // measure 10
1000
0000
0010
0000
,  // measure 11
0100
0000
0100
0000
,  // measure 12
0000
0000
0000
0100
,  // measure 13
0000
0000
1000
0000
,  // measure 14
0000
0000
0010
0000
,  // measure 15
1000
0000
1000
0000
,  // measure 16
0001
0000
0001
0000
,  // measure 17
0001
0000
0100
0000
,  // measure 18
1000
0000
0010
0000
,  // measure 19
1000
0000
0000
0000
,  // measure 20
0010
0000
0100
0000
,  // measure 21
0000
0000
0010
0000
,  // measure 22
1000
0010
0000
1000
,  // measure 23
0000
0000
0100
0000
,  // measure 24
0010
0000
0000
0000
,  // measure 25
1000
0000
0010
0000
,  // measure 26
1000
0001
0000
0110
,  // measure 27
0000
0010
0000
1000
,  // measure 28
0000
0000
1000
0000
,  // measure 29
0100
0000
0000
0010
,  // measure 30
0000
1000
0000
0000
,  // measure 31
1000
0000
0010
0000
,  // measure 32
0110
0000
0000
0000
,  // measure 33
0110
0000
0000
0010
,  // measure 34
0000
0010
0000
0010
,  // measure 35
0000
0100
0000
0000
,  // measure 36
0010
0000
1000
0000
,  // measure 37
0100
0000
0100
0000
,  // measure 38
0010
0000
0010
0000
,  // measure 39
0010
0000
0010
0000
,  // measure 40
0001
0000
1000
0000
,  // measure 41
0100
0000
0010
0000
,  // measure 42
1000
0000
0000
0000
,  // measure 43
0100
0000
0000
0000
,  // measure 44
0010
0000
0000
0000
,  // measure 45
0110
0000
1000
0000
,  // measure 46
1000
0000
1000
0000
,  // measure 47
0110
0000
0100
0000
,  // measure 48
1000
0000
0001
0000
,  // measure 49
0100
0000
0000
0000
,  // measure 50
0000
0100
0000
0000
,  // measure 51
0100
0000
0000
0000
,  // measure 52
0000
0100
0000
0000
,  // measure 53
1000
0000
0000
0000
,  // measure 54
0100
0000
0010
1000
,  // measure 55
0000
0001
0000
0100
,  // measure 56
1001
0000
0110
0000
;
