#VERSION:0.83;
#TITLE:KAY DALI;
#SUBTITLE:;
#ARTIST:ELMO MAGALONA;
#TITLETRANSLIT:;
#SUBTITLETRANSLIT:;
#ARTISTTRANSLIT:;
#GENRE:;
#ORIGIN:;
#CREDIT:;
#BANNER:banner.png;
#BACKGROUND:;
#PREVIEWVID:;
#JACKET:jacket.png;
#CDIMAGE:;
#DISCIMAGE:;
#LYRICSPATH:;
#CDTITLE:;
#MUSIC:Kay Dali.ogg;
#OFFSET:-0.100000;
#SAMPLESTART:-0.092000;
#SAMPLELENGTH:12.000000;
#SELECTABLE:YES;
#BPMS:0.000=120.000;
#STOPS:;
#DELAYS:;
#WARPS:;
#TIMESIGNATURES:0.000=4=4;
#TICKCOUNTS:0.000=4;
#COMBOS:0.000=1;
#SPEEDS:0.000=1.000=0.000=0;
#SCROLLS:0.000=1.000;
#FAKES:;
#LABELS:0.000=Song Start;
#BGCHANGES:;
#KEYSOUNDS:;
#ATTACKS:
;

//---------------dance-single - ----------------
#NOTEDATA:;
#CHARTNAME:;
#STEPSTYPE:dance-single;
#DESCRIPTION:;
#CHARTSTYLE:;
#DIFFICULTY:Hard;
#METER:11;
#RADARVALUES:0.391286,0.462207,0.108119,0.000000,0.174191,228.000000,219.000000,9.000000,0.000000,0.000000,0.000000,0.000000,0.000000,0.000000,0.391286,0.462207,0.108119,0.000000,0.174191,228.000000,219.000000,9.000000,0.000000,0.000000,0.000000,0.000000,0.000000,0.000000;
#CREDIT:;
#NOTES:
0000
0000
0000
0000
0000
1000
0000
0000
,
1000
0000
0000
0000
0000
0001
0000
0000
,
0001
0000
0000
0000
0000
1000
0000
0000
,
1000
0000
0000
0000
0000
0001
0000
0000
,
0001
0000
0000
0000
0000
0000
0000
0000
0000
0000
1000
0000
0010
0100
0000
0000
,
0001
0000
0010
0100
0000
0000
1000
0000
0100
0000
0010
0000
0000
0010
0000
0000
,
0010
0000
0100
0010
0001
0010
0000
0010
,
0100
0000
0000
0000
0000
0000
0010
0000
0100
0000
0000
0000
0100
0010
0100
0010
,
0100
0110
1001
0110
0000
0000
0010
1000
,
0010
0000
0100
0000
0010
0000
0001
0000
0010
0000
0100
0000
0000
0100
0000
0000
,
0100
0000
0000
0000
1000
0000
0001
1000
0000
0000
0000
0000
1000
0000
0100
0000
,
0010
0000
0001
0000
0010
0000
0100
0000
1000
0000
0100
0000
0000
0100
0000
0000
,
0100
0000
0000
0000
1000
0000
0001
1000
0000
0000
0000
0000
1000
0000
0100
0000
,
0010
0001
0000
0000
0010
0100
0000
0100
,
0000
0100
0000
0000
0100
0000
0000
0000
1000
0000
0100
0000
0000
0000
0010
0000
,
0001
0000
0000
0010
0100
0000
0010
0100
,
0010
0100
0000
0000
0000
1000
0000
0100
,
0010
0000
0100
0000
0000
0001
0000
0010
,
0100
0000
0010
0000
1000
0100
0000
0010
,
0001
0000
0010
0000
0100
0000
0100
0010
,
0100
0010
0100
0010
0000
1000
0000
0001
,
0010
0000
0110
0000
0000
0001
0000
1000
,
0100
0000
0110
0000
1000
0100
0000
0001
,
0010
0000
0000
1000
0100
0000
0000
0100
,
0010
0000
0000
0000
1000
0000
1000
0000
0000
0000
0001
0000
0010
0100
0000
0000
,
0100
0000
0010
0001
0000
0000
0000
0000
1000
0000
0100
0000
0000
0100
0000
0000
,
0100
0000
0000
0000
0000
0000
0000
0000
0000
0000
0001
0000
0010
0100
0000
0000
,
1000
0000
0100
0010
0000
0000
0001
0000
0010
0000
0100
0000
0000
0100
0000
0000
,
0100
0000
0000
0100
0000
0000
0100
0000
0000
0000
1000
0000
0100
0010
0000
0000
,
0001
0000
0010
0100
0000
0000
1000
0000
0100
0000
0010
0000
0000
0010
0000
0000
,
0010
0001
0010
0100
1000
0100
0000
0010
,
0100
0000
0000
0010
0100
0000
0000
0000
,
0000
0000
0110
0000
0010
0000
0100
0000
0010
0000
0100
0000
1000
0100
0000
0000
,
0001
0000
0010
0100
0000
0000
0000
0000
1000
0000
0100
0000
0000
0100
0000
0000
,
0100
0000
0010
0000
0001
0000
0010
0000
0100
0000
1000
0000
0100
0010
0000
0000
,
0001
0000
0010
0100
0000
0000
1000
0000
0100
0000
0010
0000
0000
0010
0000
0000
,
0010
0000
0000
0000
1001
0000
0110
0000
1001
0000
0010
0000
0100
1000
0000
0000
,
0010
0000
0100
1000
0000
0000
1000
0000
0100
0000
0010
0000
0000
0010
0000
0000
,
0010
0001
0010
0100
1000
0100
0000
0010
,
0001
0000
0000
0100
0010
0000
0100
1000
,
0100
0010
0000
0010
0100
0000
0000
0000
;

//---------------dance-single - ----------------
#NOTEDATA:;
#CHARTNAME:;
#STEPSTYPE:dance-single;
#DESCRIPTION:;
#CHARTSTYLE:;
#DIFFICULTY:Medium;
#METER:8;
#RADARVALUES:0.341517,0.413553,0.108119,0.000000,0.000000,199.000000,190.000000,9.000000,0.000000,0.000000,0.000000,0.000000,0.000000,0.000000,0.341517,0.413553,0.108119,0.000000,0.000000,199.000000,190.000000,9.000000,0.000000,0.000000,0.000000,0.000000,0.000000,0.000000;
#CREDIT:;
#NOTES:
0000
0000
0000
0000
0000
1000
0000
0000
,
1000
0000
0000
0000
0000
0001
0000
0000
,
0001
0000
0000
0000
0000
1000
0000
0000
,
1000
0000
0000
0000
0000
0001
0000
0000
,
0001
0000
0000
0000
0000
1000
0010
0000
,
0001
0010
0000
1000
0100
0010
0000
0000
,
0010
0000
0100
0010
0001
0010
0000
0010
,
0100
0000
0000
0010
0100
0000
0100
0100
,
0100
0110
1001
0110
0000
0000
0010
1000
,
0010
0100
0010
0001
0010
0100
0000
0000
,
0100
0000
1000
0001
0000
0000
1000
0100
,
0010
0001
0010
0100
1000
0100
0000
0000
,
0100
0000
1000
0001
0000
0000
1000
0100
,
0010
0001
0000
0000
0010
0100
0000
0100
,
0000
0000
0100
0000
1000
0100
0000
0010
,
0001
0000
0000
0010
0100
0000
0010
0100
,
0010
0100
0000
0000
0000
1000
0000
0100
,
0010
0000
0100
0000
0000
0001
0000
0010
,
0100
0000
0010
0000
1000
0100
0000
0010
,
0001
0000
0010
0000
0100
0000
0100
0010
,
0100
0010
0100
0010
0000
1000
0000
0001
,
0010
0000
0110
0000
0000
0001
0000
1000
,
0100
0000
0110
0000
1000
0100
0000
0001
,
0010
0000
0000
1000
0100
0000
0000
0100
,
0010
0000
1000
1000
0000
0001
0010
0000
,
0100
0010
0000
0000
1000
0100
0000
0000
,
0100
0000
0000
0000
0000
0001
0010
0000
,
1000
0100
0000
0001
0010
0100
0000
0000
,
0100
0000
0000
0100
0000
1000
0100
0000
,
0001
0010
0000
1000
0100
0010
0000
0000
,
0010
0001
0010
0100
1000
0100
0000
0010
,
0100
0000
0000
0010
0100
0000
0000
0000
,
0000
0110
0010
0100
0010
0100
1000
0000
,
0001
0010
0000
0000
1000
0100
0000
0000
,
0100
0010
0001
0010
0100
1000
0100
0000
,
0001
0010
0000
1000
0100
0010
0000
0000
,
0010
0000
1001
0110
1001
0010
0100
0000
,
0010
0100
0000
1000
0100
0010
0000
0000
,
0010
0001
0010
0100
1000
0100
0000
0010
,
0001
0000
0000
0100
0010
0000
0100
1000
,
0100
0010
0000
0010
0100
0000
0000
0000
;

//---------------dance-single - ----------------
#NOTEDATA:;
#CHARTNAME:;
#STEPSTYPE:dance-single;
#DESCRIPTION:;
#CHARTSTYLE:;
#DIFFICULTY:Easy;
#METER:4;
#RADARVALUES:0.175049,0.218940,0.060066,0.000000,0.000000,102.000000,97.000000,5.000000,0.000000,0.000000,0.000000,0.000000,0.000000,0.000000,0.175049,0.218940,0.060066,0.000000,0.000000,102.000000,97.000000,5.000000,0.000000,0.000000,0.000000,0.000000,0.000000,0.000000;
#CREDIT:;
#NOTES:
0000
0000
0000
0000
,
1000
0000
0000
0000
,
0001
0000
0000
0000
,
1000
0000
0000
0000
,
0001
0000
0000
0010
,
0001
0000
0100
0000
,
0010
0100
0001
0000
,
0100
0000
0100
0100
,
0100
1001
0000
0010
,
0010
0010
0010
0000
,
0100
1000
0000
1000
,
0010
0010
1000
0000
,
0100
1000
0000
1000
,
0010
0000
0010
0000
,
0000
0100
1000
0000
,
0001
0000
0100
0010
,
0010
0000
0000
0000
,
0010
0100
0000
0000
,
0100
0010
1000
0000
,
0001
0010
0100
0100
,
0100
0100
0000
0000
,
0010
0110
0000
0000
,
0100
0110
1000
0000
,
0010
0000
0100
0000
,
0010
1000
0000
0010
,
0100
0000
1000
0000
,
0100
0000
0000
0010
,
1000
0000
0010
0000
,
0100
0000
0000
0100
,
0001
0000
0100
0000
,
0010
0010
1000
0000
,
0100
0000
0100
0000
,
0000
0010
0010
1000
,
0001
0000
1000
0000
,
0100
0001
0100
0100
,
0001
0000
0100
0000
,
0010
1001
1001
0100
,
0010
0000
0100
0000
,
0010
0010
1000
0000
,
0001
0000
0010
0100
,
0100
0000
0100
0000
;

//---------------dance-single - ----------------
#NOTEDATA:;
#CHARTNAME:;
#STEPSTYPE:dance-single;
#DESCRIPTION:;
#CHARTSTYLE:;
#DIFFICULTY:Beginner;
#METER:2;
#RADARVALUES:0.099538,0.121633,0.048053,0.000000,0.000000,58.000000,54.000000,4.000000,0.000000,0.000000,0.000000,0.000000,0.000000,0.000000,0.099538,0.121633,0.048053,0.000000,0.000000,58.000000,54.000000,4.000000,0.000000,0.000000,0.000000,0.000000,0.000000,0.000000;
#CREDIT:;
#NOTES:
// measure 0
0000
0000
0000
0000
,  // measure 1
1000
0000
0000
0000
,  // measure 2
0001
0000
0000
0000
,  // measure 3
1000
0000
0000
0000
,  // measure 4
0001
0000
0000
0010
,  // measure 5
0000
0000
0100
0000
,  // measure 6
0000
0100
0000
0000
,  // measure 7
0100
0000
0000
0100
,  // measure 8
0000
1001
0000
0010
,  // measure 9
0000
0000
0000
0000
,  // measure 10
0100
0000
0000
1000
,  // measure 11
0000
0010
0000
0000
,  // measure 12
0100
0000
0000
1000
,  // measure 13
0000
0000
0010
0000
,  // measure 14
0000
0000
1000
0000
,  // measure 15
0001
0000
0100
0000
,  // measure 16
0000
0000
0000
0000
,  // measure 17
0010
0000
0000
0000
,  // measure 18
0000
0010
0000
0000
,  // measure 19
0000
0010
0000
0100
,  // measure 20
0000
0100
0000
0000
,  // measure 21
0000
0110
0000
0000
,  // measure 22
0000
0110
0000
0000
,  // measure 23
0010
0000
0100
0000
,  // measure 24
0010
0000
0000
0010
,  // measure 25
0000
0000
1000
0000
,  // measure 26
0100
0000
0000
0010
,  // measure 27
0000
0000
0010
0000
,  // measure 28
0100
0000
0000
0100
,  // measure 29
0000
0000
0100
0000
,  // measure 30
0000
0010
0000
0000
,  // measure 31
0100
0000
0100
0000
,  // measure 32
0000
0010
0000
1000
,  // measure 33
0000
0000
1000
0000
,  // measure 34
0100
0000
0000
0100
,  // measure 35
0000
0000
0100
0000
,  // measure 36
0000
1001
0000
0100
,  // measure 37
0000
0000
0100
0000
,  // measure 38
0000
0010
0000
0000
,  // measure 39
0001
0000
0010
0000
,  // measure 40
0000
0000
0100
0000
;
