#VERSION:0.83;
#TITLE:Ice Cream (Bad Boy Remix);
#SUBTITLE:;
#ARTIST:BLACKPINK feat. Selena Gomez Remixed by iPARTYNAUSEOUS;
#TITLETRANSLIT:;
#SUBTITLETRANSLIT:;
#ARTISTTRANSLIT:;
#GENRE:;
#ORIGIN:;
#CREDIT:;
#BANNER:banner.png;
#BACKGROUND:;
#PREVIEWVID:;
#JACKET:jacket.png;
#CDIMAGE:;
#DISCIMAGE:;
#LYRICSPATH:;
#CDTITLE:;
#MUSIC:Ice Cream (Bad Boy Remix).ogg;
#OFFSET:0.150000;
#SAMPLESTART:36.000000;
#SAMPLELENGTH:12.000000;
#SELECTABLE:YES;
#BPMS:0.000=80.000;
#STOPS:;
#DELAYS:;
#WARPS:;
#TIMESIGNATURES:0.000=4=4;
#TICKCOUNTS:0.000=4;
#COMBOS:0.000=1;
#SPEEDS:0.000=1.000=0.000=0;
#SCROLLS:0.000=1.000;
#FAKES:;
#LABELS:0.000=Song Start;
#BGCHANGES:;
#KEYSOUNDS:;
#ATTACKS:
;

//---------------dance-single - ----------------
#NOTEDATA:;
#CHARTNAME:;
#STEPSTYPE:dance-single;
#DESCRIPTION:;
#CHARTSTYLE:;
#DIFFICULTY:Hard;
#METER:13;
#RADARVALUES:0.561364,0.536804,0.456108,0.017543,0.596449,448.000000,396.000000,52.000000,2.000000,0.000000,0.000000,0.000000,0.000000,0.000000,0.561364,0.536804,0.456108,0.017543,0.596449,448.000000,396.000000,52.000000,2.000000,0.000000,0.000000,0.000000,0.000000,0.000000;
#CREDIT:;
#NOTES:
0000
0000
0000
0000
,
0000
0000
0000
0000
1000
0000
0100
0000
1000
0100
1000
0100
0010
0000
0001
0000
,
0010
0001
0000
0000
1000
0000
0100
0000
0010
0001
0010
0001
0010
0000
0100
0000
,
1000
0100
0000
0000
0010
0000
0001
0000
0010
0100
1000
0100
0011
0000
0000
0000
,
1100
0000
0000
0000
1000
0100
1000
0100
1000
0100
0010
0001
0020
0000
0000
0030
,
1001
0000
0110
0000
1000
0100
0010
0001
0010
0100
1000
0100
0020
0000
0030
0000
,
1001
0000
0110
0000
0110
0000
1001
0000
0010
0100
0010
0100
1001
0000
0110
0000
,
1000
0001
0010
0100
1001
0000
0110
0000
1000
0100
0010
0001
0010
0100
1000
0100
,
0010
0001
0000
0000
1000
0100
0010
0001
0010
0100
1000
0100
0010
0000
0000
0001
,
1000
0000
0001
0000
1000
0100
0010
0001
0010
0100
1000
0100
0010
0000
0001
0010
,
0100
1000
0110
0000
0110
0000
1001
0000
0010
0100
0010
0100
0010
0000
0110
0000
,
0110
0000
1000
0100
0010
0000
0001
0000
0010
0100
0010
0100
1000
0000
0100
0010
,
0001
1001
1000
0001
1000
1001
0001
1000
,
0001
0110
1000
0100
0010
0001
0010
0100
,
1000
0000
0000
0000
1000
0100
0010
0001
0110
0000
0100
0010
0100
0010
0110
0000
,
1001
0000
0000
0000
0100
0010
0100
0010
0100
0000
1001
0000
0100
0010
0001
0000
,
0110
0000
1000
0100
0010
1001
0001
0010
,
0110
0000
1000
0100
0010
0001
0010
0100
,
1000
0000
0000
0000
1000
0100
0010
0001
0110
0000
0001
0010
0100
1000
0100
0010
,
0001
0000
0000
0000
0001
0010
0001
0010
0001
0000
1000
0100
0010
0001
0010
0100
,
1000
0000
0000
0000
0100
0010
0100
0010
0100
0010
0100
0010
0110
0000
1001
0000
,
0110
0000
1000
0100
0010
0001
0010
0100
1000
0100
0010
0001
0010
0000
0110
0000
,
1001
0000
0000
0000
1000
0100
0000
0000
0010
0001
0000
0000
0100
0010
0000
0000
1000
0100
0000
0000
0010
0001
0000
0000
0100
0010
0000
0000
1000
0001
0000
0000
,
0100
0010
0000
0000
1000
0100
0000
0000
0010
0001
0000
0000
0100
0000
0000
0000
0010
0001
0000
0000
1000
0000
0100
0000
0010
0000
0001
0000
0010
0000
0100
0000
,
1000
0001
0000
0000
0100
0000
0010
0000
0001
0000
0010
0000
0100
0000
1000
0000
0100
0000
0010
0000
0001
0000
0010
0000
0100
0000
1000
0000
0100
0000
0010
0000
,
0001
0010
0100
1000
0100
1000
0100
1000
0100
1000
0100
0010
0001
0010
0100
1000
,
0100
0010
0001
0010
0001
0010
0100
1000
0100
0010
0001
0010
0100
1000
0100
0010
,
0001
0010
0100
1000
0100
0010
0001
0010
0100
1000
0100
0010
0001
0010
0100
1000
,
0100
0010
1001
0000
1001
0000
0100
0010
0100
0000
1001
0000
0110
0000
1000
0001
,
1000
0000
0110
0000
1000
0000
0100
0010
0100
0000
0010
0100
0010
0100
0010
0100
,
0010
0000
1000
0100
0010
0000
0001
0010
0100
0000
1000
0100
0010
0000
0001
0010
,
0100
0000
0110
1001
0110
1001
0110
1001
,
0010
0100
0000
0000
1000
0000
0100
0010
0001
0000
0110
0000
0001
0000
0010
0100
,
1000
0000
0110
0000
1000
0000
0100
0010
0100
0000
0001
0010
0100
1000
0100
0010
,
0001
0000
0100
1000
0100
0000
0010
0001
0010
0000
0100
1000
0100
0000
0010
0001
,
0010
0000
0110
1001
0110
1001
0110
0000
,
0110
0000
0000
0000
;

//---------------dance-single - ----------------
#NOTEDATA:;
#CHARTNAME:;
#STEPSTYPE:dance-single;
#DESCRIPTION:;
#CHARTSTYLE:;
#DIFFICULTY:Medium;
#METER:8;
#RADARVALUES:0.390950,0.394709,0.456108,0.017543,0.000000,312.000000,260.000000,52.000000,2.000000,0.000000,0.000000,0.000000,0.000000,0.000000,0.390950,0.394709,0.456108,0.017543,0.000000,312.000000,260.000000,52.000000,2.000000,0.000000,0.000000,0.000000,0.000000,0.000000;
#CREDIT:;
#NOTES:
0000
0000
0000
0000
,
0000
0000
1000
0100
1000
1000
0010
0001
,
0010
0000
1000
0100
0010
0010
0010
0100
,
1000
0000
0010
0001
0010
1000
0011
0000
,
1100
0000
0000
0000
1000
0000
1000
0000
1000
0000
0010
0000
0020
0000
0000
0030
,
1001
0110
1000
0010
0010
1000
0020
0030
,
1001
0110
0110
1001
0010
0010
1001
0110
,
1000
0010
1001
0110
1000
0010
0010
1000
,
0010
0000
1000
0010
0010
1000
0010
0000
,
1000
0001
1000
0010
0010
1000
0010
0001
,
0100
0110
0110
1001
0010
0010
0010
0110
,
0110
1000
0010
0001
0010
0010
1000
0100
,
0001
1001
1000
0001
1000
1001
0001
1000
,
0001
0110
1000
0100
0010
0001
0010
0100
,
1000
0000
1000
0010
0110
0100
0100
0110
,
1001
0000
0100
0100
0100
1001
0100
0001
,
0110
0000
1000
0100
0010
1001
0001
0010
,
0110
0000
1000
0100
0010
0001
0010
0100
,
1000
0000
1000
0010
0110
0001
0100
0100
,
0001
0000
0001
0001
0001
1000
0010
0010
,
1000
0000
0100
0100
0100
0100
0110
1001
,
0110
1000
0010
0010
1000
0010
0010
0110
,
1001
1000
0010
0100
1000
0010
0100
1000
,
0100
1000
0010
0100
0010
1000
0010
0010
,
1000
0100
0001
0100
0100
0001
0100
0100
,
0001
0100
0100
0100
0100
0100
0001
0100
,
0100
0001
0001
0100
0100
0001
0100
0100
,
0001
0100
0100
0001
0100
0100
0001
0100
,
0100
1001
1001
0100
0100
1001
0110
1000
,
1000
0110
1000
0100
0100
0010
0010
0010
,
0010
1000
0010
0001
0100
1000
0010
0001
,
0100
0000
0110
1001
0110
1001
0110
1001
,
0010
0000
1000
0100
0001
0110
0001
0010
,
1000
0110
1000
0100
0100
0001
0100
0100
,
0001
0100
0100
0010
0010
0100
0100
0010
,
0010
0000
0110
1001
0110
1001
0110
0000
,
0110
0000
0000
0000
;

//---------------dance-single - ----------------
#NOTEDATA:;
#CHARTNAME:;
#STEPSTYPE:dance-single;
#DESCRIPTION:;
#CHARTSTYLE:;
#DIFFICULTY:Easy;
#METER:4;
#RADARVALUES:0.208005,0.205249,0.228054,0.017543,0.000000,166.000000,140.000000,26.000000,2.000000,0.000000,0.000000,0.000000,0.000000,0.000000,0.208005,0.205249,0.228054,0.017543,0.000000,166.000000,140.000000,26.000000,2.000000,0.000000,0.000000,0.000000,0.000000,0.000000;
#CREDIT:;
#NOTES:
0000
0000
0000
0000
,
0000
1000
1000
0010
,
0010
1000
0010
0010
,
1000
0010
0010
0011
,
1100
0000
0000
0000
1000
0000
0000
0000
1000
0000
0000
0000
0020
0000
0000
0030
,
1001
0000
1000
0000
0010
0000
0020
0030
,
1001
0110
0010
1001
,
1000
1001
1000
0010
,
0010
1000
0010
0010
,
1000
1000
0010
0010
,
0100
0110
0010
0010
,
0110
0010
0010
1000
,
0001
1000
1000
0001
,
0001
1000
0010
0010
,
1000
1000
0110
0100
,
1001
0100
0100
0100
,
0110
1000
0010
0001
,
0110
1000
0010
0010
,
1000
1000
0110
0100
,
0001
0001
0001
0010
,
1000
0100
0100
0110
,
0110
0010
1000
0010
,
1001
0010
1000
0100
,
0100
0010
0010
0010
,
1000
0001
0100
0100
,
0001
0100
0100
0001
,
0100
0001
0100
0100
,
0001
0100
0100
0001
,
0100
1001
0100
0110
,
1000
1000
0100
0010
,
0010
0010
0100
0010
,
0100
0110
0110
0110
,
0010
1000
0001
0001
,
1000
1000
0100
0100
,
0001
0100
0010
0100
,
0010
0110
0110
0110
,
0110
0000
0000
0000
;

//---------------dance-single - ----------------
#NOTEDATA:;
#CHARTNAME:;
#STEPSTYPE:dance-single;
#DESCRIPTION:;
#CHARTSTYLE:;
#DIFFICULTY:Beginner;
#METER:2;
#RADARVALUES:0.095231,0.110519,0.131570,0.000000,0.000000,76.000000,61.000000,15.000000,0.000000,0.000000,0.000000,0.000000,0.000000,0.000000,0.095231,0.110519,0.131570,0.000000,0.000000,76.000000,61.000000,15.000000,0.000000,0.000000,0.000000,0.000000,0.000000,0.000000;
#CREDIT:;
#NOTES:
// measure 0
0000
0000
0000
0000
,  // measure 1
0000
1000
0000
0010
,  // measure 2
0000
1000
0010
0000
,  // measure 3
1000
0010
0000
0000
,  // measure 4
0000
1000
0000
0000
,  // measure 5
1001
0000
0000
0000
,  // measure 6
1001
0000
0000
1001
,  // measure 7
0000
1001
0000
0010
,  // measure 8
0000
1000
0000
0010
,  // measure 9
0000
1000
0000
0010
,  // measure 10
0000
0110
0000
0000
,  // measure 11
0110
0000
0000
1000
,  // measure 12
0000
0000
1000
0000
,  // measure 13
0000
1000
0000
0010
,  // measure 14
0000
1000
0000
0000
,  // measure 15
1001
0000
0000
0000
,  // measure 16
0110
0000
0010
0000
,  // measure 17
0110
0000
0000
0010
,  // measure 18
0000
0000
0110
0000
,  // measure 19
0000
0001
0000
0010
,  // measure 20
0000
0100
0000
0000
,  // measure 21
0110
0000
0000
0000
,  // measure 22
1001
0000
1000
0000
,  // measure 23
0100
0000
0010
0000
,  // measure 24
1000
0000
0100
0000
,  // measure 25
0001
0000
0100
0000
,  // measure 26
0100
0001
0000
0100
,  // measure 27
0000
0100
0000
0001
,  // measure 28
0000
1001
0000
0000
,  // measure 29
1000
0000
0100
0000
,  // measure 30
0010
0000
0100
0000
,  // measure 31
0100
0000
0100
0000
,  // measure 32
0010
0000
0000
0001
,  // measure 33
0000
1000
0000
0100
,  // measure 34
0000
0100
0000
0100
,  // measure 35
0000
0110
0000
0000
,  // measure 36
0110
0000
0000
0000
;
