#TITLE:INSANE;
#SUBTITLE:;
#ARTIST:BTOB;
#TITLETRANSLIT:;
#SUBTITLETRANSLIT:;
#ARTISTTRANSLIT:;
#GENRE:;
#CREDIT:;
#BANNER:;
#BACKGROUND:bg.png;
#LYRICSPATH:;
#CDTITLE:;
#MUSIC:Insane.ogg;
#OFFSET:0.000000;
#SAMPLESTART:45.000000;
#SAMPLELENGTH:12.000000;
#SELECTABLE:YES;
#BPMS:0.000000=130.000000
,164.000000=65.000000
,196.500000=130.000000
;
#STOPS:
;
#BGCHANGES:;
#KEYSOUNDS:;
#ATTACKS:;

//---------------dance-single - ----------------
#NOTES:
     dance-single:
     :
     Hard:
     14:
     0.567490,0.670124,0.472397,0.214726,0.293459,555.000000,489.000000,66.000000,30.000000,0.000000,0.000000,0.567490,0.670124,0.472397,0.214726,0.293459,555.000000,489.000000,66.000000,30.000000,0.000000,0.000000:
1001
0000
0000
0000
1000
0100
0010
0001
0010
0100
1000
0100
0010
0001
0010
0100
,
2000
0000
0100
0010
0001
0010
0100
3000
,
0002
0000
0010
0100
1000
0100
0010
0003
,
2000
0000
0100
0010
0001
0010
0100
3000
,
1000
0100
1000
0000
0010
0000
0001
0000
0010
0000
0100
0000
1000
0000
0100
0000
,
0010
2000
3200
0320
,
0032
0000
0203
0010
0310
0000
0200
0010
,
0320
0000
0130
0000
1000
0100
0010
0001
,
0000
0000
1001
0000
0000
0000
1001
0000
0000
0000
1000
0100
0010
0001
0010
0000
,
0100
1000
0100
0000
0010
0000
0001
0000
1000
0100
1000
0000
1001
0000
0110
0000
,
1000
0000
0100
0000
0010
0001
0010
0000
0220
0000
0000
0000
0330
0000
0100
0000
,
1000
0000
0100
0010
0100
0010
0100
0000
0010
0000
0100
0000
0010
0000
0100
0000
,
0010
0000
0100
0000
0010
0100
0010
0000
0110
0000
0000
0000
0110
0000
1001
0000
,
0100
0010
0001
0010
0100
1000
0100
0010
0001
0010
0000
0000
0100
0010
0100
0000
,
1000
0100
0010
0001
0010
0100
0010
0100
,
1001
0000
0110
0000
1000
0100
0010
0000
0001
0000
1000
0001
0000
0001
1000
0000
,
1000
0000
0100
0010
0000
0010
0100
0000
1001
0000
0110
0000
0000
0000
0010
0100
,
0010
0000
1000
0000
0100
0000
0010
0000
0001
0000
0010
0000
0100
0000
1000
0100
,
0010
0001
1000
0001
0000
0100
0100
0100
,
0100
0000
0000
0010
0100
0000
0010
0000
0000
0000
0100
0000
0010
0000
0100
0000
,
1000
0100
0010
0001
0000
0110
1001
0110
,
1000
0000
0100
0000
0010
0000
0001
0000
0000
0000
0001
1000
0001
0000
1000
0000
,
0100
0010
0001
0010
0000
0100
0010
0100
,
1000
0100
0010
0001
0010
0100
1000
0100
,
0022
0000
0000
0033
0000
0000
1000
0100
1000
0000
1000
0000
0100
0000
0010
0000
,
0001
0000
0010
0000
0100
0000
1000
0100
1000
0000
0100
0000
0010
0000
0001
0000
,
0010
0000
0100
0000
1000
0000
0100
0010
0100
0000
0010
0000
0100
0000
0010
0000
,
0000
1000
0100
1000
0000
0010
0001
0010
,
0000
0110
0000
1000
0100
0010
0001
0010
,
0000
0000
0110
0000
0000
0000
1000
0100
1000
0000
0100
0000
0010
0000
0001
0000
,
0000
1001
0000
1001
0110
1001
0110
2000
,
0000
0010
3010
0020
0000
0001
0001
0031
,
0000
1001
0000
1000
0100
0010
0001
0010
,
0100
0000
0110
0000
1000
0100
0010
0001
,
0110
0000
1001
0000
1000
0100
0010
0001
,
1000
0000
0010
0001
0010
0100
1000
0100
0010
0000
0001
0000
0110
0000
1001
0000
,
0000
0110
0000
0000
1000
0100
0010
0001
,
1001
0000
0110
0000
0001
0010
0100
1000
,
0110
0000
1001
0000
1000
0100
0010
0001
,
0220
0000
0000
0000
0330
0101
0000
2020
,
0000
0000
0000
3030
,
1000
0100
0010
0001
0000
0000
1001
0000
0110
0000
0000
1001
0000
0000
0110
0000
,
0110
0000
0000
1001
0000
0000
2002
0000
0000
0000
3003
0000
0010
0100
1000
0100
,
0110
0000
0000
0110
0000
0000
1001
0000
1001
0000
0000
0110
0000
0000
1001
0000
,
0110
0000
0000
0000
0000
0010
0100
0010
0100
0000
0000
1000
0100
0010
0001
0010
,
0100
0000
0000
0100
0010
0001
0010
0100
1000
0000
0000
1000
0100
0010
0001
0010
,
0100
0000
1000
0100
0010
0000
0001
0010
0100
1000
0000
0100
0010
0001
0010
0100
,
1000
0000
0000
0000
0000
0000
1000
0000
0100
0000
1000
0000
0100
0000
1000
0000
0100
0000
0000
0000
0000
0000
0100
0010
0100
0000
0100
0000
0010
0000
0100
0000
,
0220
0000
0000
0000
,
0330
0000
0000
0000
0001
0010
0100
0000
1000
0000
0100
0000
0020
0000
0000
0000
,
0000
0000
0000
0000
1030
0100
1000
0000
0100
0000
0010
0000
0002
0000
0000
0000
,
0000
0000
0000
0000
1003
0100
1000
0000
0100
0000
0010
0000
0001
0000
0000
0000
,
0010
0100
0010
0000
0100
0010
0100
0000
,
0110
0000
1000
0100
0010
0001
0110
0000
,
0110
0000
0000
0000
0001
0010
0001
0000
0001
0000
0010
0000
1100
0000
0000
0000
,
0101
0000
1000
1000
0001
0001
2000
0000
,
0010
0010
3020
0000
0001
0001
0031
0110
,
1001
0110
1001
0100
1000
0100
0010
0001
,
0000
1001
0000
0100
1000
0100
0010
0001
,
0000
1001
0000
0010
0100
0010
0100
0010
,
0100
0010
0001
0010
0100
1000
0100
0000
0010
0000
0001
0000
0010
0000
0000
0000
,
0100
0000
1000
0100
0010
0001
0010
0100
1000
0000
0100
0000
0010
0000
0001
0000
,
0000
1001
0000
0100
0010
0100
0010
0100
,
0000
0110
0000
1000
0100
0010
0001
0020
,
0100
0100
0100
0130
,
1000
0000
0100
0000
1000
0000
0100
0000
0010
0001
0010
0100
1000
0100
0020
0000
,
0000
0000
0000
1000
0100
0001
0100
1030
;

//---------------dance-single - ----------------
#NOTES:
     dance-single:
     :
     Medium:
     9:
     0.480577,0.478660,0.443767,0.214726,0.003579,470.000000,408.000000,62.000000,30.000000,0.000000,0.000000,0.480577,0.478660,0.443767,0.214726,0.003579,470.000000,408.000000,62.000000,30.000000,0.000000,0.000000:
1001
0000
1000
0010
0010
1000
0010
0010
,
2000
0000
0100
0010
0001
0010
0100
3000
,
0002
0000
0010
0100
1000
0100
0010
0003
,
2000
0000
0100
0010
0001
0010
0100
3000
,
1000
1000
0010
0001
0010
0100
1000
0100
,
0010
2000
3200
0320
,
0032
0000
0203
0010
0310
0000
0200
0010
,
0320
0000
0130
0000
1000
0100
0010
0001
,
0000
1001
0000
1001
0000
1000
0010
0010
,
0100
0100
0010
0001
1000
1000
1001
0110
,
1000
0100
0010
0010
0220
0000
0330
0100
,
1000
0100
0100
0100
0010
0100
0010
0100
,
0010
0100
0010
0010
0110
0000
0110
1001
,
0100
0001
0100
0100
0001
0000
0100
0100
,
1000
0100
0010
0001
0010
0100
0010
0100
,
1001
0110
1000
0010
0001
1000
0000
1000
,
1000
0100
0000
0100
1001
0110
0000
0010
,
0010
1000
0100
0010
0001
0010
0100
1000
,
0010
0001
1000
0001
0000
0100
0100
0100
,
0100
0000
0100
0010
0000
0100
0010
0100
,
1000
0100
0010
0001
0000
0110
1001
0110
,
1000
0100
0010
0001
0000
0001
0001
1000
,
0100
0010
0001
0010
0000
0100
0010
0100
,
1000
0100
0010
0001
0010
0100
1000
0100
,
0022
0000
0000
0033
0000
0000
1000
0000
1000
0000
1000
0000
0100
0000
0010
0000
,
0001
0010
0100
1000
1000
0100
0010
0001
,
0010
0100
1000
0100
0100
0010
0100
0010
,
0000
1000
0100
1000
0000
0010
0001
0010
,
0000
0110
0000
1000
0100
0010
0001
0010
,
0000
0110
0000
1000
1000
0100
0010
0001
,
0000
1001
0000
1001
0110
1001
0110
2000
,
0000
0010
3010
0020
0000
0001
0001
0031
,
0000
1001
0000
1000
0100
0010
0001
0010
,
0100
0000
0110
0000
1000
0100
0010
0001
,
0110
0000
1001
0000
1000
0100
0010
0001
,
1000
0010
0010
1000
0010
0001
0110
1001
,
0000
0110
0000
0000
1000
0100
0010
0001
,
1001
0000
0110
0000
0001
0010
0100
1000
,
0110
0000
1001
0000
1000
0100
0010
0001
,
0220
0000
0000
0000
0330
0101
0000
2020
,
0000
0000
0000
3030
,
1000
0010
0000
1001
0110
0000
0000
0110
,
0110
0000
0000
2002
0000
3003
0010
1000
,
0110
0000
0000
1001
1001
0000
0000
1001
,
0110
0000
0000
0100
0100
0000
0100
0001
,
0100
0000
0010
0010
1000
0000
0100
0001
,
0100
1000
0010
0001
0100
0000
0010
0010
,
1000
0000
0000
0000
0000
0000
0000
0000
0100
0000
0000
0000
0100
0000
0000
0000
0100
0000
0000
0000
0000
0000
0000
0010
0100
0000
0000
0000
0010
0000
0000
0000
,
0220
0000
0000
0000
,
0330
0000
0001
0100
1000
0100
0020
0000
,
0000
0000
1030
1000
0100
0010
0002
0000
,
0000
0000
1003
1000
0100
0010
0001
0000
,
0010
0100
0010
0000
0100
0010
0100
0000
,
0110
0000
1000
0100
0010
0001
0110
0000
,
0110
0000
0001
0001
0001
0010
1100
0000
,
0101
0000
1000
1000
0001
0001
2000
0000
,
0010
0010
3020
0000
0001
0001
0031
0110
,
1001
0110
1001
0100
1000
0100
0010
0001
,
0000
1001
0000
0100
1000
0100
0010
0001
,
0000
1001
0000
0010
0100
0010
0100
0010
,
0100
0001
0100
0100
0010
0001
0010
0000
,
0100
1000
0010
0010
1000
0100
0010
0001
,
0000
1001
0000
0100
0010
0100
0010
0100
,
0000
0110
0000
1000
0100
0010
0001
0020
,
0100
0100
0100
0130
,
1000
0100
1000
0100
0010
0010
1000
0020
,
0000
0000
0000
1000
0100
0001
0100
1030
;

//---------------dance-single - ----------------
#NOTES:
     dance-single:
     :
     Easy:
     5:
     0.249491,0.334436,0.236198,0.157466,0.000000,244.000000,211.000000,33.000000,22.000000,0.000000,0.000000,0.249491,0.334436,0.236198,0.157466,0.000000,244.000000,211.000000,33.000000,22.000000,0.000000,0.000000:
1001
1000
0010
0010
,
2000
0000
0100
0000
0001
0000
0100
3000
,
0002
0000
0010
0000
1000
0000
0010
0003
,
2000
0000
0100
0000
0001
0000
0100
3000
,
1000
0010
0010
1000
,
0010
2000
3200
0320
,
0032
0203
0310
0200
,
0320
0130
1000
0010
,
0000
0000
0000
0010
,
0100
0010
1000
1001
,
1000
0010
0220
0330
,
1000
0100
0010
0010
,
0010
0010
0110
0110
,
0100
0100
0001
0100
,
1000
0010
0010
0010
,
1001
1000
0001
0000
,
1000
0000
1001
0000
,
0010
0100
0001
0100
,
0010
1000
0000
0100
,
0100
0100
0000
0010
,
1000
0010
0000
1001
,
1000
0010
0000
0001
,
0100
0001
0000
0010
,
1000
0010
0010
1000
,
0022
0000
0000
0033
0000
0000
0000
0000
1000
0000
0000
0000
0100
0000
0000
0000
,
0001
0100
1000
0010
,
0010
1000
0100
0100
,
0000
0100
0000
0001
,
0000
0000
0100
0001
,
0000
0000
1000
0010
,
0000
0000
0110
0110
,
0000
0010
0000
0001
,
0000
0000
0100
0001
,
0100
0110
1000
0010
,
0110
1001
1000
0010
,
1000
0010
0010
0110
,
0000
0000
1000
0010
,
1001
0110
0001
0100
,
0110
1001
1000
0010
,
0220
0000
0330
0000
,
0000
0000
0000
0000
,
1000
0000
0110
0000
,
0110
0000
0000
0010
,
0110
0000
1001
0000
,
0110
0000
0100
0100
,
0100
0010
1000
0100
,
0100
0010
0100
0010
,
1000
0100
0100
0100
,
0220
0000
0000
0000
,
0330
0001
1000
0020
,
0000
1030
0100
0002
,
0000
1003
0100
0001
,
0010
0010
0100
0100
,
0110
1000
0010
0110
,
0110
0001
0001
1100
,
0101
1000
0001
2000
,
0010
3020
0001
0031
,
1001
1001
1000
0010
,
0000
0000
1000
0010
,
0000
0000
0100
0100
,
0100
0100
0010
0010
,
0100
0010
1000
0010
,
0000
0000
0010
0010
,
0000
0000
0100
0001
,
0100
0100
0100
0100
,
1000
1000
0010
1000
,
0000
0000
0100
0100
;

//---------------dance-single - ----------------
#NOTES:
     dance-single:
     :
     Beginner:
     2:
     0.125768,0.167218,0.164623,0.000000,0.000000,123.000000,100.000000,23.000000,0.000000,0.000000,0.000000,0.125768,0.167218,0.164623,0.000000,0.000000,123.000000,100.000000,23.000000,0.000000,0.000000,0.000000:
// measure 0
1001
0000
0010
0000
,  // measure 1
0000
0100
0001
0100
,  // measure 2
0000
0010
1000
0010
,  // measure 3
0000
0100
0001
0100
,  // measure 4
1000
0000
0010
0000
,  // measure 5
0010
1000
0000
0000
,  // measure 6
0001
0000
0010
0000
,  // measure 7
0000
0100
0000
0010
,  // measure 8
0000
0000
0000
0010
,  // measure 9
0000
0010
0000
1001
,  // measure 10
0000
0000
0110
0000
,  // measure 11
1000
0000
0010
0000
,  // measure 12
0010
0000
0110
0000
,  // measure 13
0100
0000
0000
0100
,  // measure 14
0000
0000
0010
0000
,  // measure 15
1001
0000
0001
0000
,  // measure 16
1000
0000
1001
0000
,  // measure 17
0000
0100
0000
0100
,  // measure 18
0000
1000
0000
0100
,  // measure 19
0000
0000
0000
0000
,  // measure 20
1000
0000
0000
1001
,  // measure 21
0000
0000
0000
0000
,  // measure 22
0100
0000
0000
0000
,  // measure 23
1000
0000
0000
0000
,  // measure 24
0011
0000
1000
0000
,  // measure 25
0001
0000
1000
0000
,  // measure 26
0010
0000
0100
0000
,  // measure 27
0000
0100
0000
0000
,  // measure 28
0000
0000
0100
0000
,  // measure 29
0000
0000
1000
0000
,  // measure 30
0000
0000
0110
0000
,  // measure 31
0000
0010
0000
0001
,  // measure 32
0000
0000
0100
0000
,  // measure 33
0000
0110
0000
0000
,  // measure 34
0110
0000
0000
0000
,  // measure 35
1000
0000
0000
0110
,  // measure 36
0000
0000
0000
0000
,  // measure 37
1001
0000
0000
0000
,  // measure 38
0110
0000
1000
0000
,  // measure 39
0110
0000
0000
0000
,  // measure 40
0000
0000
0000
0000
,  // measure 41
1000
0000
0000
0000
,  // measure 42
0110
0000
0000
0000
,  // measure 43
0110
0000
0000
0000
,  // measure 44
0110
0000
0000
0000
,  // measure 45
0100
0000
0000
0000
,  // measure 46
0100
0000
0100
0000
,  // measure 47
1000
0000
0100
0000
,  // measure 48
0110
0000
0000
0000
,  // measure 49
0000
0000
1000
0000
,  // measure 50
0000
1000
0000
0000
,  // measure 51
0000
1000
0000
0000
,  // measure 52
0010
0000
0100
0000
,  // measure 53
0110
0000
0000
0000
,  // measure 54
0110
0000
0001
0000
,  // measure 55
0101
0000
0000
1000
,  // measure 56
0000
0010
0000
0000
,  // measure 57
1001
0000
1000
0000
,  // measure 58
0000
0000
1000
0000
,  // measure 59
0000
0000
0100
0000
,  // measure 60
0100
0000
0010
0000
,  // measure 61
0100
0000
1000
0000
,  // measure 62
0000
0000
0010
0000
,  // measure 63
0000
0000
0100
0000
,  // measure 64
0100
0000
0100
0000
,  // measure 65
1000
0000
0010
1000
,  // measure 66
0000
0000
0000
0100
;
