#TITLE:How You Like That (WAP Remix);
#SUBTITLE:;
#ARTIST:Cardi B & Megan Thee Stallion Remixed by iPARTYNAUSEOUS;
#TITLETRANSLIT:;
#SUBTITLETRANSLIT:;
#ARTISTTRANSLIT:;
#GENRE:;
#CREDIT:;
#BANNER:banner.png;
#BACKGROUND:;
#LYRICSPATH:;
#CDTITLE:;
#MUSIC:How You Like That (WAP Remix).ogg;
#OFFSET:-0.150000;
#SAMPLESTART:99.858002;
#SAMPLELENGTH:12.000000;
#SELECTABLE:YES;
#BPMS:0.000000=133.000000
;
#STOPS:
;
#BGCHANGES:;
#KEYSOUNDS:;
#ATTACKS:;

//---------------dance-single - ----------------
#NOTES:
     dance-single:
     :
     Hard:
     14:
     0.624128,0.797345,0.792022,0.051098,0.413044,513.000000,420.000000,93.000000,6.000000,0.000000,0.000000,0.624128,0.797345,0.792022,0.051098,0.413044,513.000000,420.000000,93.000000,6.000000,0.000000,0.000000:
0000
0000
0000
0000
,
1000
1000
1000
1000
,
0001
0000
0001
0000
0001
0000
0001
0010
,
0100
1000
0100
0010
0001
0110
0000
1001
,
0110
0110
2002
0000
,
0000
0000
3003
0000
,
0000
0000
0000
0100
0010
0001
0000
0110
0000
0001
0010
0100
,
0000
0000
0000
1000
0100
0010
0000
0110
0000
0001
0010
0100
,
0000
0000
0000
1000
0100
0010
0001
0010
0000
0100
1000
0100
,
0000
0000
0000
0100
0010
0100
0010
0001
0010
0100
1000
0110
,
0000
0000
0000
0000
0000
0000
1001
0000
0000
0110
0000
0000
1001
0000
0000
0000
0000
0000
1000
0000
0100
0000
0010
0000
,
0001
0000
0000
1000
0100
1000
0100
1000
0000
1000
0100
0010
,
0001
0000
0000
1000
0100
0100
0001
0000
0000
0001
0010
0010
,
0100
0000
0000
1000
0100
0010
0001
0000
0000
0001
0010
0100
,
1000
0000
1001
0110
1001
0000
1000
0100
,
0001
0000
1001
0110
1001
0000
0001
0010
,
0100
0000
0000
0000
1000
0000
0000
1000
0000
0000
1000
0000
0000
1000
0000
0000
,
1000
0000
0000
1000
0000
0000
0000
0000
1000
0000
0100
0000
0010
0000
0001
0000
,
0110
0000
0000
0000
1000
0100
0000
0000
0010
0000
0000
0000
0001
0010
0000
0000
,
0100
0000
0000
0000
1000
0100
0000
0000
0100
0010
0000
0000
0001
0010
0000
0000
,
0110
0000
0000
0000
1000
0100
0000
0000
0110
0000
0000
0000
0001
0010
0000
0000
,
0110
0000
1000
0100
0010
0001
0010
0100
,
1000
0000
0000
0000
1000
0100
1000
0000
0001
0010
0001
0000
1000
0000
0100
0000
,
0010
0001
0010
0000
0100
0000
1000
0000
0100
0000
0010
0001
0010
0100
1000
0100
,
0010
0001
0010
0000
0110
0000
0000
0000
0100
0010
0100
0010
0100
0010
0100
0010
,
0100
0010
0100
0000
0010
0100
0010
0000
1000
0100
0010
0001
0010
0100
1000
0100
,
0010
0001
0000
0000
1001
0000
0110
0000
1001
0000
0000
0000
0110
0000
1001
0000
,
0110
0000
0000
0000
1000
0000
0100
0000
0010
0000
0001
0000
0001
0010
0100
0000
,
0110
0000
0000
0000
0100
0010
0100
0000
0010
0000
0100
0000
0010
0000
0100
0000
,
0010
0000
1000
0100
0010
0001
0010
0100
,
1000
0100
0010
0001
0110
0000
0100
0010
,
1001
0000
1000
0100
0010
0001
0000
0110
,
1001
0000
1000
0100
0010
0000
1000
0100
,
0010
0001
0010
0100
1000
0100
0000
0110
,
1001
0110
1001
0100
0010
0001
0010
0100
,
1000
0100
0010
0001
0010
0100
0000
0110
,
1001
0000
1000
0100
1000
0000
0010
0001
,
0010
0100
1000
0100
0010
0001
0000
0110
,
1001
0000
0220
0000
0000
0000
0000
0330
,
2002
0000
0000
0000
0000
0000
0000
3003
,
0110
0000
0000
0000
0000
0000
0100
0010
,
0001
0010
0100
1000
0100
0010
0000
1010
,
1010
0000
0000
0000
1000
0100
0000
0000
0100
0010
0000
0000
0010
0001
0000
0000
,
0110
0000
1000
0100
0010
0001
0000
0110
,
1001
0000
0000
0000
1000
0100
0000
0000
0001
0010
0000
0000
0010
0100
0000
0000
,
1001
0000
1000
0100
0010
0001
0000
0110
,
1001
0000
0000
0000
0100
0010
0000
0000
0110
0000
0000
0010
0100
0000
0110
0000
,
1001
0000
0000
0010
0100
0000
0110
0000
1001
0000
0000
0010
0100
0000
1000
0000
,
0100
0010
0001
0010
0100
1000
0100
0010
1001
0000
0000
0010
0100
0000
0110
0000
,
1001
0000
0000
0100
0010
0000
0110
0000
1001
0000
0000
0010
0100
0000
0110
0000
,
1001
1000
0100
0010
0001
0000
1001
0000
0000
0110
0000
0000
,
1001
0000
0100
0010
0100
0010
0000
0110
,
1001
0000
0001
0010
0100
1000
0100
0010
,
0001
0000
0001
0010
0100
1000
0000
0110
,
1001
0000
0000
0000
0100
0010
0000
0000
0110
0000
0000
0010
0100
0000
0110
0000
,
1001
0000
0000
0100
0010
0000
0110
0000
1001
0000
0000
0100
0010
0000
0110
0000
,
1001
0000
0000
0000
1000
0100
0010
0001
0010
0000
0000
0100
0010
0000
0110
0000
,
1001
0000
0000
0010
0100
0000
1001
0000
0110
0000
0000
0100
0010
0000
1001
0000
,
0110
1001
0110
0110
,
0110
0000
1000
0100
0010
0001
0000
0110
,
1001
0000
1000
0100
1000
0100
1000
0100
,
1001
0000
0001
0010
0100
1000
0000
0110
,
1001
0000
0000
0100
0010
0100
0000
0000
0000
0000
0000
0000
;

//---------------dance-single - ----------------
#NOTES:
     dance-single:
     :
     Medium:
     10:
     0.504899,0.558141,0.766473,0.051098,0.008516,415.000000,325.000000,90.000000,6.000000,0.000000,0.000000,0.504899,0.558141,0.766473,0.051098,0.008516,415.000000,325.000000,90.000000,6.000000,0.000000,0.000000:
0000
0000
0000
0000
,
1000
1000
1000
1000
,
0001
0000
0001
0000
0001
0000
0001
0010
,
0100
1000
0100
0010
0001
0110
0000
1001
,
0110
0110
2002
0000
,
0000
0000
3003
0000
,
0000
0100
0000
0001
,
0000
1000
0000
0001
,
0000
1000
0001
0100
,
0000
0100
0010
0100
,
0000
0000
1001
0110
1001
0000
1000
0000
,
0001
1000
0100
1000
,
0001
1000
0001
0001
,
0100
1000
0001
0001
,
1000
0000
1001
0110
1001
0000
1000
0100
,
0001
0000
1001
0110
1001
0000
0001
0010
,
0100
0000
1000
0000
0000
1000
0000
0000
,
1000
0000
0000
0000
1000
0100
0010
0001
,
0110
1000
0010
0001
,
0100
1000
0100
0001
,
0110
1000
0110
0001
,
0110
0000
1000
0100
0010
0001
0010
0100
,
1000
0000
1000
1000
0001
0001
1000
0100
,
0010
0010
0100
1000
0100
0010
0010
1000
,
0010
0010
0110
0000
0100
0100
0100
0100
,
0100
0100
0010
0010
1000
0010
0010
1000
,
0010
0000
1001
0110
1001
0000
0110
1001
,
0110
0000
1000
0100
0010
0001
0001
0100
,
0110
0000
0100
0100
0010
0100
0010
0100
,
0010
0000
1000
0100
0010
0001
0010
0100
,
1000
0100
0010
0001
0110
0000
0100
0010
,
1001
0000
1000
0100
0010
0001
0000
0110
,
1001
0000
1000
0100
0010
0000
1000
0100
,
0010
0001
0010
0100
1000
0100
0000
0110
,
1001
0110
1001
0100
0010
0001
0010
0100
,
1000
0100
0010
0001
0010
0100
0000
0110
,
1001
0000
1000
0100
1000
0000
0010
0001
,
0010
0100
1000
0100
0010
0001
0000
0110
,
1001
0000
0220
0000
0000
0000
0000
0330
,
2002
0000
0000
0000
0000
0000
0000
3003
,
0110
0000
0000
0000
0000
0000
0100
0010
,
0001
0010
0100
1000
0100
0010
0000
1010
,
1010
1000
0100
0010
,
0110
0000
1000
0100
0010
0001
0000
0110
,
1001
1000
0001
0010
,
1001
0000
1000
0100
0010
0001
0000
0110
,
1001
0000
0100
0000
0110
0000
0100
0110
,
1001
0000
0100
0110
1001
0000
0100
1000
,
0100
0001
0100
0100
1001
0000
0100
0110
,
1001
0000
0010
0110
1001
0000
0100
0110
,
1001
0010
1001
0110
,
1001
0000
0100
0010
0100
0010
0000
0110
,
1001
0000
0001
0010
0100
1000
0100
0010
,
0001
0000
0001
0010
0100
1000
0000
0110
,
1001
0000
0100
0000
0110
0000
0100
0110
,
1001
0000
0010
0110
1001
0000
0010
0110
,
1001
0000
1000
0010
0010
0000
0010
0110
,
1001
0000
0100
1001
0110
0000
0010
1001
,
0110
1001
0110
0110
,
0110
0000
1000
0100
0010
0001
0000
0110
,
1001
0000
1000
0100
1000
0100
1000
0100
,
1001
0000
0001
0010
0100
1000
0000
0110
,
1001
0000
0000
0100
0010
0100
0000
0000
0000
0000
0000
0000
;

//---------------dance-single - ----------------
#NOTES:
     dance-single:
     :
     Easy:
     6:
     0.333355,0.425250,0.510982,0.051098,0.008516,274.000000,214.000000,60.000000,6.000000,0.000000,0.000000,0.333355,0.425250,0.510982,0.051098,0.008516,274.000000,214.000000,60.000000,6.000000,0.000000,0.000000:
0000
0000
0000
0000
,
1000
1000
1000
1000
,
0001
0001
0001
0001
,
0100
0100
0001
0000
,
0110
0110
2002
0000
,
0000
0000
3003
0000
,
0000
0100
0000
0001
,
0000
1000
0000
0001
,
0000
1000
0001
0100
,
0000
0100
0010
0100
,
0000
1001
1001
1000
,
0001
1000
0100
1000
,
0001
1000
0001
0001
,
0100
1000
0001
0001
,
1000
1001
1001
1000
,
0001
1001
1001
0001
,
0100
1000
0000
0000
,
1000
0000
1000
0010
,
0110
1000
0010
0001
,
0100
1000
0100
0001
,
0110
1000
0110
0001
,
0110
1000
0010
0010
,
1000
1000
0001
1000
,
0010
0100
0100
0010
,
0010
0110
0100
0100
,
0100
0010
1000
0010
,
0010
1001
1001
0110
,
0110
1000
0010
0001
,
0110
0100
0010
0010
,
0010
1000
0010
0010
,
1000
0010
0110
0100
,
1001
1000
0010
0000
,
1001
1000
0010
1000
,
0010
0010
1000
0000
,
1001
1001
0010
0010
,
1000
0010
0010
0000
,
1001
1000
1000
0010
,
0010
1000
0010
0000
,
1001
0000
0220
0000
0000
0000
0000
0330
,
2002
0000
0000
0000
0000
0000
0000
3003
,
0110
0000
0000
0100
,
0001
0100
0100
0000
,
1010
1000
0100
0010
,
0110
1000
0010
0000
,
1001
1000
0001
0010
,
1001
1000
0010
0000
,
1001
0100
0110
0100
,
1001
0100
1001
0100
,
0100
0100
1001
0100
,
1001
0010
1001
0100
,
1001
0010
1001
0110
,
1001
0100
0100
0000
,
1001
0001
0100
0100
,
0001
0001
0100
0000
,
1001
0100
0110
0100
,
1001
0010
1001
0010
,
1001
1000
0010
0010
,
1001
0100
0110
0010
,
0110
1001
0110
0110
,
0110
1000
0010
0000
,
1001
1000
1000
1000
,
1001
0001
0100
0000
,
1001
0000
0000
0100
0010
0100
0000
0000
0000
0000
0000
0000
;

//---------------dance-single - ----------------
#NOTES:
     dance-single:
     :
     Beginner:
     3:
     0.154511,0.211206,0.323622,0.000000,0.000000,127.000000,89.000000,38.000000,0.000000,0.000000,0.000000,0.154511,0.211206,0.323622,0.000000,0.000000,127.000000,89.000000,38.000000,0.000000,0.000000,0.000000:
// measure 0
0000
0000
0000
0000
,  // measure 1
1000
0000
0000
0000
,  // measure 2
0001
0000
0000
0000
,  // measure 3
0100
0000
0001
0000
,  // measure 4
0110
0000
1001
0000
,  // measure 5
0000
0000
0000
0000
,  // measure 6
0000
0100
0000
0000
,  // measure 7
0000
1000
0000
0000
,  // measure 8
0000
1000
0000
0000
,  // measure 9
0000
0100
0000
0100
,  // measure 10
0000
0000
1001
0000
,  // measure 11
0001
0000
0100
0000
,  // measure 12
0000
1000
0000
0000
,  // measure 13
0100
0000
0000
0001
,  // measure 14
0000
0000
1001
0000
,  // measure 15
0000
1001
0000
0000
,  // measure 16
0100
0000
0000
0000
,  // measure 17
1000
0000
1000
0000
,  // measure 18
0110
0000
0000
0001
,  // measure 19
0000
1000
0000
0001
,  // measure 20
0000
1000
0000
0001
,  // measure 21
0000
1000
0000
0010
,  // measure 22
0000
1000
0000
1000
,  // measure 23
0000
0100
0000
0000
,  // measure 24
0000
0110
0000
0000
,  // measure 25
0100
0000
1000
0000
,  // measure 26
0010
0000
0000
0110
,  // measure 27
0000
1000
0000
0001
,  // measure 28
0000
0100
0000
0010
,  // measure 29
0000
0000
0010
0000
,  // measure 30
1000
0000
0110
0000
,  // measure 31
1001
0000
0010
0000
,  // measure 32
1001
0000
0010
0000
,  // measure 33
0010
0000
1000
0000
,  // measure 34
0000
1001
0000
0000
,  // measure 35
1000
0000
0000
0000
,  // measure 36
1001
0000
0000
0010
,  // measure 37
0000
1000
0000
0000
,  // measure 38
1001
0110
0000
0000
,  // measure 39
1001
0000
0000
0000
,  // measure 40
0110
0000
0000
0100
,  // measure 41
0000
0000
0100
0000
,  // measure 42
1010
0000
0000
0000
,  // measure 43
0110
0000
0000
0000
,  // measure 44
1001
0000
0000
0000
,  // measure 45
1001
0000
0000
0000
,  // measure 46
1001
0000
0110
0000
,  // measure 47
1001
0000
0000
0000
,  // measure 48
0100
0000
1001
0000
,  // measure 49
0000
0000
1001
0000
,  // measure 50
0000
0000
0000
0110
,  // measure 51
0000
0000
0100
0000
,  // measure 52
1001
0000
0100
0000
,  // measure 53
0000
0001
0000
0000
,  // measure 54
1001
0000
0000
0000
,  // measure 55
1001
0000
0000
0000
,  // measure 56
1001
0000
0000
0000
,  // measure 57
1001
0000
0110
0000
,  // measure 58
0110
0000
0000
0110
,  // measure 59
0000
1000
0000
0000
,  // measure 60
1001
0000
0000
0000
,  // measure 61
1001
0000
0100
0000
,  // measure 62
1001
0000
0000
0000
;
