#VERSION:0.83;
#TITLE:Heart for 2;
#SUBTITLE:;
#ARTIST:ZE\:A;
#TITLETRANSLIT:;
#SUBTITLETRANSLIT:;
#ARTISTTRANSLIT:;
#GENRE:;
#ORIGIN:;
#CREDIT:;
#BANNER:;
#BACKGROUND:bg.png;
#PREVIEWVID:;
#JACKET:jacket.png;
#CDIMAGE:;
#DISCIMAGE:;
#LYRICSPATH:;
#CDTITLE:;
#MUSIC:Heart For 2.ogg;
#OFFSET:-0.029325;
#SAMPLESTART:103.000000;
#SAMPLELENGTH:12.000000;
#SELECTABLE:YES;
#BPMS:0.000=131.646,
47.000=130.000,
64.000=131.000,
160.500=65.500,
184.500=131.000;
#STOPS:;
#DELAYS:;
#WARPS:;
#TIMESIGNATURES:0.000=4=4;
#TICKCOUNTS:0.000=4;
#COMBOS:0.000=1;
#SPEEDS:0.000=1.000=0.000=0;
#SCROLLS:0.000=1.000;
#FAKES:;
#LABELS:0.000=Song Start;
#BGCHANGES:;
#KEYSOUNDS:;
#ATTACKS:
;

//---------------dance-single - ----------------
#NOTEDATA:;
#CHARTNAME:;
#STEPSTYPE:dance-single;
#DESCRIPTION:;
#CHARTSTYLE:;
#DIFFICULTY:Hard;
#METER:13;
#RADARVALUES:0.530153,0.925290,0.453261,0.155808,0.318699,524.000000,460.000000,64.000000,22.000000,0.000000,0.000000,0.000000,0.000000,0.000000,0.530153,0.925290,0.453261,0.155808,0.318699,524.000000,460.000000,64.000000,22.000000,0.000000,0.000000,0.000000,0.000000,0.000000;
#CREDIT:;
#NOTES:
0000
0000
0000
0000
0001
0010
0000
0001
0010
0000
0001
0000
1000
0100
0000
1000
,
0100
0000
1000
0000
0001
0010
0000
0001
0010
0000
0001
0000
1000
0000
0100
0000
,
0010
0000
0001
0000
0010
0100
0000
0010
0100
0000
0010
0000
1000
0001
0000
1000
,
0001
0000
1000
0000
0100
0010
0000
0100
0010
0000
0100
0000
1000
0000
0100
0000
,
0010
0000
0001
0000
0010
1000
0000
0010
1000
0000
0010
0000
0100
0001
0000
0100
,
0001
0000
0100
0000
0010
1000
0000
0010
1000
0000
0010
0000
0100
0000
1000
0000
,
0100
0001
0100
0000
1000
0100
0010
0001
,
0010
0000
0200
0000
0000
0000
0000
0300
0010
0000
0200
0000
0000
0000
0000
0300
,
0110
0000
0000
0000
1000
0100
1000
0000
1001
0000
0110
0000
0001
0010
0001
0000
,
1001
0000
0110
0000
1000
0100
1000
0000
1001
0000
0110
0000
0001
0010
0001
0000
,
1001
0110
2000
3200
0302
0023
2030
3000
,
0200
0302
0003
0000
0000
0000
1000
0100
,
1000
0100
0000
0001
0010
0001
0000
1001
,
0000
0110
0000
1000
0100
1000
0000
1001
,
0000
0110
0000
0000
1000
0100
0010
0001
,
0010
0100
0000
0100
0000
0010
0000
0100
,
1000
0100
1000
0000
1000
0100
1000
0000
,
0001
0010
0001
0000
0001
0010
0001
0000
,
0002
0003
2000
0000
3200
0000
0320
0000
,
0031
1001
0000
1001
,
1001
0000
1000
0100
1000
0100
0000
0100
,
0000
0110
0000
0001
0010
0001
0000
0110
,
0000
0110
0000
0000
1000
0100
0010
0001
,
0010
0100
0000
0000
0010
0100
0000
0010
,
0100
0000
0010
0000
1000
0100
1000
0000
0100
0000
0010
0000
0100
0000
0000
0100
,
0000
0000
0100
0000
0010
0100
0010
0000
1000
0000
0100
0000
0001
0000
0000
0010
,
0000
0000
1000
0000
0100
0010
0100
0000
0000
0000
1000
0000
0100
0000
0010
0000
,
0001
2000
3000
0200
0300
0020
0030
0002
,
0003
0000
1001
0000
1000
0000
0100
0000
0010
0000
0001
0000
0010
0000
0000
0100
,
0000
0000
0010
0000
0110
0000
0000
0000
1000
0000
0100
0000
0010
0000
0000
0001
,
0000
0110
0000
0000
1000
0100
0010
0001
,
0010
0110
0000
1001
0000
0110
0000
1001
,
0000
0000
0110
0000
1000
0100
0000
0000
0001
0010
0000
0000
1000
0000
0100
0000
,
0010
2002
3003
0000
1000
0100
0010
0001
,
0010
0000
0100
0000
1000
0100
1000
0000
0001
0010
0001
0000
1000
0100
1000
0000
,
1001
0110
0000
0000
0100
0010
0100
0010
,
0100
0000
0010
0000
1000
0000
0100
0000
0010
0000
0001
0000
1000
0000
0000
1000
,
0000
0000
1000
0000
0100
0000
0010
0000
0001
0000
0010
0000
0010
0000
0000
0010
,
0000
0010
0100
0000
1001
0000
1000
0100
,
0010
1001
0000
0110
0000
1001
0000
0110
,
0000
0000
0000
0000
1001
0000
0000
0000
0000
0010
0100
0000
0010
0000
0100
0000
0000
0100
0000
0000
0010
0000
0010
0000
0010
0100
0000
1000
0100
0000
0010
0000
,
0000
0000
0001
0000
0000
0000
0100
0000
0000
0010
0100
0000
0010
0000
0100
0000
0000
0010
0000
0000
0100
0000
1000
0000
0100
0010
0000
0100
0010
0000
0100
0000
,
0000
0000
0110
0000
0000
0000
1000
0000
0100
0010
0000
0100
0010
0000
0110
0000
0000
0000
0110
0000
0100
0000
0010
0000
0100
0010
0000
0100
0010
0000
0100
0000
,
0000
0000
0010
0001
0010
0000
0110
0000
0000
0110
0000
0000
0100
0010
0110
0000
0000
0110
0000
0000
0100
0000
1000
0000
0000
0100
0000
0000
0010
0000
0000
0000
,
0100
0010
0100
0000
0000
0100
0010
0100
0100
0000
0100
0000
1000
0100
0010
0001
,
0000
0010
0000
0100
1000
0100
0010
0001
0010
0100
1000
0000
1000
0000
0100
0000
,
0010
1001
0010
0100
1000
0100
0010
0000
,
0010
0000
0010
0000
1000
0100
0010
0000
,
0001
0000
0010
0000
0100
1000
0100
0010
,
0001
1001
0000
0000
0000
0000
0000
0000
,
1001
0000
0000
0000
0110
0000
0000
0000
1001
0000
0000
0000
1000
0000
0000
1000
,
0000
0000
1000
0000
1000
0100
0010
0000
0001
0000
0010
0000
0100
0000
0000
0100
,
0000
0000
0100
0000
1000
0100
0010
0000
0001
0000
0010
0000
0100
0000
1000
0000
,
0100
0020
0000
0100
0000
0100
0000
0100
,
0000
0130
1000
0100
1000
0100
0010
0010
,
0000
0010
0000
0000
0010
0000
0000
0000
1000
0000
0100
0000
0010
0000
0000
0010
,
0000
0010
0100
0000
0100
1000
0100
0010
,
0001
1001
0000
0110
0000
1001
0000
0110
,
0000
1001
0000
0000
1000
0100
0010
0000
,
1001
0000
1000
0100
0010
0001
0110
0000
,
1001
0000
0110
0000
1000
0100
0010
0000
,
0010
0000
0110
0000
1000
0100
0010
0001
,
0110
0000
0110
0000
1000
0100
0010
0000
,
0110
0000
0001
0010
0100
1000
0100
0000
,
0110
0000
0000
0000
0100
0000
0010
0000
0100
0000
0010
0000
0100
0000
0000
0100
,
0000
0100
0110
0000
1000
0100
0010
0001
,
0010
0100
2002
0000
0000
0000
0000
0000
,
3003
0000
0000
0000
;

//---------------dance-single - ----------------
#NOTEDATA:;
#CHARTNAME:;
#STEPSTYPE:dance-single;
#DESCRIPTION:;
#CHARTSTYLE:;
#DIFFICULTY:Medium;
#METER:9;
#RADARVALUES:0.432014,0.593135,0.403686,0.155808,0.000000,427.000000,370.000000,57.000000,22.000000,0.000000,0.000000,0.000000,0.000000,0.000000,0.432014,0.593135,0.403686,0.155808,0.000000,427.000000,370.000000,57.000000,22.000000,0.000000,0.000000,0.000000,0.000000,0.000000;
#CREDIT:;
#NOTES:
// measure 0
0000
0000
0001
0000
0010
0001
1000
0000
,  // measure 1
0100
1000
0001
0000
0010
0001
1000
0100
,  // measure 2
0010
0001
0010
0000
0100
0010
1000
0000
,  // measure 3
0001
1000
0100
0000
0010
0100
1000
0100
,  // measure 4
0010
0001
0010
0000
1000
0010
0100
0000
,  // measure 5
0001
0100
0010
0000
1000
0010
0100
1000
,  // measure 6
0100
0001
0100
0000
1000
0100
0010
0001
,  // measure 7
0010
0000
0200
0000
0000
0000
0000
0300
0010
0000
0200
0000
0000
0000
0000
0300
,  // measure 8
0110
0000
1000
1000
1001
0110
0001
0001
,  // measure 9
1001
0110
1000
1000
1001
0110
0001
0001
,  // measure 10
1001
0110
2000
3200
0302
0023
2030
3000
,  // measure 11
0200
0302
0003
0000
0000
0000
1000
0100
,  // measure 12
1000
0100
0000
0001
0010
0001
0000
1001
,  // measure 13
0000
0110
0000
1000
0100
1000
0000
1001
,  // measure 14
0000
0110
0000
0000
1000
0100
0010
0001
,  // measure 15
0010
0100
0000
0100
0000
0010
0000
0100
,  // measure 16
1000
0100
1000
0000
1000
0100
1000
0000
,  // measure 17
0001
0010
0001
0000
0001
0010
0001
0000
,  // measure 18
0002
0003
2000
0000
3200
0000
0320
0000
,  // measure 19
0031
1001
0000
1001
,  // measure 20
1001
0000
1000
0100
1000
0100
0000
0100
,  // measure 21
0000
0110
0000
0001
0010
0001
0000
0110
,  // measure 22
0000
0110
0000
0000
1000
0100
0010
0001
,  // measure 23
0010
0100
0000
0000
0010
0100
0000
0010
,  // measure 24
0100
0010
1000
1000
0100
0010
0100
0000
,  // measure 25
0000
0100
0010
0010
1000
0100
0001
0000
,  // measure 26
0000
1000
0100
0100
0000
1000
0100
0010
,  // measure 27
0001
2000
3000
0200
0300
0020
0030
0002
,  // measure 28
0003
1001
1000
0100
0010
0001
0010
0000
,  // measure 29
0000
0010
0110
0000
1000
0100
0010
0000
,  // measure 30
0000
0110
0000
0000
1000
0100
0010
0001
,  // measure 31
0010
0110
0000
1001
0000
0110
0000
1001
,  // measure 32
0000
0110
1000
0000
0001
0000
1000
0100
,  // measure 33
0010
2002
3003
0000
1000
0100
0010
0001
,  // measure 34
0010
0100
1000
1000
0001
0001
1000
1000
,  // measure 35
1001
0110
0000
0000
0100
0010
0100
0010
,  // measure 36
0100
0010
1000
0100
0010
0001
1000
0000
,  // measure 37
0000
1000
0100
0010
0001
0010
0010
0000
,  // measure 38
0000
0010
0100
0000
1001
0000
1000
0100
,  // measure 39
0010
1001
0000
0110
0000
1001
0000
0110
,  // measure 40
0000
1001
0000
0010
0000
0010
0010
0100
,  // measure 41
0000
0000
0000
0010
0000
0100
0100
0010
,  // measure 42
0000
0000
0100
0010
0000
0100
0100
0010
,  // measure 43
0000
0010
0000
0100
0000
0100
0000
0010
,  // measure 44
0100
0100
0000
0010
0100
0100
1000
0010
,  // measure 45
0000
0000
1000
0010
0010
1000
1000
0100
,  // measure 46
0010
1001
0010
0100
1000
0100
0010
0000
,  // measure 47
0010
0000
0010
0000
1000
0100
0010
0000
,  // measure 48
0001
0000
0010
0000
0100
1000
0100
0010
,  // measure 49
0001
1001
0000
0000
0000
0000
0000
0000
,  // measure 50
1001
0110
1001
1000
,  // measure 51
0000
1000
1000
0010
0001
0010
0100
0000
,  // measure 52
0000
0100
1000
0010
0001
0010
0100
1000
,  // measure 53
0100
0020
0000
0100
0000
0100
0000
0100
,  // measure 54
0000
0130
1000
0100
1000
0100
0010
0010
,  // measure 55
0000
0000
0010
0000
1000
0100
0010
0000
,  // measure 56
0000
0010
0100
0000
0100
1000
0100
0010
,  // measure 57
0001
1001
0000
0110
0000
1001
0000
0110
,  // measure 58
0000
1001
0000
0000
1000
0100
0010
0000
,  // measure 59
1001
0000
1000
0100
0010
0001
0110
0000
,  // measure 60
1001
0000
0110
0000
1000
0100
0010
0000
,  // measure 61
0010
0000
0110
0000
1000
0100
0010
0001
,  // measure 62
0110
0000
0110
0000
1000
0100
0010
0000
,  // measure 63
0110
0000
0001
0010
0100
1000
0100
0000
,  // measure 64
0110
0000
0100
0010
0100
0010
0100
0000
,  // measure 65
0000
0100
0110
0000
1000
0100
0010
0001
,  // measure 66
0010
0100
2002
0000
0000
0000
0000
0000
,  // measure 67
3003
0000
0000
0000
;

//---------------dance-single - ----------------
#NOTEDATA:;
#CHARTNAME:;
#STEPSTYPE:dance-single;
#DESCRIPTION:;
#CHARTSTYLE:;
#DIFFICULTY:Easy;
#METER:5;
#RADARVALUES:0.218537,0.332155,0.177055,0.077904,0.000000,216.000000,191.000000,25.000000,11.000000,0.000000,0.000000,0.000000,0.000000,0.000000,0.218537,0.332155,0.177055,0.077904,0.000000,216.000000,191.000000,25.000000,11.000000,0.000000,0.000000,0.000000,0.000000,0.000000;
#CREDIT:;
#NOTES:
0000
0001
0010
1000
,
0100
0001
0010
1000
,
0010
0010
0100
1000
,
0001
0100
0010
1000
,
0010
0010
1000
0100
,
0001
0010
1000
0100
,
0100
0100
1000
0010
,
0010
0000
0010
0000
,
0110
1000
1001
0001
,
1001
1000
1001
0001
,
1001
0000
2000
3000
0002
0003
2000
3000
,
0200
0300
0000
0000
0000
0000
1000
0000
,
1000
0000
0010
0000
,
0000
0000
0100
0000
,
0000
0000
1000
0010
,
0010
0000
0000
0000
,
1000
1000
1000
1000
,
0001
0001
0001
0001
,
0002
0003
2000
0000
3200
0000
0320
0000
,
0031
1001
0000
1001
,
1001
1000
1000
0000
,
0000
0000
0010
0000
,
0000
0000
1000
0010
,
0010
0000
0010
0000
,
0100
1000
0100
0100
,
0000
0010
1000
0001
,
0000
0100
0000
0100
,
0001
0000
0000
0000
,
0000
1000
0010
0010
,
0000
0110
1000
0010
,
0000
0000
1000
0010
,
0010
0000
0000
0000
,
0000
1000
0001
1000
,
0010
0000
1000
0010
,
0010
1000
0001
1000
,
1001
0000
0100
0100
,
0100
1000
0010
1000
,
0000
0100
0001
0010
,
0000
0100
1001
1000
,
0010
0000
0000
0000
,
0000
0000
0000
0010
,
0000
0000
0000
0100
,
0000
0100
0000
0100
,
0000
0000
0000
0000
,
0100
0000
0100
1000
,
0000
1000
0010
1000
,
0010
0010
1000
0010
,
0010
0010
1000
0010
,
0001
0010
0100
0100
,
0001
0000
0000
0000
,
1001
0110
1001
1000
,
0000
1000
0001
0100
,
0000
1000
0001
0100
,
0100
0020
0000
0000
0000
0000
0000
0000
,
0000
0030
1000
0000
1000
0000
0010
0000
,
0000
0010
1000
0010
,
0000
0100
0100
0100
,
0001
0000
0000
0000
,
0000
0000
1000
0010
,
1001
1000
0010
0110
,
1001
0110
1000
0010
,
0010
0110
1000
0010
,
0110
0110
1000
0010
,
0110
0001
0100
0100
,
0110
0100
0100
0100
,
0000
0110
1000
0010
,
0010
2002
0000
0000
,
3003
0000
0000
0000
;

//---------------dance-single - ----------------
#NOTEDATA:;
#CHARTNAME:;
#STEPSTYPE:dance-single;
#DESCRIPTION:;
#CHARTSTYLE:;
#DIFFICULTY:Beginner;
#METER:3;
#RADARVALUES:0.115339,0.233713,0.134562,0.000000,0.000000,114.000000,95.000000,19.000000,0.000000,0.000000,0.000000,0.000000,0.000000,0.000000,0.115339,0.233713,0.134562,0.000000,0.000000,114.000000,95.000000,19.000000,0.000000,0.000000,0.000000,0.000000,0.000000,0.000000;
#CREDIT:;
#NOTES:
0000
0001
0000
1000
,
0000
0001
0000
1000
,
0000
0010
0000
1000
,
0000
0100
0000
1000
,
0000
0010
0000
0100
,
0000
0010
0000
0000
,
0100
0000
1000
0000
,
0010
0000
0010
0000
,
0110
0000
1001
0000
,
1001
0000
1001
0000
,
1001
0000
0001
0000
,
0100
0000
0000
0000
,
1000
0000
0010
0000
,
0000
0000
0100
0000
,
0000
0000
1000
0010
,
0010
0000
0000
0000
,
1000
0000
0000
0000
,
0001
0000
0000
0000
,
0001
0000
0100
0000
,
0000
1001
0000
0000
,
1001
0000
1000
0000
,
0000
0000
0010
0000
,
0000
0000
1000
0000
,
0010
0000
0010
0000
,
0100
0000
0100
0000
,
0000
0000
1000
0000
,
0000
0100
0000
0100
,
0000
0000
0000
0000
,
0000
1000
0000
0010
,
0000
0110
0000
0010
,
0000
0000
1000
0000
,
0010
0000
0000
0000
,
0000
1000
0000
1000
,
0000
0000
0000
0010
,
0000
1000
0000
0000
,
1001
0000
0000
0100
,
0000
0000
0010
0000
,
0000
0100
0000
0000
,
0000
0000
1001
0000
,
0000
0000
0000
0000
,
0000
0000
0000
0010
,
0000
0000
0000
0100
,
0000
0100
0000
0100
,
0000
0000
0000
0000
,
0100
0000
0100
1000
,
0000
1000
0000
1000
,
0000
0010
0000
0000
,
0010
0000
1000
0000
,
0001
0000
0100
0000
,
0001
0000
0000
0000
,
1001
0000
0000
1000
,
0000
1000
0000
0100
,
0000
1000
0000
0100
,
0000
0000
0000
0000
,
0000
0000
1000
0000
,
0000
0010
0000
0010
,
0000
0000
0100
0000
,
0001
0000
0000
0000
,
0000
0000
0000
0000
,
1001
0000
0000
0110
,
0000
0110
0000
0000
,
0000
0110
0000
0000
,
0110
0000
1000
0000
,
0110
0000
0000
0000
,
0110
0000
0000
0000
,
0000
0110
0000
0000
,
0010
0000
0000
0000
;
