#VERSION:0.83;
#TITLE:GRAVITY;
#SUBTITLE:;
#ARTIST:EXO;
#TITLETRANSLIT:;
#SUBTITLETRANSLIT:;
#ARTISTTRANSLIT:;
#GENRE:;
#ORIGIN:;
#CREDIT:;
#BANNER:banner.png;
#BACKGROUND:;
#PREVIEWVID:;
#JACKET:jacket.png;
#CDIMAGE:;
#DISCIMAGE:;
#LYRICSPATH:;
#CDTITLE:;
#MUSIC:GRAVITY.ogg;
#OFFSET:0.200000;
#SAMPLESTART:53.500000;
#SAMPLELENGTH:12.000000;
#SELECTABLE:YES;
#BPMS:0.000=118.000;
#STOPS:;
#DELAYS:;
#WARPS:;
#TIMESIGNATURES:0.000=4=4;
#TICKCOUNTS:0.000=4;
#COMBOS:0.000=1;
#SPEEDS:0.000=1.000=0.000=0;
#SCROLLS:0.000=1.000;
#FAKES:;
#LABELS:0.000=Song Start;
#BGCHANGES:;
#KEYSOUNDS:;
#ATTACKS:
;

//---------------dance-single - ----------------
#NOTEDATA:;
#CHARTNAME:;
#STEPSTYPE:dance-single;
#DESCRIPTION:;
#CHARTSTYLE:;
#DIFFICULTY:Hard;
#METER:11;
#RADARVALUES:0.487160,0.513040,0.730740,0.057995,0.121790,294.000000,231.000000,63.000000,5.000000,0.000000,0.000000,0.000000,0.000000,0.000000,0.487160,0.513040,0.730740,0.057995,0.121790,294.000000,231.000000,63.000000,5.000000,0.000000,0.000000,0.000000,0.000000,0.000000;
#CREDIT:;
#NOTES:
0000
2002
0000
0000
,
0000
0000
0000
3003
,
1001
0000
0000
0000
0001
0000
0010
0001
0000
0000
0000
0000
1000
0000
0000
0000
,
1001
0000
1000
0100
0010
0000
1000
0100
,
0010
0000
0001
0000
0010
0000
1000
0100
0000
0000
0000
0000
1001
0000
0000
0000
,
0110
0000
0100
0010
0100
0000
0110
0000
,
1001
0000
0000
0000
0100
0000
0010
0100
0000
0000
0000
0000
0110
0000
0000
0000
,
0110
0000
1000
0001
1000
0000
1001
0000
,
0110
0000
0000
0000
0010
0000
0100
0010
0000
0000
0000
0000
0110
0000
0000
0000
,
0110
0000
0100
0010
0100
0000
1000
0100
,
0010
0001
0010
0100
1000
0000
0000
0100
,
0010
0000
0100
0000
0010
0000
0100
0000
0000
0000
0010
0100
0010
0000
0100
0010
,
0001
0000
0110
0000
0000
0000
0110
0000
0000
0000
1000
0100
1000
0000
0001
0010
,
0001
0110
0000
0000
0110
0000
1000
0100
,
0010
0001
0000
1000
0000
0000
1000
0100
,
0010
0000
0001
0000
0000
0000
1001
0000
0000
0000
1000
0100
1000
0000
0001
0010
,
0001
1001
0000
0000
0110
1001
0000
0000
,
0110
0110
0000
0110
0000
0000
1000
0100
,
0010
0001
0110
0000
1001
0000
0001
0010
,
0100
1000
0110
0000
1001
0000
1000
0100
,
1000
0100
0000
0000
0001
0020
0000
0030
,
1000
0200
0000
0300
0010
0002
0000
0003
,
1000
0100
0010
0000
0001
0010
0000
0100
,
0000
0000
0100
1000
0100
0010
1001
0110
,
1001
0110
0000
1001
0000
0000
0110
0000
,
0110
0000
0110
0000
1000
0100
0010
0001
,
0010
0100
1000
0000
1001
0000
0110
0000
,
1000
0000
0100
0000
0000
0000
0110
0000
0001
0000
0010
0000
0100
0000
0000
0100
,
1000
1001
0001
0010
,
0100
1000
0000
0110
0000
0001
0010
0100
,
0000
0000
0110
0000
0000
0000
1000
0000
0100
0000
0010
0000
0001
0000
0000
0010
,
0100
0000
0000
0000
1001
0000
0100
0010
0000
0100
0010
0000
0110
0000
0000
1000
,
0100
0000
0000
0110
0000
1001
0000
0110
,
0000
1001
0000
0100
0010
0100
0010
0000
,
0110
1001
0110
1001
0000
0100
0000
0010
,
0001
0000
0010
0000
0000
0000
0100
0000
1000
0000
0100
0000
0010
0000
0000
0001
,
0010
0000
0000
0110
0000
1001
0000
0110
,
0000
0100
0010
0100
0010
1000
0100
0010
,
0001
0000
0110
0000
0000
0000
1000
0000
0100
0000
0010
0000
0001
0000
0000
1000
,
0001
0000
0000
0000
0000
0000
0001
0000
0010
0000
0100
0000
1000
0000
0000
0001
,
1000
0100
1001
0010
,
1001
0000
0100
0000
0010
0001
0000
0110
0000
0000
1001
0000
0110
0000
0000
1001
,
0000
0110
0000
0000
0000
0000
0000
0000
;

//---------------dance-single - ----------------
#NOTEDATA:;
#CHARTNAME:;
#STEPSTYPE:dance-single;
#DESCRIPTION:;
#CHARTSTYLE:;
#DIFFICULTY:Medium;
#METER:8;
#RADARVALUES:0.331401,0.342027,0.115990,0.057995,0.000000,200.000000,190.000000,10.000000,5.000000,0.000000,0.000000,0.000000,0.000000,0.000000,0.331401,0.342027,0.115990,0.057995,0.000000,200.000000,190.000000,10.000000,5.000000,0.000000,0.000000,0.000000,0.000000,0.000000;
#CREDIT:;
#NOTES:
0000
2002
0000
0000
,
0000
0000
0000
3003
,
1001
0000
0001
0010
0000
0000
1000
0000
,
0000
0000
1000
0100
0010
0000
1000
0100
,
0010
0001
0010
1000
0000
0000
1001
0000
,
0000
0000
0100
0010
0100
0000
0000
0000
,
1001
0000
0100
0010
0000
0000
0110
0000
,
0000
0000
1000
0001
1000
0000
0000
0000
,
0110
0000
0010
0100
0000
0000
0000
0000
,
0000
0000
0100
0010
0100
0000
1000
0100
,
0010
0001
0010
0100
1000
0000
0000
0100
,
0010
0100
0010
0100
0000
0010
0010
0100
,
0001
0010
0000
0100
0000
1000
1000
0001
,
0001
0000
0000
0000
0100
0000
1000
0100
,
0010
0001
0000
1000
0000
0000
1000
0100
,
0010
0001
0000
0000
0000
1000
1000
0001
,
0001
1001
0000
0000
0110
0000
0000
0000
,
0100
0010
0000
0100
0000
0000
1000
0100
,
0010
0001
0000
0000
1001
0000
0001
0010
,
0100
1000
0000
0000
0001
0000
1000
0100
,
1000
0000
0000
0000
0001
0020
0000
0030
,
1000
0200
0000
0300
0010
0002
0000
0003
,
1000
0100
0010
0000
0001
0010
0000
0100
,
0000
0000
0100
1000
0100
0010
0001
1000
,
0001
1000
0000
0001
0000
0000
0100
0000
,
0010
0000
0100
0000
1000
0100
0010
0001
,
0010
0100
1000
0000
0100
0000
0010
0000
,
1000
0100
0000
0100
0001
0010
0100
0000
,
0000
1001
0000
0010
,
0100
1000
0000
0100
0000
0001
0010
0100
,
0000
0000
0000
1000
0100
0010
0001
0000
,
0100
0000
0000
0100
0000
0010
0000
0000
,
0100
0000
0000
0100
0000
0001
0000
0100
,
0000
0001
0000
0100
0010
0100
0010
0000
,
0100
0100
0100
0100
0000
0100
0000
0010
,
0001
0010
0000
0100
1000
0100
0010
0000
,
0010
0000
0000
0100
0000
0010
0000
0100
,
0000
0100
0010
0100
0000
1000
0100
0010
,
0001
0000
0000
1000
0100
0010
0001
0000
,
0001
0000
0000
0001
0010
0100
1000
0000
,
1000
0100
1000
0010
,
1000
0100
0010
0000
0000
1000
0100
0000
,
0000
0010
0000
0000
0000
0000
0000
0000
;

//---------------dance-single - ----------------
#NOTEDATA:;
#CHARTNAME:;
#STEPSTYPE:dance-single;
#DESCRIPTION:;
#CHARTSTYLE:;
#DIFFICULTY:Easy;
#METER:4;
#RADARVALUES:0.183928,0.219222,0.115990,0.034797,0.000000,111.000000,101.000000,10.000000,3.000000,0.000000,0.000000,0.000000,0.000000,0.000000,0.183928,0.219222,0.115990,0.034797,0.000000,111.000000,101.000000,10.000000,3.000000,0.000000,0.000000,0.000000,0.000000,0.000000;
#CREDIT:;
#NOTES:
0000
2002
0000
0000
,
0000
0000
0000
3003
,
1001
0001
0000
1000
,
0000
1000
0010
1000
,
0010
0010
0000
1001
,
0000
0100
0100
0000
,
1001
0100
0000
0110
,
0000
1000
1000
0000
,
0110
0010
0000
0000
,
0000
0100
0100
1000
,
0010
0010
1000
0000
,
0010
0010
0000
0010
,
0001
0000
0000
1000
,
0001
0000
0100
1000
,
0010
0000
0000
1000
,
0010
0000
0000
1000
,
0001
0000
0110
0000
,
0100
0000
0000
1000
,
0010
0000
1001
0001
,
0100
0000
0001
1000
,
1000
0000
0001
0000
,
1000
0000
0010
0000
,
1000
0010
0001
0000
,
0000
0100
0100
0001
,
0001
0000
0000
0100
,
0010
0100
1000
0010
,
0010
1000
0100
0010
,
1000
0000
0001
0100
,
0000
1001
0000
0010
,
0100
0000
0000
0010
,
0000
0000
0100
0001
,
0100
0000
0000
0000
,
0100
0000
0000
0000
,
0000
0000
0010
0010
,
0200
0000
0000
0300
0000
0000
0000
0000
,
0001
0000
1000
0010
,
0010
0000
0000
0000
,
0000
0010
0000
0100
,
0001
0000
0100
0001
,
0001
0000
0010
1000
,
1000
0100
1000
0010
,
1000
0010
0000
0100
,
0110
0000
0000
0000
;

//---------------dance-single - ----------------
#NOTEDATA:;
#CHARTNAME:;
#STEPSTYPE:dance-single;
#DESCRIPTION:;
#CHARTSTYLE:;
#DIFFICULTY:Beginner;
#METER:2;
#RADARVALUES:0.106048,0.146148,0.046396,0.000000,0.000000,64.000000,60.000000,4.000000,0.000000,0.000000,0.000000,0.000000,0.000000,0.000000,0.106048,0.146148,0.046396,0.000000,0.000000,64.000000,60.000000,4.000000,0.000000,0.000000,0.000000,0.000000,0.000000,0.000000;
#CREDIT:;
#NOTES:
// measure 0
0000
0000
0000
0000
,  // measure 1
0000
0000
0000
0000
,  // measure 2
1001
0000
0000
1000
,  // measure 3
0000
1000
0000
1000
,  // measure 4
0000
0010
0000
1000
,  // measure 5
0000
0100
0000
0000
,  // measure 6
1000
0000
0000
0100
,  // measure 7
0000
1000
0000
0000
,  // measure 8
0100
0000
0000
0000
,  // measure 9
0000
0100
0000
1000
,  // measure 10
0000
0010
0000
0000
,  // measure 11
0010
0000
0000
0010
,  // measure 12
0000
0000
0000
1000
,  // measure 13
0000
0000
0100
0000
,  // measure 14
0010
0000
0000
0000
,  // measure 15
0010
0000
0000
1000
,  // measure 16
0000
0000
0110
0000
,  // measure 17
0100
0000
0000
1000
,  // measure 18
0000
0000
1001
0000
,  // measure 19
0100
0000
0001
0000
,  // measure 20
1000
0000
0001
0000
,  // measure 21
1000
0000
0010
0000
,  // measure 22
1000
0000
0001
0000
,  // measure 23
0000
0100
0000
0001
,  // measure 24
0000
0000
0000
0100
,  // measure 25
0000
0100
0000
0010
,  // measure 26
0000
1000
0000
0000
,  // measure 27
1000
0000
0000
0100
,  // measure 28
0000
0001
0000
0010
,  // measure 29
0000
0000
0000
0010
,  // measure 30
0000
0000
0100
0000
,  // measure 31
0100
0000
0000
0000
,  // measure 32
0100
0000
0000
0000
,  // measure 33
0000
0000
0000
0010
,  // measure 34
0000
0000
0000
0000
,  // measure 35
0001
0000
1000
0000
,  // measure 36
0010
0000
0000
0000
,  // measure 37
0000
0010
0000
0100
,  // measure 38
0000
0000
0100
0000
,  // measure 39
0001
0000
0010
0000
,  // measure 40
1000
0000
1000
0000
,  // measure 41
1000
0000
0000
0000
,  // measure 42
0110
0000
0000
0000
;
