#TITLE:Days Gone By;
#SUBTITLE:;
#ARTIST:DAY6;
#TITLETRANSLIT:;
#SUBTITLETRANSLIT:;
#ARTISTTRANSLIT:;
#GENRE:;
#CREDIT:SoulEdge5000;
#BANNER:bn.png;
#BACKGROUND:bg.png;
#LYRICSPATH:;
#CDTITLE:;
#MUSIC:Days Gone By.ogg;
#OFFSET:-0.557000;
#SAMPLESTART:46.599998;
#SAMPLELENGTH:12.000000;
#SELECTABLE:YES;
#BPMS:0.000000=103.000000
;
#STOPS:
;
#BGCHANGES:0.000=Days Gone By.avi=1.000=0=0=1===CrossFade_Fastest==,
99999=-nosongbg-=1.000=0=0=0 // don't automatically add -songbackground-
;
#KEYSOUNDS:;
#ATTACKS:;

//---------------dance-single - ----------------
#NOTES:
     dance-single:
     :
     Hard:
     8:
     0.303005,0.338291,0.241637,0.067121,0.000000,158.000000,140.000000,18.000000,5.000000,0.000000,0.000000,0.303005,0.338291,0.241637,0.067121,0.000000,158.000000,140.000000,18.000000,5.000000,0.000000,0.000000:
// measure 0
0000
0000
0000
0000
,  // measure 1
0000
0000
0000
0000
,  // measure 2
0000
0000
0000
0000
,  // measure 3
0000
0000
0000
0000
0000
0000
1000
0100
,  // measure 4
1000
0100
0010
0001
0010
0100
0010
0100
,  // measure 5
0000
0000
0110
0000
0100
0010
0100
0000
,  // measure 6
1000
0001
1000
0001
1000
0001
1000
0001
,  // measure 7
1000
0000
1001
0000
1001
0000
1000
0100
,  // measure 8
1000
0100
0001
0010
0001
0010
0001
0010
,  // measure 9
0000
0000
0110
0000
0110
0000
1000
0100
,  // measure 10
1000
0000
0001
0010
0001
0000
1000
0100
,  // measure 11
0010
0001
0010
0100
1000
0000
0100
0100
,  // measure 12
0100
0100
0100
0100
0100
0000
0010
0010
,  // measure 13
0010
0010
0010
0010
0010
0000
1000
0000
,  // measure 14
1100
0100
0110
0010
,  // measure 15
0011
0000
0010
0000
0110
0000
1000
1000
,  // measure 16
1000
1000
1000
1000
1000
0000
0001
0001
,  // measure 17
0001
0001
0001
0001
0001
0000
0110
0000
,  // measure 18
0000
0000
1001
0000
,  // measure 19
1000
0000
0100
0000
0010
0000
0001
0010
,  // measure 20
0001
0000
0010
0100
0010
0000
0100
1000
,  // measure 21
0100
0010
0010
0001
,  // measure 22
0001
0010
0010
0200
,  // measure 23
0300
0020
0030
1000
,  // measure 24
1100
0100
0101
0001
,  // measure 25
0011
0010
0110
0100
,  // measure 26
1100
0000
1000
0000
1000
0100
0010
0001
,  // measure 27
0010
0100
1000
0000
1001
0000
0200
0000
,  // measure 28
0000
0010
0310
0020
,  // measure 29
0000
0100
0130
0200
,  // measure 30
0000
0010
0310
0110
,  // measure 31
0000
0010
0100
0000
0100
0000
0000
0000
;

//---------------dance-single - ----------------
#NOTES:
     dance-single:
     :
     Medium:
     6:
     0.241637,0.338291,0.443001,0.000000,0.000000,126.000000,93.000000,33.000000,0.000000,0.000000,0.000000,0.241637,0.338291,0.443001,0.000000,0.000000,126.000000,93.000000,33.000000,0.000000,0.000000,0.000000:
0000
0000
0000
0000
,
0000
0000
0000
0000
,
0000
0000
0000
0000
,
0000
0000
0000
1000
,
0000
0000
1000
0100
1000
0000
0001
0000
,
0000
0000
0001
0010
0001
0000
0000
0000
,
1001
0000
0110
0000
,
1001
0000
0110
1000
,
0000
0000
1000
0100
1000
0000
0001
0000
,
0000
0000
0001
0010
0001
0000
0000
0000
,
0110
0000
1001
0000
,
0110
0000
1001
1000
,
0000
1000
1000
0000
1000
0000
0001
0000
,
0000
0001
0001
0000
0001
0000
0000
0000
,
0110
0000
0110
0000
,
1001
0000
1001
0100
,
0000
0100
0100
0000
0100
0000
0010
0000
,
0000
0010
0010
0000
0010
0000
0000
0000
,
1100
0000
0011
0000
,
1100
0000
0011
1000
,
0000
1000
1000
1000
,
0100
0000
0010
0000
0001
0000
0010
0100
,
1000
0000
0010
0100
1000
0000
0000
0000
,
1001
0000
0110
0001
,
0000
0001
0010
0100
,
1000
0100
0010
0001
,
0000
0000
1001
0000
1000
0100
0010
0001
,
0010
0100
1000
0000
1001
0000
0110
0000
,
0000
0000
0000
0110
0110
0000
1001
0000
,
0000
0000
0000
1001
1001
0000
0110
0000
,
0000
0000
0000
0110
0110
0000
0110
0000
,
0000
0110
0110
0000
0110
0000
0000
0000
;

//---------------dance-single - ----------------
#NOTES:
     dance-single:
     :
     Easy:
     3:
     0.170680,0.190289,0.093970,0.080546,0.000000,89.000000,82.000000,7.000000,6.000000,0.000000,0.000000,0.170680,0.190289,0.093970,0.080546,0.000000,89.000000,82.000000,7.000000,6.000000,0.000000,0.000000:
0000
0000
0000
0000
,
0000
0000
0000
0000
,
0000
0000
0000
0000
,
0000
0000
0000
1000
,
0000
1000
0000
0001
,
0000
0001
0000
0100
,
0010
0001
0010
0100
,
1000
0000
1001
0000
,
0001
0000
0001
0000
,
1000
0000
1000
0000
,
1000
0100
1000
0100
,
0010
0001
0010
0001
,
0000
1001
0000
1000
,
0000
1001
0000
1000
,
1000
1000
0000
0001
,
0001
0001
0000
1001
,
0000
0110
0000
1001
,
0000
0110
0000
1000
,
0000
1000
0000
0001
,
0000
0001
0000
0200
,
0300
0010
0100
0010
,
0100
0010
0001
0010
,
0001
0010
0100
1000
,
0100
0010
0001
0020
,
0030
0100
1000
0100
,
1000
0100
0010
0100
,
0010
0100
0010
0001
,
0010
0001
0010
0200
,
0000
0310
0010
0020
,
0000
0130
0100
0200
,
0000
0310
0020
0030
,
0000
0100
0010
0000
0010
0000
0000
0000
;

//---------------dance-single - ----------------
#NOTES:
     dance-single:
     :
     Beginner:
     2:
     0.103559,0.148002,0.026849,0.000000,0.000000,54.000000,52.000000,2.000000,0.000000,0.000000,0.000000,0.103559,0.148002,0.026849,0.000000,0.000000,54.000000,52.000000,2.000000,0.000000,0.000000,0.000000:
0000
0000
0000
0000
,
0000
0000
0000
0000
,
0000
0000
0000
0000
,
0000
0000
0000
1000
,
0000
1000
0000
0001
,
0000
0001
0000
1000
,
0000
1000
0000
0001
,
0000
0001
0000
1000
,
0000
0000
0000
0100
,
0000
0000
0000
0010
,
0000
0000
0000
0001
,
0000
0000
0000
1000
,
1000
1000
0000
0001
,
0001
0001
0000
1000
,
0000
1000
0000
0001
,
0000
0001
0000
1000
,
1000
1000
0000
0001
,
0001
0001
0000
0000
,
1001
0000
0000
0000
,
0110
0000
0000
1000
,
0000
1000
0000
0001
,
0000
0001
0000
1000
,
0000
1000
0000
0001
,
0000
0001
0000
0100
,
0000
0100
0000
0010
,
0000
0010
0000
0100
,
0000
0100
0000
0010
,
0000
0010
0000
0100
,
0000
0000
0000
0010
,
0000
0000
0000
0100
,
0000
0000
0000
0010
,
0000
0100
0100
0000
;
