#TITLE:DDD;
#SUBTITLE:;
#ARTIST:EXID;
#TITLETRANSLIT:;
#SUBTITLETRANSLIT:;
#ARTISTTRANSLIT:;
#GENRE:;
#CREDIT:SoulEdge5000;
#BANNER:bn.png;
#BACKGROUND:bg.png;
#LYRICSPATH:;
#CDTITLE:;
#MUSIC:DDD.mp3;
#OFFSET:-0.281000;
#SAMPLESTART:66.800003;
#SAMPLELENGTH:12.000000;
#SELECTABLE:YES;
#BPMS:0.000000=114.012001
,128.000000=232.000000
,192.000000=116.000000
;
#STOPS:
;
#BGCHANGES:0.000=DDD.avi=1.000=0=0=1===CrossFade_Fastest==,
99999=-nosongbg-=1.000=0=0=0 // don't automatically add -songbackground-
;
#KEYSOUNDS:;
#ATTACKS:;

//---------------dance-single - ----------------
#NOTES:
     dance-single:
     :
     Easy:
     5:
     0.214795,0.365615,0.118987,0.237974,0.021634,139.000000,128.000000,11.000000,22.000000,0.000000,0.000000,0.214795,0.365615,0.118987,0.237974,0.021634,139.000000,128.000000,11.000000,22.000000,0.000000,0.000000:
0000
0000
0000
0000
,
0000
0000
0000
0000
,
0000
0000
0000
0000
,
0000
0000
0000
0000
,
0000
0000
0000
0000
0000
0100
0100
0100
,
0100
0000
0000
0000
0000
0010
0010
0010
,
0010
0000
0000
0000
0000
0100
0010
0100
,
0010
0000
0000
0000
0000
0010
0100
0010
,
0100
1000
1000
1000
,
0001
0001
0001
0001
,
1000
0100
1000
0000
1001
0000
0000
0000
,
0001
0010
0001
0000
1001
0000
1000
1000
,
1000
1001
0000
0110
,
1000
1000
1000
1000
,
0100
0010
0100
0000
0010
0100
0010
0000
,
0100
0100
0010
0010
,
0001
0010
0100
1000
,
1000
0100
0010
0001
,
1000
0000
1000
0000
,
1000
0100
0000
0010
0001
0000
0010
0000
0000
0000
0010
0000
0010
0000
0010
0000
,
0010
1100
0000
1100
,
0000
0010
0010
0010
,
1000
0000
0000
1000
0000
0000
1000
0000
0000
1000
0000
0000
1000
0000
0000
0000
,
1000
0100
0010
0001
,
2002
0000
0000
3003
,
0220
0000
0000
0330
,
1000
0000
0100
1000
0100
0000
0110
0000
,
0001
0010
0100
1000
,
2002
0000
0000
3003
,
0220
0000
0000
0330
,
0001
0000
0001
0000
,
1000
0000
1000
0000
,
2000
0000
0000
0000
,
3000
1000
0100
0010
,
0002
0000
0000
0000
,
1003
1000
1000
2000
,
0000
0000
0000
0000
,
3200
0000
0000
0000
,
0320
0000
0000
0000
,
0032
0000
1000
1000
,
2003
0000
0000
0000
,
3000
0000
0100
0000
,
0020
0000
0000
0000
,
0031
0000
0000
0000
,
0200
0000
0000
0300
,
0020
0000
0000
0030
,
0100
0000
0010
0000
,
0100
0000
0010
0000
,
0200
0000
0000
0000
,
0320
0000
0000
0000
,
0230
0000
0000
0000
,
0320
0000
0000
0000
,
0030
0000
0000
0000
;

//---------------dance-single - ----------------
#NOTES:
     dance-single:
     :
     Medium:
     10:
     0.364688,0.643747,0.043268,0.173072,0.146030,236.000000,232.000000,4.000000,16.000000,0.000000,0.000000,0.364688,0.643747,0.043268,0.173072,0.146030,236.000000,232.000000,4.000000,16.000000,0.000000,0.000000:
0000
0000
0000
0000
,
0000
0000
0000
0000
,
0000
0000
0000
0000
,
0000
0000
0000
0000
,
2000
0000
0000
0000
0000
0100
0100
0100
,
3100
0000
0002
0000
0000
0010
0010
0010
,
0013
0000
2000
0000
0000
0100
0100
0100
,
3100
0000
0002
0000
0000
1000
1000
1000
,
1003
0100
0010
0100
0010
0000
0100
0010
,
0000
0010
0100
0010
0100
0000
0110
0000
,
1000
0100
0010
0001
0010
0000
0010
0100
,
0010
0100
1000
0100
0010
0000
0001
0010
,
0100
0000
0010
0000
0100
0010
0000
0000
0100
0010
0000
0000
0100
0010
0000
0000
,
1000
0001
0000
0000
1000
0001
0000
0000
1000
0001
0000
0000
1000
0001
0000
0000
,
1000
0000
0100
0000
0010
0000
0000
0000
0001
0010
0100
0000
0010
0000
0100
0000
,
1000
0100
0010
0000
0001
0010
0100
0000
1000
0100
0010
0001
0010
0100
1000
0000
,
1000
0100
0010
0001
0010
0000
0100
0010
,
0000
0000
0100
0010
0100
0010
0100
0000
,
1000
0100
1000
0100
0010
0000
0001
0010
,
1000
0100
0000
0100
1000
0000
0010
0100
0000
0100
0010
0000
0100
0000
0100
0000
,
0100
0000
0010
0000
0010
0000
0000
0000
0010
0100
0010
0100
0010
0000
0100
0000
,
0000
0000
0100
0000
0010
0000
0000
0000
0100
0010
0100
0010
0100
0010
0100
0000
,
1000
0000
0000
1000
0000
0000
1000
0000
0100
0000
0010
0000
0100
0000
0000
0000
,
0001
0010
0000
0000
0010
0100
0000
0000
0100
1000
0000
0000
1000
0001
0000
0000
,
2000
0000
0000
0000
0100
0100
3100
0100
,
0200
0000
0000
0000
0010
0010
0310
0100
,
2000
0000
0010
0010
3010
0000
0100
0010
,
0001
0000
0010
0000
0100
0010
1000
0000
,
2000
0000
0000
0000
3100
0010
0100
0010
,
0200
0000
0000
0010
0310
0010
0010
0100
,
2000
0000
3200
0000
,
0320
0000
0000
0000
0032
1000
1000
2000
,
0003
0000
0000
3000
,
0000
0000
0100
0010
0100
0010
0100
0000
,
0000
0000
0110
0000
,
1000
0100
1000
0000
,
0001
1000
0010
0100
,
0000
1000
0100
0010
,
0000
0000
0110
0000
,
0000
1000
0100
0010
,
0000
0000
0000
0001
,
0010
0001
0010
0001
,
0000
0000
1001
0000
,
1000
0100
1000
0100
,
0000
0010
0001
0010
,
0000
0010
0100
0010
,
0000
1000
0000
0100
,
0000
0010
0000
0001
,
2000
0000
0000
0000
,
3200
0000
0000
0300
,
1000
0000
0000
0000
1000
0100
1000
0000
,
0001
0000
0000
0000
0001
0010
0001
0000
;

//---------------dance-single - ----------------
#NOTES:
     dance-single:
     :
     Hard:
     14:
     0.608843,0.759354,0.497582,0.205523,0.313693,394.000000,348.000000,46.000000,19.000000,0.000000,0.000000,0.608843,0.759354,0.497582,0.205523,0.313693,394.000000,348.000000,46.000000,19.000000,0.000000,0.000000:
2000
0000
0010
0010
3010
0000
0110
0000
,
0002
0000
0100
0100
0103
0000
0110
0000
,
2000
0000
0100
0100
3100
0000
0110
0000
,
0002
0000
0010
0010
0013
0000
0110
0000
,
2000
0000
0000
0000
0100
0000
0100
0000
3100
0000
0000
0000
0100
0001
0100
0001
,
0100
0000
0000
0000
0110
0000
0000
0000
1001
0000
0000
0000
0001
0100
0001
0100
,
0001
0000
0000
0000
1001
0000
0000
0000
0110
0000
0000
0000
0010
0100
0010
0100
,
0010
0000
0000
0000
0110
0000
0000
0000
1001
0000
0000
0000
1000
0100
0010
0001
,
0010
0100
0010
0100
0010
0000
0110
1001
,
0110
0000
0100
0010
0100
0010
0100
0000
,
1000
0100
0010
0001
0110
0000
0110
1001
,
0100
0000
0010
0000
0100
0000
0010
0000
0100
0000
0000
0000
0100
0010
0100
0010
,
0100
0000
0000
0000
1000
0000
0100
0000
0010
0001
0010
0001
0010
0000
0000
0000
,
0100
0010
0100
0000
0110
0000
0000
0100
0000
0000
0100
0000
0000
0100
0000
0000
,
0100
0010
0100
0000
0010
0100
0010
0000
0100
0010
0100
0000
0010
0100
0010
0000
,
1000
0100
0010
0000
0001
0010
0100
0000
1000
0100
0010
0001
0010
0100
1000
0100
,
0010
0001
0010
0001
0010
0000
0100
0010
,
0000
0100
0010
0100
0010
0000
0110
0000
,
1000
0100
0010
0001
0010
0000
0100
0010
,
0100
0010
0100
0000
1000
0001
1000
0000
0001
1000
0001
0000
0010
0100
0010
0000
,
0110
0000
0100
0000
0010
0000
0000
0000
0100
0010
0100
0010
0100
0000
0010
0000
,
0000
0000
1000
0000
0100
0000
0010
0000
0001
0010
0001
0010
0001
0000
0000
0000
,
0001
0010
0001
0000
0010
0100
0010
0000
0100
1000
0100
0000
0100
0010
0100
0000
,
1000
0100
0000
0000
0010
0001
0000
0000
0010
0100
0000
0000
0100
0010
0000
0000
,
2002
0000
0000
0000
3003
0000
0000
0000
1000
0100
0010
0001
0010
0100
1000
0100
,
0020
0030
2002
3003
,
0001
0000
0000
0000
1000
0100
1000
0000
1001
0000
0000
0000
1001
0000
0000
0000
,
0001
0010
0000
0000
0010
0100
0000
0000
0100
1000
0000
0000
0100
0010
0000
0000
,
2002
0000
0000
0000
3003
0000
0000
0000
1000
0000
0000
0000
0010
0100
0010
0100
,
0010
0110
1001
0110
,
1002
0000
1000
1000
1003
0000
0120
0100
,
0130
0000
0210
0010
0020
0000
0330
0000
,
1000
0100
1000
0000
1001
0000
1001
0000
,
0001
0010
0001
0000
1001
0000
1001
0000
,
1000
0100
0010
0000
0110
0000
0110
0000
,
0001
0010
0100
0000
0110
0000
0110
0000
,
1000
0100
0010
0000
0001
0010
0100
0000
,
1000
0100
0010
0000
0001
0010
0100
0000
,
1000
0100
0001
0010
,
1000
0100
0001
0010
,
1000
0100
1000
0000
1001
0000
1001
0000
,
0001
0010
0001
0000
1001
0000
1001
0000
,
1000
0100
1000
0000
1001
0000
1001
0000
,
0001
0010
0001
0000
1001
0000
1001
0000
,
1000
0100
0010
0001
,
0001
0010
0100
0000
1000
0100
0010
0000
,
0001
0010
0100
0000
1000
0100
0010
0001
,
0010
0100
1000
0100
0010
0001
0010
0100
,
2000
0000
0100
0100
0100
0100
0100
0000
,
3002
0000
0100
0100
0100
0100
0100
0000
,
2003
0000
0000
0000
0010
0010
3010
0000
,
0001
0010
0100
0000
1000
0100
0010
0000
0001
0010
0100
1000
0100
0010
0001
0010
,
0100
0000
0000
0000
;

//---------------dance-single - ----------------
#NOTES:
     dance-single:
     :
     Beginner:
     4:
     0.108170,0.193084,0.086536,0.043268,0.000000,70.000000,62.000000,8.000000,4.000000,0.000000,0.000000,0.108170,0.193084,0.086536,0.043268,0.000000,70.000000,62.000000,8.000000,4.000000,0.000000,0.000000:
// measure 0
0000
0000
0000
0000
,  // measure 1
0000
0000
0000
0000
,  // measure 2
0000
0000
0000
0000
,  // measure 3
0000
0000
0000
0000
,  // measure 4
0000
0000
0000
0000
0000
0200
0000
0000
,  // measure 5
0300
0000
0000
0000
0000
0020
0000
0000
,  // measure 6
0000
0030
0000
0000
0000
0200
0000
0300
,  // measure 7
0000
0000
0000
0000
0000
0020
0000
0030
,  // measure 8
0000
1000
0000
0000
,  // measure 9
0001
0000
0000
0000
,  // measure 10
1000
0000
1001
0000
,  // measure 11
0001
0000
1001
0000
,  // measure 12
0000
1001
0000
0110
,  // measure 13
0000
1000
0000
1000
,  // measure 14
0100
0000
0010
0000
,  // measure 15
0100
0000
0010
0000
,  // measure 16
0001
0000
0100
0000
,  // measure 17
1000
0000
0010
0000
,  // measure 18
1000
0000
1000
0000
,  // measure 19
1000
0000
0000
0010
,  // measure 20
0000
1000
0000
1000
,  // measure 21
0000
0010
0000
0000
,  // measure 22
1000
0000
0000
1000
,  // measure 23
1000
0000
0000
0001
,  // measure 24
1001
0000
0000
0000
,  // measure 25
0110
0000
0000
0000
,  // measure 26
1000
0000
0100
0000
,  // measure 27
0001
0000
0100
0000
,  // measure 28
1001
0000
0000
0000
,  // measure 29
0110
0000
0000
0000
,  // measure 30
0001
0000
0000
0000
,  // measure 31
1000
0000
0000
0000
,  // measure 32
1000
0000
0000
0000
,  // measure 33
0000
0000
0000
0000
,  // measure 34
0001
0000
0000
0000
,  // measure 35
1000
0000
0000
1000
,  // measure 36
0000
0000
0000
0000
,  // measure 37
0100
0000
0000
0000
,  // measure 38
0010
0000
0000
0000
,  // measure 39
0001
0000
0000
0000
,  // measure 40
1000
0000
0000
0000
,  // measure 41
0000
0000
0100
0000
,  // measure 42
0010
0000
0000
0000
,  // measure 43
0001
0000
0000
0000
,  // measure 44
0100
0000
0000
0000
,  // measure 45
0010
0000
0000
0000
,  // measure 46
0100
0000
0000
0000
,  // measure 47
0100
0000
0000
0000
,  // measure 48
0100
0000
0000
0000
,  // measure 49
0010
0000
0000
0000
,  // measure 50
0100
0000
0000
0000
,  // measure 51
0010
0000
0000
0000
;
