#VERSION:0.83;
#TITLE:Chinito Problems;
#SUBTITLE:;
#ARTIST:Enchong Dee;
#TITLETRANSLIT:;
#SUBTITLETRANSLIT:;
#ARTISTTRANSLIT:;
#GENRE:;
#ORIGIN:;
#CREDIT:;
#BANNER:banner.png;
#BACKGROUND:;
#PREVIEWVID:;
#JACKET:jacket.png;
#CDIMAGE:;
#DISCIMAGE:;
#LYRICSPATH:;
#CDTITLE:;
#MUSIC:Chinito Problems.ogg;
#OFFSET:0.000000;
#SAMPLESTART:35.500000;
#SAMPLELENGTH:12.000000;
#SELECTABLE:YES;
#BPMS:0.000=115.000;
#STOPS:;
#DELAYS:;
#WARPS:;
#TIMESIGNATURES:0.000=4=4;
#TICKCOUNTS:0.000=4;
#COMBOS:0.000=1;
#SPEEDS:0.000=1.000=0.000=0;
#SCROLLS:0.000=1.000;
#FAKES:;
#LABELS:0.000=Song Start;
#BGCHANGES:;
#KEYSOUNDS:;
#ATTACKS:
;

//---------------dance-single - ----------------
#NOTEDATA:;
#CHARTNAME:;
#STEPSTYPE:dance-single;
#DESCRIPTION:;
#CHARTSTYLE:;
#DIFFICULTY:Hard;
#METER:9;
#RADARVALUES:0.398717,0.399956,0.329197,0.400761,0.000000,195.000000,172.000000,23.000000,28.000000,0.000000,0.000000,0.000000,0.000000,0.000000,0.398717,0.399956,0.329197,0.400761,0.000000,195.000000,172.000000,23.000000,28.000000,0.000000,0.000000,0.000000,0.000000,0.000000;
#CREDIT:;
#NOTES:
0000
0000
0000
0000
,
0000
0000
0000
0000
,
1000
0100
1000
0100
0010
0001
0010
0001
,
0010
0100
1000
0100
0010
0000
0010
0100
,
0010
0000
0100
0010
0100
0010
0100
0010
,
0100
0000
1000
0100
0010
0001
0010
0100
,
1000
0000
0100
1000
0100
0010
0001
0010
,
0200
0000
0000
0300
1000
0100
0010
0001
,
0110
0000
1000
0100
1000
0100
0010
0001
,
0010
0001
0010
0100
1000
0001
0010
0100
,
1000
0000
1000
0100
1000
0100
0010
0001
,
0010
0001
0010
0100
1000
0000
1000
0100
,
0010
0000
0001
0010
0100
1000
0100
0010
,
0002
0000
0000
0000
0000
0003
1000
0100
,
1000
0000
0001
0010
0100
1000
0100
0010
,
2002
0000
0000
0000
,
3003
0000
1000
0100
1000
0100
1000
0100
,
0000
2002
0000
3003
0220
0000
0000
0330
,
1000
0000
1000
0100
0010
0001
0010
0100
,
0000
2002
0000
3003
0220
0000
0330
1000
,
0100
0000
0110
0000
1001
0000
0110
1001
,
0000
0220
0000
0330
2002
0000
3003
0100
,
0010
0000
0010
0100
0010
0100
0000
0110
,
0000
2002
0000
3003
0220
0000
0330
0100
,
0010
0000
0110
0000
0110
0000
0000
0110
,
0000
2002
0000
3003
0220
0000
0330
0000
,
0010
0000
0010
0100
0010
0100
0000
0110
,
0000
2002
0000
3003
0220
0000
0330
0010
,
0100
0010
0100
0000
0100
0010
0100
0010
,
0100
0010
1000
0100
0010
0001
0010
0100
,
1000
0000
0000
0000
0010
0100
0010
0100
,
0000
0000
0100
0010
0100
0010
1000
0001
,
1000
0001
0100
0010
0100
0010
1000
0001
;

//---------------dance-single - ----------------
#NOTEDATA:;
#CHARTNAME:;
#STEPSTYPE:dance-single;
#DESCRIPTION:;
#CHARTSTYLE:;
#DIFFICULTY:Medium;
#METER:6;
#RADARVALUES:0.218783,0.258795,0.100190,0.171755,0.000000,107.000000,100.000000,7.000000,12.000000,0.000000,0.000000,0.000000,0.000000,0.000000,0.218783,0.258795,0.100190,0.171755,0.000000,107.000000,100.000000,7.000000,12.000000,0.000000,0.000000,0.000000,0.000000,0.000000;
#CREDIT:;
#NOTES:
0000
0000
0000
0000
,
0000
0000
0000
0000
,
1000
0100
1000
0000
0010
0001
0010
0000
,
0000
0000
1000
0100
0010
0000
0000
0000
,
0000
0000
0100
0010
0100
0000
0000
0000
,
0000
0000
1000
0100
0010
0000
0000
0000
,
1000
0000
0000
0000
0100
0010
0001
0000
,
0200
0000
0000
0300
1000
0000
0000
0000
,
0110
0000
0000
0000
1000
0100
0010
0000
,
0000
0000
0010
0100
1000
0000
0000
0000
,
1000
0000
0000
0000
1000
0100
0010
0000
,
0000
0000
0010
0100
1000
0000
0000
0000
,
0000
0000
0001
0010
0100
0000
0000
0000
,
0002
0000
0000
0000
0000
0003
1000
0000
,
1000
0000
0001
0010
0100
0000
0100
0000
,
2002
0000
0000
0000
,
3003
1000
1000
1000
,
0000
0002
0000
0003
0200
0000
0000
0300
,
1000
0000
1000
0000
0010
0001
0010
0000
,
0000
2000
0000
3000
0200
0000
0300
0000
,
0000
0100
0100
0100
,
0000
0200
0000
0300
2000
0000
3000
0000
,
0000
0000
0010
0100
0010
0000
0000
0000
,
0000
1001
0000
0000
0110
0000
0000
0000
,
0010
0000
0110
0000
,
0000
2000
0000
3000
0020
0000
0030
0000
,
0010
0010
0010
0000
,
0000
1001
0000
0000
0110
0000
0000
0000
,
0100
0010
0100
0000
0000
0000
0100
0010
,
0100
1000
0010
0010
,
1000
0000
0000
0000
0010
0100
0010
0000
,
0000
0000
0100
0010
0100
0000
1000
0000
,
1000
0000
0100
0010
0100
0000
1000
0001
;

//---------------dance-single - ----------------
#NOTEDATA:;
#CHARTNAME:;
#STEPSTYPE:dance-single;
#DESCRIPTION:;
#CHARTSTYLE:;
#DIFFICULTY:Easy;
#METER:3;
#RADARVALUES:0.161531,0.187499,0.071565,0.114503,0.000000,79.000000,74.000000,5.000000,8.000000,0.000000,0.000000,0.000000,0.000000,0.000000,0.161531,0.187499,0.071565,0.114503,0.000000,79.000000,74.000000,5.000000,8.000000,0.000000,0.000000,0.000000,0.000000,0.000000;
#CREDIT:;
#NOTES:
0000
0000
0000
0000
,
0000
0000
0000
0000
,
1000
1000
0010
0010
,
0000
1000
0010
0000
,
0000
0100
0100
0000
,
0000
1000
0010
0000
,
1000
0000
0100
0001
,
0200
0000
0000
0300
1000
0000
0000
0000
,
0110
0000
1000
0010
,
0000
0010
1000
0000
,
1000
0000
1000
0010
,
0000
0010
1000
0000
,
0000
0001
0100
0000
,
0002
0000
0000
0000
0000
0003
1000
0000
,
1000
0001
0100
0100
,
2002
0000
0000
0000
,
3003
1000
1000
1000
,
0000
0000
0000
0000
0200
0000
0000
0300
,
1000
1000
0010
0010
,
0000
0000
0200
0300
,
0000
0100
0100
0100
,
0000
0000
2000
3000
,
0000
0010
0010
0000
,
0000
0000
0110
0000
,
0010
0000
0110
0000
,
0000
0000
0020
0030
,
0010
0010
0010
0000
,
0000
0000
0110
0000
,
0100
0100
0000
0100
,
0100
1000
0010
0010
,
1000
0000
0010
0010
,
0000
0100
0100
1000
,
1000
0100
0100
1000
;

//---------------dance-single - ----------------
#NOTEDATA:;
#CHARTNAME:;
#STEPSTYPE:dance-single;
#DESCRIPTION:;
#CHARTSTYLE:;
#DIFFICULTY:Beginner;
#METER:2;
#RADARVALUES:0.089967,0.140624,0.071565,0.000000,0.000000,44.000000,39.000000,5.000000,0.000000,0.000000,0.000000,0.000000,0.000000,0.000000,0.089967,0.140624,0.071565,0.000000,0.000000,44.000000,39.000000,5.000000,0.000000,0.000000,0.000000,0.000000,0.000000,0.000000;
#CREDIT:;
#NOTES:
// measure 0
0000
0000
0000
0000
,  // measure 1
0000
0000
0000
0000
,  // measure 2
1000
0000
0010
0000
,  // measure 3
0000
1000
0000
0000
,  // measure 4
0000
0100
0000
0000
,  // measure 5
0000
1000
0000
0000
,  // measure 6
1000
0000
0100
0000
,  // measure 7
0100
0000
0000
0000
,  // measure 8
0110
0000
0000
0010
,  // measure 9
0000
0010
0000
0000
,  // measure 10
1000
0000
0000
0000
,  // measure 11
0000
0010
0000
0000
,  // measure 12
0000
0000
0100
0000
,  // measure 13
0001
0000
0000
1000
,  // measure 14
0000
0001
0000
0100
,  // measure 15
1001
0000
0000
0000
,  // measure 16
0000
1000
0000
0000
,  // measure 17
0000
0000
0100
0000
,  // measure 18
0000
1000
0000
0010
,  // measure 19
0000
0000
0100
0000
,  // measure 20
0000
0100
0000
0000
,  // measure 21
0000
0000
1000
0000
,  // measure 22
0000
0010
0000
0000
,  // measure 23
0000
0000
0110
0000
,  // measure 24
0000
0000
0110
0000
,  // measure 25
0000
0000
0010
0000
,  // measure 26
0000
0000
0010
0000
,  // measure 27
0000
0000
0110
0000
,  // measure 28
0000
0100
0000
0000
,  // measure 29
0100
0000
0000
0010
,  // measure 30
0000
0000
0000
0010
,  // measure 31
0000
0000
0100
0000
,  // measure 32
1000
0000
0000
1000
;
