#TITLE:CELEB FIVE;
#SUBTITLE:;
#ARTIST:Celeb Five;
#TITLETRANSLIT:;
#SUBTITLETRANSLIT:;
#ARTISTTRANSLIT:;
#GENRE:;
#CREDIT:SoulEdge5000;
#BANNER:bn.png;
#BACKGROUND:bg.png;
#LYRICSPATH:;
#CDTITLE:;
#MUSIC:Celeb Five.ogg;
#OFFSET:-0.023000;
#SAMPLESTART:41.913021;
#SAMPLELENGTH:12.000000;
#SELECTABLE:YES;
#BPMS:0.000000=143.212997
;
#STOPS:
;
#BGCHANGES:;
#KEYSOUNDS:;
#ATTACKS:;

//---------------dance-single - ----------------
#NOTES:
     dance-single:
     :
     Hard:
     16:
     0.731183,0.790660,0.050928,0.012732,0.547478,402.000000,398.000000,4.000000,1.000000,0.000000,0.000000,0.731183,0.790660,0.050928,0.012732,0.547478,402.000000,398.000000,4.000000,1.000000,0.000000,0.000000:
0000
0000
0000
0000
,
1000
0100
1000
0100
1000
0100
1000
0100
1000
0000
1000
0000
1000
0000
0000
0000
,
0001
0010
0001
0010
0001
0010
0001
0010
0001
0000
0001
0000
0001
0000
0000
0000
,
1000
0100
1000
0000
0001
0000
0010
0000
0100
0010
0100
0000
0010
0000
0100
0000
,
0010
0001
0010
0000
0010
0100
0010
0000
0100
1000
0100
0000
0100
0010
0100
0000
,
0010
0001
0010
0001
0010
0001
0010
0001
0010
0000
0001
0000
0010
0000
0000
0000
,
0100
1000
0100
1000
0100
1000
0100
1000
0100
0000
1000
0000
0100
0000
0000
0000
,
0100
0010
0100
0000
0010
0000
0010
0000
0010
0100
0010
0000
0100
0000
0100
0000
,
0100
1000
0100
0000
0010
0001
0010
0000
0010
0100
1000
0100
0010
0001
0010
0100
,
1000
0010
0100
0010
0100
0010
0100
0010
,
0100
0010
0100
0000
0010
0100
0010
0000
1000
0001
1000
0000
0001
1000
0001
0000
,
0001
1000
0001
0000
1000
0001
1000
0000
,
1000
0100
0010
0000
0001
0010
0100
0000
1000
0100
0010
0000
0001
0010
0100
0000
,
0100
0010
0100
0000
0010
0100
0010
0000
,
1000
0100
0010
0001
0010
0100
1000
0000
,
1000
0100
1000
0000
0001
0010
0001
0000
,
1000
0100
0010
0000
0001
0010
0100
0000
1000
0100
0010
0000
0001
0010
0100
0000
,
1000
0100
1000
0100
1000
0100
1000
0100
1000
0100
1000
0100
1000
0000
0000
0000
,
0100
0100
0100
0000
0010
0010
0010
0000
,
0100
0000
0010
0000
0100
0000
0010
0000
0100
0010
0100
0000
0010
0100
0010
0000
,
1000
0100
0010
0000
0001
0010
0100
0000
,
1000
0100
0010
0001
0010
0100
1000
0000
,
1000
1000
1000
0000
0001
0001
0001
0000
,
1000
0100
0010
0001
0010
0100
1000
0000
,
0100
0010
0100
0010
0100
0010
0100
0010
,
0100
0010
0100
0000
0010
0100
0010
0000
0100
0010
0100
0000
0010
0100
0010
0000
,
0100
0010
0100
0010
0100
0010
0100
0010
0100
0010
0100
0010
0100
0000
0000
0000
,
1000
0000
0100
0000
0010
0000
0100
0000
0001
0010
0001
0000
0010
0100
0010
0000
,
0100
1000
0100
0000
0100
0010
0100
0000
0010
0000
0010
0000
0010
0000
0000
0000
,
1000
0100
0010
0001
0010
0100
1000
0000
,
0010
0001
0010
0000
0100
0010
0100
0000
0010
0100
0010
0100
0010
0000
0000
0000
,
1000
0100
1000
0100
0000
0010
0001
0010
,
0001
0010
0001
0010
1000
0100
0010
0001
,
0010
0100
1000
0100
0010
0001
0010
0100
,
1000
0100
1000
0000
0001
0010
0001
0000
1000
0100
1000
0000
0001
0010
0001
0000
,
1000
0100
1000
0100
0000
0001
0010
0001
,
0010
0001
0010
0100
0000
0000
1001
0000
,
1000
0100
0010
0001
0010
0100
1000
0100
,
0010
0001
0010
0001
0010
0001
0010
0001
0010
0001
0010
0001
0010
0000
0000
0000
,
0100
0010
0100
0010
0000
0000
1000
0001
,
1000
0001
1000
0001
0000
0000
1000
0100
,
0010
0000
0001
0000
0010
0000
0100
0000
1000
0000
0100
0000
0010
0001
0010
0000
,
0010
0100
0010
0000
0100
1000
0100
0000
0010
0001
0010
0000
0010
0000
0000
0000
,
0110
0000
0000
0000
0100
0010
0100
0010
0000
0000
0000
0000
1000
0001
1000
0001
,
0000
0000
1001
1001
1000
0001
1000
0002
,
0000
0000
0000
0000
,
0003
0000
0000
0000
;

//---------------dance-single - ----------------
#NOTES:
     dance-single:
     :
     Medium:
     10:
     0.461991,0.585674,0.343765,0.076392,0.019098,254.000000,227.000000,27.000000,6.000000,0.000000,0.000000,0.461991,0.585674,0.343765,0.076392,0.019098,254.000000,227.000000,27.000000,6.000000,0.000000,0.000000:
0000
0000
0000
0000
,
1000
0000
1000
0000
1000
0100
1000
0000
,
0001
0000
0001
0000
0001
0010
0001
0000
,
1000
0100
0000
0100
0000
1000
0000
0000
,
1000
0100
0000
0001
0000
0010
0000
0000
,
1000
0000
1000
0000
1000
0100
1000
0000
,
0001
0000
0001
0000
0001
0010
0001
0000
,
0100
0010
0000
0100
0000
0010
0000
0000
,
1000
0001
0000
1000
0000
0001
0000
0000
,
1001
0000
1000
0100
1000
0100
1000
0100
,
0000
0100
0000
0000
0110
0000
0110
0000
,
1000
0100
1000
0100
1000
0100
0000
0200
,
0000
0000
0300
0110
,
1001
0000
0001
0010
0001
0010
0001
0010
,
0000
0010
0000
0000
0110
0000
0110
0000
,
0000
0000
1000
0100
0010
0001
0010
0100
,
1000
1001
0001
1001
,
1000
0100
1000
0000
0001
0010
0001
0000
,
1001
0000
1000
0100
1000
0100
1000
0100
,
0000
0100
0000
0000
0110
0000
0110
0000
,
0001
0010
0100
1000
0100
0010
0001
0020
,
0000
0000
0000
0030
0110
0000
0110
0000
,
1000
0100
1000
0000
1001
0000
1001
0000
,
0001
0010
0001
0000
1001
0000
1001
0000
,
1000
0100
0010
0000
0110
0000
0110
0000
,
0001
0010
0100
0010
0100
1000
0001
0010
,
0100
0000
1000
0000
0100
0010
0100
0000
0010
0100
0010
0000
0100
0010
0100
0000
,
1000
0100
0010
0001
0000
0000
1000
0100
,
0010
0001
0010
0100
1000
0000
1001
0000
,
2000
0000
0000
0000
3010
0001
0010
0000
,
0110
0000
0110
0000
,
1000
0100
0010
0001
0000
0000
1000
0100
,
1000
0100
1000
0100
1000
0000
0000
0000
,
0001
0010
0100
1000
0100
0010
0100
0020
,
0000
0000
0000
0130
,
1000
0100
1000
0100
0000
0000
0001
0010
,
0001
0010
0001
0010
0001
0000
1001
0000
,
1000
0100
0010
0001
0010
0100
1000
0100
,
0020
0000
0000
0031
,
1000
0100
1000
0100
0000
0000
0001
0010
,
0001
0010
0001
0010
0000
0000
0100
0000
,
0100
0010
0100
0010
0100
0010
0100
0010
,
0100
1000
0100
0010
0001
0010
0100
0000
,
0110
0000
1001
0000
,
0110
0000
0000
0000
0100
0010
0100
0020
,
0000
0000
0000
0000
,
0030
0000
0000
0000
;

//---------------dance-single - ----------------
#NOTES:
     dance-single:
     :
     Easy:
     5:
     0.249184,0.292837,0.101856,0.012732,0.000000,137.000000,129.000000,8.000000,1.000000,0.000000,0.000000,0.249184,0.292837,0.101856,0.012732,0.000000,137.000000,129.000000,8.000000,1.000000,0.000000,0.000000:
0000
0000
0000
0000
,
1000
1000
1000
1000
,
0001
0001
0001
0001
,
1000
0000
0100
0000
,
0010
0000
0001
0000
,
0001
0001
0001
0001
,
1000
1000
1000
1000
,
0100
0000
0010
0000
,
0100
0000
0010
0000
,
1000
0000
1000
0000
,
1000
0001
1000
0001
,
1000
0000
1000
0000
,
0001
0000
0001
0000
,
0001
0000
0001
0000
,
1000
0000
1000
0000
,
0001
1000
0001
1000
,
0001
1000
0001
1000
,
1000
0000
1000
0000
,
0100
0000
0100
0000
,
0010
0000
0010
0000
,
0001
0000
0001
0000
,
0001
0001
0001
0001
,
1000
0100
1000
1000
,
0001
0010
0001
0001
,
1001
0000
0110
0000
,
1000
1000
0001
0001
,
1000
1000
0001
0001
,
1000
0000
1000
0000
,
0001
0000
0001
0000
,
1000
0100
0001
0010
,
1000
0100
0001
0010
,
0100
0000
0100
0000
,
0010
0000
0010
0000
,
0001
0000
0001
0000
,
1000
0100
0001
0100
,
1000
0000
1000
0000
,
0001
0000
0001
0000
,
1000
0100
0001
0100
,
1000
1000
0001
0001
,
0110
0000
1001
0000
,
0110
0000
1001
0000
,
1000
1000
0001
0001
,
1000
1000
0001
0001
,
0110
0000
1001
0000
,
0100
0100
0010
0010
,
0020
0000
0000
0000
,
0030
0000
0000
0000
;

//---------------dance-single - ----------------
#NOTES:
     dance-single:
     :
     Beginner:
     3:
     0.160060,0.257824,0.000000,0.000000,0.000000,88.000000,88.000000,0.000000,0.000000,0.000000,0.000000,0.160060,0.257824,0.000000,0.000000,0.000000,88.000000,88.000000,0.000000,0.000000,0.000000,0.000000:
// measure 0
0000
0000
0000
0000
,  // measure 1
1000
0000
0000
0000
,  // measure 2
0100
0000
0000
0000
,  // measure 3
0010
0000
0010
0000
,  // measure 4
0100
0000
0100
0000
,  // measure 5
0001
0000
0001
0000
,  // measure 6
1000
0000
1000
0000
,  // measure 7
0100
0000
0100
0000
,  // measure 8
0010
0000
0010
0000
,  // measure 9
0001
0000
0000
0000
,  // measure 10
0001
0000
0000
0000
,  // measure 11
1000
0000
0000
0000
,  // measure 12
1000
0000
0000
0000
,  // measure 13
0001
0000
0000
0000
,  // measure 14
0001
0000
0000
0000
,  // measure 15
1000
0000
0000
0000
,  // measure 16
1000
1000
0001
0001
,  // measure 17
1000
1000
1000
1000
,  // measure 18
1000
0000
1000
0000
,  // measure 19
0001
0000
0001
0000
,  // measure 20
1000
0000
1000
0000
,  // measure 21
0001
0000
0001
0000
,  // measure 22
0100
0000
0100
0000
,  // measure 23
0010
0000
0010
0000
,  // measure 24
0100
0000
0100
0000
,  // measure 25
0010
0010
0010
0010
,  // measure 26
0100
0100
0100
0100
,  // measure 27
0100
0000
0010
0000
,  // measure 28
0100
0000
0010
0000
,  // measure 29
1000
0000
0001
0000
,  // measure 30
1000
0000
0001
0000
,  // measure 31
0100
0000
0100
0000
,  // measure 32
0010
0000
0010
0000
,  // measure 33
0100
0000
0100
0000
,  // measure 34
0010
0010
0010
0010
,  // measure 35
0100
0000
0100
0000
,  // measure 36
0100
0000
0100
0000
,  // measure 37
0010
0000
0010
0000
,  // measure 38
0010
0000
0010
0000
,  // measure 39
0100
0000
0100
0000
,  // measure 40
1000
0000
1000
0000
,  // measure 41
0001
0000
0001
0000
,  // measure 42
1000
0000
1000
0000
,  // measure 43
1000
0000
0000
0000
,  // measure 44
1000
0000
0000
0000
,  // measure 45
1000
0000
0000
0000
;
