#VERSION:0.83;
#TITLE:Bad Boy;
#SUBTITLE:;
#ARTIST:100%;
#TITLETRANSLIT:;
#SUBTITLETRANSLIT:;
#ARTISTTRANSLIT:;
#GENRE:;
#ORIGIN:;
#CREDIT:;
#BANNER:;
#BACKGROUND:bg.png;
#PREVIEWVID:;
#JACKET:jacket.png;
#CDIMAGE:;
#DISCIMAGE:;
#LYRICSPATH:;
#CDTITLE:;
#MUSIC:Bad Boy.ogg;
#OFFSET:0.000000;
#SAMPLESTART:100.008003;
#SAMPLELENGTH:12.000000;
#SELECTABLE:YES;
#BPMS:0.000=270.000,
18.000=135.000,
82.000=270.000;
#STOPS:;
#DELAYS:;
#WARPS:;
#TIMESIGNATURES:0.000=4=4;
#TICKCOUNTS:0.000=4;
#COMBOS:0.000=1;
#SPEEDS:0.000=1.000=0.000=0;
#SCROLLS:0.000=1.000;
#FAKES:;
#LABELS:0.000=Song Start;
#BGCHANGES:;
#KEYSOUNDS:;
#ATTACKS:
;

//---------------dance-single - ----------------
#NOTEDATA:;
#CHARTNAME:;
#STEPSTYPE:dance-single;
#DESCRIPTION:;
#CHARTSTYLE:;
#DIFFICULTY:Hard;
#METER:13;
#RADARVALUES:0.732071,0.830065,0.807127,0.380720,0.053301,673.000000,567.000000,106.000000,50.000000,0.000000,0.000000,0.000000,0.000000,0.000000,0.732071,0.830065,0.807127,0.380720,0.053301,673.000000,567.000000,106.000000,50.000000,0.000000,0.000000,0.000000,0.000000,0.000000;
#CREDIT:;
#NOTES:
0000
2002
0000
0000
,
0000
0000
0000
0000
,
0000
0000
0000
0000
,
0000
0000
0000
0000
,
0000
0000
0000
0000
3003
0000
0000
0000
1001
0000
0000
0000
0010
0100
0000
0010
,
0100
0000
0000
0000
0001
0000
0100
0000
1000
0000
0000
0000
0010
0100
0000
0010
,
0100
0000
0000
0000
1000
0000
0100
0000
0001
0000
0000
0000
0100
1000
0000
1000
,
0100
0000
0000
0000
0001
0000
0100
0000
1000
0000
0000
0000
1000
0010
0000
0010
,
1000
0000
0000
0000
1000
0000
0100
0000
0010
0000
0000
0000
0001
0010
0000
0010
,
0001
0000
0000
0000
1000
0000
0100
0000
0010
0000
0000
0000
0001
0010
0000
0100
,
1000
0000
0000
0000
0100
0000
0010
0000
0100
0000
0000
0000
0001
1000
0000
1000
,
0001
0001
1000
0001
,
1000
0100
0010
0001
0010
0100
0000
0110
,
0000
1000
0100
0010
0001
0110
0000
0110
,
0000
1000
0100
1000
0100
0010
0000
0110
,
0000
0001
0010
0001
0010
0110
0000
0110
,
0000
1002
1000
1003
0000
0000
1001
0000
,
0000
2001
0001
3001
0000
0000
1001
0000
,
0000
1000
0100
0220
0000
0000
0000
0000
,
0000
0000
0000
0000
0000
0000
0000
0330
,
1000
0001
1000
0100
0010
0000
0100
0010
,
0100
0000
0100
0000
0010
0000
0100
0010
,
0100
0000
0110
0000
1001
0000
0010
0100
,
0010
0000
0110
0000
1001
0000
1000
0100
,
0010
0000
0010
0100
1000
0000
0001
0010
,
1000
1001
0110
1001
,
0100
1000
0100
0010
0001
0010
0000
0100
,
1001
0000
1001
0000
0110
0000
1000
0100
,
0010
0000
1000
0100
0010
0000
0110
0000
,
1001
0000
0220
0000
0000
0330
0001
0010
,
0100
0000
0100
0010
0100
0100
0020
0000
,
0030
0000
0110
0000
0000
0000
1000
0100
,
0010
0000
0110
0000
0110
0000
2000
0001
,
3001
0000
0200
0010
0310
0000
2000
0001
,
3001
0000
0200
0010
0310
0000
2000
0001
,
3001
0000
1000
0100
0010
0001
0010
0100
,
2001
0001
0001
0001
,
0001
0001
0001
0001
,
0001
3001
1001
0110
,
1000
0100
0010
0000
0010
0100
1000
0100
,
0020
0000
0100
0000
0130
0000
1000
0100
,
0010
0000
0010
0100
0010
0000
0010
0100
,
0010
1001
0110
1001
,
1000
0100
0010
0001
0010
0100
1000
0000
,
1002
0100
0010
0100
,
1000
0100
0010
0100
,
1000
0100
0013
0110
,
1000
0100
0010
0000
0010
0100
1000
0000
,
1000
0100
1000
0000
0100
0010
0100
0000
,
0010
0001
0010
0000
0002
0000
0023
0000
,
0230
0000
1300
0000
1000
0100
1000
0100
,
1000
0010
0100
1000
,
0100
0000
0010
0100
0010
0000
0010
0100
,
0010
0000
0010
0100
0010
0000
0110
0000
,
0110
0000
1000
0001
1000
0000
1000
0001
,
1000
0000
1000
0001
1000
0000
1001
0000
,
1001
0000
1000
0100
0001
0000
0001
0100
,
1000
0000
1000
0010
0001
0000
1001
0000
,
1001
0000
1000
0010
0001
0000
0001
0010
,
1000
0000
1000
0010
0001
0000
1001
0000
,
0110
1001
0110
1001
,
0110
0000
1000
0100
0010
0000
0010
0000
,
0001
1001
2002
0000
,
3003
0000
1000
0100
1000
0000
0010
0001
,
0010
0120
0100
0100
,
0130
0000
0210
0000
0010
0300
0020
0000
,
0100
0030
1002
0000
1000
0000
1000
0003
,
1000
1002
1000
1000
,
1003
2002
0000
0000
,
0000
0000
3003
1001
,
1000
0100
0010
0000
0001
0000
0010
0000
,
0100
0000
1000
0000
0100
0010
0000
0000
,
1000
0100
0010
0000
0001
0000
0010
0000
,
0100
0000
1000
0000
0100
0010
0000
0000
,
0000
0010
0100
0010
,
0100
0110
0000
0010
,
0100
1000
0100
0010
,
0001
1001
0000
0110
,
1000
0100
1000
0000
0100
0010
0100
0000
,
1001
0110
1001
0110
,
0001
0010
0100
0000
1000
0100
0010
0000
,
0001
0010
0100
1000
,
1000
0100
0010
0000
0010
0000
0100
0000
,
0010
0000
0100
0010
0100
0000
0100
0000
,
0010
0100
0010
0000
0010
0100
0010
0000
,
0110
0000
0100
0010
0100
0010
0100
0000
,
0220
0000
0000
0000
,
0330
0000
0110
1001
,
0110
2002
0000
3003
,
1000
0100
0010
0001
,
0010
0000
0100
0010
,
0100
0010
0100
1000
,
0100
0000
0110
0110
,
0000
0000
2000
0000
3200
0000
0320
0030
,
2002
0000
0000
0000
,
3003
0000
1000
0100
,
1000
2002
0000
3003
,
1000
0100
0010
0001
,
0010
0000
0100
1000
,
0100
0010
0001
0010
,
0100
0000
1000
0100
,
0010
0001
0010
0100
,
1000
0000
1000
0001
1000
0000
1000
0001
,
1000
0000
1000
0001
1000
0000
1001
0000
,
1001
0000
0100
0010
0100
0000
0100
0010
,
0100
0000
0100
0010
0100
0000
0110
0000
,
0110
0000
1000
0100
0001
0000
0001
0100
,
1000
0000
1000
0100
0001
0000
1001
0000
,
1001
0000
1000
0100
0010
0000
0001
0010
,
0100
1000
0100
0010
,
0001
1001
0220
0000
,
0330
0001
0010
0100
,
1000
1001
0220
0330
,
0000
0100
0010
0100
,
0010
2000
3000
0200
,
0300
0020
0030
0002
,
0003
0120
0100
0100
,
0130
0120
0100
0100
,
0130
0000
0100
1000
0100
0000
0100
0010
,
0100
0110
1001
0110
,
1001
0000
1000
0100
1000
0000
1000
0100
,
0001
0001
1001
0110
,
1001
0000
0100
0010
0100
0010
0100
0010
,
0100
0010
0100
0000
0110
0000
1001
0000
,
0110
0000
1000
0100
0001
0000
0001
0100
,
1000
0110
1001
0110
,
1001
0000
1001
0000
0000
0110
0000
0000
,
1001
0000
0000
0000
0110
0000
0000
1001
,
0000
0110
0000
0000
;

//---------------dance-single - ----------------
#NOTEDATA:;
#CHARTNAME:;
#STEPSTYPE:dance-single;
#DESCRIPTION:;
#CHARTSTYLE:;
#DIFFICULTY:Medium;
#METER:10;
#RADARVALUES:0.494936,0.732411,0.616767,0.373106,0.000000,455.000000,374.000000,81.000000,49.000000,0.000000,0.000000,0.000000,0.000000,0.000000,0.494936,0.732411,0.616767,0.373106,0.000000,455.000000,374.000000,81.000000,49.000000,0.000000,0.000000,0.000000,0.000000,0.000000;
#CREDIT:;
#NOTES:
0000
2002
0000
0000
,
0000
0000
0000
0000
,
0000
0000
0000
0000
,
0000
0000
0000
0000
,
0000
3003
1001
0010
,
0100
0000
0001
0100
1000
0000
0010
0000
,
0100
0000
1000
0100
0001
0000
0100
0000
,
0100
0000
0001
0100
1000
0000
1000
0000
,
1000
0000
1000
0100
0010
0000
0001
0000
,
0001
0000
1000
0100
0010
0000
0001
0000
,
1000
0000
0100
0010
0100
0000
0001
0000
,
0001
0001
1000
0001
,
1000
0100
0010
0000
0010
0100
0000
0000
,
0000
1000
0100
0010
0000
0000
0000
0110
,
0000
1000
0100
1000
0000
0000
0000
0110
,
0000
0001
0010
0000
0000
0000
0000
0110
,
0000
1000
1000
1000
0000
0000
1001
0000
,
0000
0001
0001
0001
0000
0000
1001
0000
,
0000
1000
0000
0220
0000
0000
0000
0000
,
0000
0000
0000
0000
0000
0000
0000
0330
,
1000
0000
1000
0100
0010
0000
0100
0000
,
0100
0100
0010
0100
,
0100
0110
1001
0010
,
0010
0110
1001
1000
,
0010
0010
1000
0001
,
1000
1001
0110
1001
,
0100
0100
0001
0000
,
1001
1001
0110
1000
,
0010
1000
0010
0110
,
1001
0000
0220
0000
0000
0330
0001
0000
,
0100
0100
0100
0020
,
0030
0110
0000
1000
,
0010
0110
0110
2000
,
3001
0200
0310
2000
,
3001
0200
0310
2000
,
3001
1000
0010
0010
,
2002
0000
0000
0000
,
0000
0000
0000
0000
,
0000
3003
1001
0110
,
1000
0010
0010
1000
,
0020
0000
0030
1000
,
0010
0010
0010
0010
,
0010
1001
0110
1001
,
1000
0010
0010
1000
,
0002
0000
0000
0000
,
0000
0000
0000
0000
,
0000
0000
0003
0110
,
1000
0010
0010
1000
,
1000
1000
0100
0100
,
0010
0010
0001
0010
,
0100
1000
1000
1000
,
1000
0010
0100
1000
,
0100
0220
0000
0000
,
0000
0000
0000
0330
,
0000
1000
0000
1000
,
0000
1000
0000
0000
,
1001
1000
0001
0001
,
1000
1000
0001
1001
,
1001
1000
0001
0001
,
1000
1000
0001
1001
,
0110
1001
0110
1001
,
0110
1000
0010
0010
,
0001
1001
2002
0000
,
3003
1000
1000
0010
,
0010
0020
0000
0000
,
0030
0000
0200
0000
0000
0300
0020
0000
,
0000
0030
0002
0000
0000
0000
0000
0003
,
1000
0002
0000
0000
,
0003
2002
0000
0000
,
0000
0000
3003
1001
,
1000
0010
0001
0010
,
0100
1000
0100
0000
,
1000
0010
0001
0010
,
0100
1000
0100
0000
,
0000
0010
0100
0010
,
0100
0110
0000
0010
,
0100
1000
0100
0010
,
0001
1001
0000
0110
,
1000
1000
0100
0100
,
1001
0110
1001
0110
,
0001
0100
1000
0010
,
0001
0010
0100
1000
,
1000
0010
0010
0100
,
0010
0200
0000
0300
,
0020
0000
0000
0030
0200
0000
0300
0000
,
0110
0000
0100
0000
,
0220
0000
0000
0000
,
0330
0000
0110
0000
,
0000
1001
0000
0000
,
1000
0100
0010
0001
,
0010
0000
0100
0010
,
0100
0010
0100
1000
,
0100
0000
0110
0000
,
0000
0000
2000
0000
3200
0000
0320
0030
,
2002
0000
0000
0000
,
3003
0000
1000
0100
,
1000
2002
0000
3003
,
1000
0100
0010
0001
,
0010
0000
0100
1000
,
0100
0010
0001
0010
,
0100
0000
1000
0100
,
0010
0001
0010
0100
,
1000
0000
1000
0000
,
1000
0000
1000
0000
,
1001
0100
0000
0100
,
0000
0100
0000
0110
,
0000
1000
0001
0001
,
1000
1000
0001
0000
,
1001
1000
0010
0001
,
0100
1000
0100
0010
,
0001
1001
0220
0000
,
0330
0001
0010
0100
,
1000
1001
0220
0330
,
0000
0100
0010
0100
,
0010
2000
3000
0200
,
0300
0020
0030
0002
,
0003
0020
0000
0000
,
0030
0020
0000
0000
,
0030
0000
0000
0000
,
0000
0010
1001
0110
,
1001
1000
0000
1000
,
0000
0001
0000
0110
,
0000
0100
0000
0100
,
0000
0100
0110
1001
,
0110
1000
0001
0001
,
1000
0110
1001
0110
,
1001
1001
0000
0000
,
1001
0000
0110
0000
,
0000
0110
0000
0000
;

//---------------dance-single - ----------------
#NOTEDATA:;
#CHARTNAME:;
#STEPSTYPE:dance-single;
#DESCRIPTION:;
#CHARTSTYLE:;
#DIFFICULTY:Easy;
#METER:6;
#RADARVALUES:0.289347,0.488274,0.403564,0.205589,0.000000,266.000000,213.000000,53.000000,27.000000,0.000000,0.000000,0.000000,0.000000,0.000000,0.289347,0.488274,0.403564,0.205589,0.000000,266.000000,213.000000,53.000000,27.000000,0.000000,0.000000,0.000000,0.000000,0.000000;
#CREDIT:;
#NOTES:
0000
2002
0000
0000
,
0000
0000
0000
0000
,
0000
0000
0000
0000
,
0000
0000
0000
0000
,
0000
3003
1001
0010
,
0100
0001
1000
0010
,
0100
1000
0001
0100
,
0100
0001
1000
1000
,
1000
1000
0010
0001
,
0001
1000
0010
0001
,
1000
0100
0100
0001
,
0001
0001
1000
0001
,
1000
0010
0010
0000
,
0000
0100
0000
0000
,
0000
0100
0000
0000
,
0000
0010
0000
0000
,
0000
1000
0000
1001
,
0000
0001
0000
1001
,
0000
1000
0000
0220
0000
0000
0000
0000
,
0000
0000
0000
0000
0000
0000
0000
0330
,
1000
1000
0010
0100
,
0000
0100
0010
0100
,
0000
0000
1001
0000
,
0010
0000
1001
0000
,
0010
0000
1000
0000
,
1000
0000
0110
0000
,
0100
0000
0001
0000
,
1001
0000
0110
0000
,
0010
0000
0000
0000
,
0000
0110
0000
0001
,
0000
0100
0000
0000
,
0000
0110
0000
1000
,
0000
0110
0000
0000
,
0001
0000
0010
0000
,
0001
0000
0010
0000
,
0001
1000
0000
0000
,
2002
0000
0000
0000
,
0000
0000
0000
0000
,
0000
3003
0000
0110
,
0000
0010
0000
1000
,
0000
0000
0000
1000
,
0000
0010
0000
0010
,
0000
1001
0000
1001
,
0000
0000
0010
0000
,
0002
0000
0000
0000
,
0000
0000
0000
0000
,
0000
0000
0003
0000
,
1000
0000
0010
0000
,
1000
0000
0100
0000
,
0010
0000
0001
0000
,
0100
0000
1000
0000
,
1000
0000
0100
0000
,
0000
0220
0000
0000
,
0000
0000
0000
0330
,
0000
1000
0000
1000
,
0000
1000
0000
0000
,
1001
0000
1000
0001
,
0000
1000
0000
0000
,
1001
0000
0001
0000
,
1000
0000
0000
1001
,
0000
1001
0000
1001
,
0000
1000
0000
0010
,
0000
1001
0000
0000
,
0000
1000
0000
0010
,
0000
0020
0000
0000
,
0030
0100
0000
0010
,
0000
0001
0000
0000
,
1000
0000
0000
0000
,
0000
2002
0000
0000
,
0000
0000
3003
0000
,
1000
0000
0001
0000
,
0100
0000
0100
0000
,
1000
0000
0000
0010
,
0000
0000
0100
0000
,
0000
0010
0000
0000
,
0000
0110
0000
0010
,
0000
1000
0000
0000
,
0000
1001
0000
0110
,
0000
1000
0000
0100
,
0000
0110
0000
0110
,
0000
0100
0000
0010
,
0000
0010
0100
0000
,
1000
0000
0010
0000
,
0010
0100
0000
0000
,
0010
0000
0100
0000
,
0110
0000
0100
0000
,
0220
0000
0000
0000
,
0330
0000
0110
0000
,
0000
1001
0000
0000
,
1000
0000
0010
0000
,
0010
0000
0100
0000
,
0100
0000
0100
0000
,
0100
0000
0110
0000
,
0000
2000
3000
0000
,
2002
0000
0000
0000
,
3003
0000
1000
0000
,
0000
2002
0000
3003
,
0000
0100
0000
0000
,
0010
0000
0100
0000
,
0100
0000
0000
0010
,
0000
0000
1000
0000
,
0010
0000
0010
0000
,
1000
0000
0000
0000
,
1000
0000
0000
0000
,
1001
0000
0000
0100
,
0000
0000
0000
0110
,
0000
1000
0000
0001
,
0000
1000
0000
0000
,
1001
0000
0010
0000
,
0100
0000
0100
0000
,
0000
0000
0220
0000
,
0330
0000
0010
0100
,
0000
1001
0000
0000
,
0000
0100
0010
0100
,
0010
2000
3000
0200
,
0300
0020
0030
0002
,
0003
0020
0000
0000
,
0030
0020
0000
0000
,
0030
0000
0000
0000
,
0000
0000
1001
0000
,
1001
0000
0000
1000
,
0000
0001
0000
0110
,
0000
0000
0000
0100
,
0000
0000
0110
0000
,
0110
0000
0001
0000
,
0000
0110
0000
0110
,
0000
1001
0000
0000
,
1001
0000
0110
0000
,
0000
0110
0000
0000
;

//---------------dance-single - ----------------
#NOTEDATA:;
#CHARTNAME:;
#STEPSTYPE:dance-single;
#DESCRIPTION:;
#CHARTSTYLE:;
#DIFFICULTY:Beginner;
#METER:4;
#RADARVALUES:0.191448,0.292964,0.289347,0.000000,0.000000,176.000000,138.000000,38.000000,0.000000,0.000000,0.000000,0.000000,0.000000,0.000000,0.191448,0.292964,0.289347,0.000000,0.000000,176.000000,138.000000,38.000000,0.000000,0.000000,0.000000,0.000000,0.000000,0.000000;
#CREDIT:;
#NOTES:
// measure 0
0000
1001
0000
0000
,  // measure 1
0000
0000
0000
0000
,  // measure 2
0000
0000
0000
0000
,  // measure 3
0000
0000
0000
0000
,  // measure 4
0000
0000
1001
0000
,  // measure 5
0000
0001
0000
0000
,  // measure 6
0100
0000
0000
0100
,  // measure 7
0000
0001
0000
1000
,  // measure 8
0000
1000
0000
0001
,  // measure 9
0000
1000
0000
0001
,  // measure 10
0000
0100
0000
0000
,  // measure 11
0001
0000
1000
0000
,  // measure 12
1000
0000
0010
0000
,  // measure 13
0000
0100
0000
0000
,  // measure 14
0000
0100
0000
0000
,  // measure 15
0000
0010
0000
0000
,  // measure 16
0000
0000
0000
1001
,  // measure 17
0000
0000
0000
1001
,  // measure 18
0000
0000
0000
0110
0000
0000
0000
0000
,  // measure 19
0000
0000
0000
0000
,  // measure 20
0000
1000
0000
0100
,  // measure 21
0000
0000
0000
0100
,  // measure 22
0000
0000
1001
0000
,  // measure 23
0000
0000
1001
0000
,  // measure 24
0000
0000
0000
0000
,  // measure 25
0000
0000
0110
0000
,  // measure 26
0000
0000
0000
0000
,  // measure 27
1001
0000
0000
0000
,  // measure 28
0010
0000
0000
0000
,  // measure 29
0000
0110
0000
0000
,  // measure 30
0000
0100
0000
0000
,  // measure 31
0000
0110
0000
0000
,  // measure 32
0000
0110
0000
0000
,  // measure 33
0001
0000
0000
0000
,  // measure 34
0001
0000
0000
0000
,  // measure 35
0001
0000
0000
0000
,  // measure 36
1001
0000
0000
0000
,  // measure 37
0000
0000
0000
0000
,  // measure 38
0000
0000
0000
0110
,  // measure 39
0000
0000
0000
1000
,  // measure 40
0000
0000
0000
1000
,  // measure 41
0000
0010
0000
0000
,  // measure 42
0000
1001
0000
0000
,  // measure 43
0000
0000
0010
0000
,  // measure 44
0001
0000
0000
0000
,  // measure 45
0000
0000
0000
0000
,  // measure 46
0000
0000
0000
0000
,  // measure 47
1000
0000
0010
0000
,  // measure 48
1000
0000
0000
0000
,  // measure 49
0000
0000
0001
0000
,  // measure 50
0000
0000
1000
0000
,  // measure 51
1000
0000
0100
0000
,  // measure 52
0000
0110
0000
0000
,  // measure 53
0000
0000
0000
0000
,  // measure 54
0000
1000
0000
0000
,  // measure 55
0000
1000
0000
0000
,  // measure 56
0001
0000
0000
0001
,  // measure 57
0000
0000
0000
0000
,  // measure 58
1001
0000
0000
0000
,  // measure 59
1000
0000
0000
0000
,  // measure 60
0000
1001
0000
0000
,  // measure 61
0000
1000
0000
0010
,  // measure 62
0000
0000
0000
0000
,  // measure 63
0000
1000
0000
0010
,  // measure 64
0000
0000
0000
0000
,  // measure 65
0000
0100
0000
0010
,  // measure 66
0000
0001
0000
0000
,  // measure 67
1000
0000
0000
0000
,  // measure 68
0000
1001
0000
0000
,  // measure 69
0000
0000
0000
0000
,  // measure 70
1000
0000
0000
0000
,  // measure 71
0100
0000
0100
0000
,  // measure 72
1000
0000
0000
0010
,  // measure 73
0000
0000
0100
0000
,  // measure 74
0000
0010
0000
0000
,  // measure 75
0000
0110
0000
0000
,  // measure 76
0000
1000
0000
0000
,  // measure 77
0000
1001
0000
0000
,  // measure 78
0000
1000
0000
0100
,  // measure 79
0000
0000
0000
0110
,  // measure 80
0000
0000
0000
0010
,  // measure 81
0000
0000
0100
0000
,  // measure 82
0000
0000
0010
0000
,  // measure 83
0000
0100
0000
0000
,  // measure 84
0000
0000
0100
0000
,  // measure 85
0000
0000
0100
0000
,  // measure 86
0110
0000
0000
0000
,  // measure 87
0000
0000
0110
0000
,  // measure 88
0000
1001
0000
0000
,  // measure 89
1000
0000
0010
0000
,  // measure 90
0010
0000
0000
0000
,  // measure 91
0100
0000
0000
0000
,  // measure 92
0100
0000
0000
0000
,  // measure 93
0000
1000
0000
0000
,  // measure 94
1001
0000
0000
0000
,  // measure 95
0000
0000
1000
0000
,  // measure 96
0000
1001
0000
0000
,  // measure 97
0000
0100
0000
0000
,  // measure 98
0010
0000
0000
0000
,  // measure 99
0100
0000
0000
0010
,  // measure 100
0000
0000
1000
0000
,  // measure 101
0010
0000
0010
0000
,  // measure 102
1000
0000
0000
0000
,  // measure 103
1000
0000
0000
0000
,  // measure 104
1001
0000
0000
0100
,  // measure 105
0000
0000
0000
0110
,  // measure 106
0000
1000
0000
0001
,  // measure 107
0000
1000
0000
0000
,  // measure 108
1001
0000
0000
0000
,  // measure 109
0100
0000
0100
0000
,  // measure 110
0000
0000
0110
0000
,  // measure 111
0000
0000
0010
0000
,  // measure 112
0000
1001
0000
0000
,  // measure 113
0000
0100
0000
0100
,  // measure 114
0000
1000
0000
0100
,  // measure 115
0000
0010
0000
0001
,  // measure 116
0000
0010
0000
0000
,  // measure 117
0000
0010
0000
0000
,  // measure 118
0000
0000
0000
0000
,  // measure 119
0000
0000
1001
0000
,  // measure 120
0000
0000
0000
1000
,  // measure 121
0000
0000
0000
0110
,  // measure 122
0000
0000
0000
0100
,  // measure 123
0000
0000
0110
0000
,  // measure 124
0000
0000
0001
0000
,  // measure 125
0000
0110
0000
0000
,  // measure 126
0000
1001
0000
0000
,  // measure 127
0000
0000
0000
0000
,  // measure 128
0000
0110
0000
0000
;
