#VERSION:0.83;
#TITLE:WITNESS;
#SUBTITLE:;
#ARTIST:Katy Perry;
#TITLETRANSLIT:;
#SUBTITLETRANSLIT:;
#ARTISTTRANSLIT:;
#GENRE:Electropop;
#ORIGIN:;
#CREDIT:SoulEdge5000;
#BANNER:WITNESS.png;
#BACKGROUND:WITNESS-bg.png;
#PREVIEWVID:;
#JACKET:WITNESS-jacket.png;
#CDIMAGE:;
#DISCIMAGE:;
#LYRICSPATH:;
#CDTITLE:;
#MUSIC:01 Witness.mp3;
#OFFSET:-0.189233;
#SAMPLESTART:79.000000;
#SAMPLELENGTH:16.000000;
#SELECTABLE:YES;
#BPMS:0.000=60.009,
48.000=119.963,
144.000=59.996;
#STOPS:;
#DELAYS:;
#WARPS:;
#TIMESIGNATURES:0.000=4=4;
#TICKCOUNTS:0.000=4;
#COMBOS:0.000=1;
#SPEEDS:0.000=1.000=0.000=0;
#SCROLLS:0.000=1.000;
#FAKES:;
#LABELS:0.000=Song Start;
#BGCHANGES:;
#KEYSOUNDS:;
#ATTACKS:
;

//---------------dance-single - ----------------
#NOTEDATA:;
#CHARTNAME:;
#STEPSTYPE:dance-single;
#DESCRIPTION:;
#CHARTSTYLE:;
#DIFFICULTY:Beginner;
#METER:1;
#RADARVALUES:0.073515,0.093206,0.010502,0.000000,0.000000,49.000000,48.000000,1.000000,0.000000,0.000000,0.000000,0.000000,0.000000,0.000000,0.073515,0.093206,0.010502,0.000000,0.000000,49.000000,48.000000,1.000000,0.000000,0.000000,0.000000,0.000000,0.000000,0.000000;
#CREDIT:;
#NOTES:
0000
0000
0000
0000
,
1000
0000
0000
0000
,
0001
0000
0000
0000
,
1000
0000
0000
0000
,
1000
0000
1000
0000
,
0001
0000
0001
0000
,
1000
0000
1000
0000
,
0001
0000
0001
0000
,
1000
0000
1000
0000
,
0001
0000
0001
0000
,
1000
0000
0000
0001
,
0000
0000
1001
0000
,
1000
0000
0000
0000
,
0000
0000
0000
0000
,
0001
0000
0000
0000
,
0000
0000
0000
0000
,
1000
0000
0000
0000
,
0000
0000
0000
0000
,
0001
0000
0000
0000
,
0000
0000
0000
0000
,
1000
0000
1000
0000
,
0001
0000
0001
0000
,
1000
0000
1000
0000
,
0001
0000
0001
0000
,
0100
0000
0100
0000
,
0010
0000
0010
0000
,
0100
0000
0100
0000
,
0100
0000
0100
0000
,
1000
0000
0000
0000
,
0001
0000
0000
0000
,
1000
0000
0000
0000
,
0001
0000
0000
0000
,
0100
0000
0000
0000
,
0010
0000
0000
0000
,
0100
0000
0100
0000
,
0010
0000
0010
0000
;

//---------------dance-single - ----------------
#NOTEDATA:;
#CHARTNAME:;
#STEPSTYPE:dance-single;
#DESCRIPTION:;
#CHARTSTYLE:;
#DIFFICULTY:Easy;
#METER:2;
#RADARVALUES:0.144029,0.205054,0.021004,0.094519,0.000000,96.000000,94.000000,2.000000,9.000000,0.000000,0.000000,0.000000,0.000000,0.000000,0.144029,0.205054,0.021004,0.094519,0.000000,96.000000,94.000000,2.000000,9.000000,0.000000,0.000000,0.000000,0.000000,0.000000;
#CREDIT:;
#NOTES:
0000
0000
0000
0000
,
2000
0000
3001
0000
,
0002
0000
1003
0000
,
2002
0000
3003
0000
,
1000
0000
1000
0000
1000
0100
1000
0000
,
0001
0000
0001
0000
0001
0100
0001
0000
,
1000
0100
0001
0100
,
2000
0000
3001
0000
,
0001
0000
0001
0000
0001
0010
0001
0000
,
0001
0000
0001
0000
0001
0100
0001
0000
,
1000
0100
0001
0001
,
0100
1000
1001
0000
,
2000
0000
0001
0000
,
0001
0000
0001
0000
,
3002
0000
1000
0000
,
1000
0000
1000
0000
,
2003
0000
0100
0000
,
0001
0000
0100
0000
,
3002
0000
1000
0000
,
0100
0000
1000
0000
,
1003
0000
1000
0000
,
0001
0100
0001
0000
,
0001
0000
0001
0000
,
1000
0100
1000
0000
,
1000
0000
1000
0000
,
0010
0001
0010
0000
,
0001
0000
0010
0000
,
0100
1000
0100
0000
,
1000
0000
1000
0000
,
0001
1000
0001
0000
,
1000
0000
1000
0000
,
0001
1000
0001
0000
,
0100
0000
0100
0000
,
0010
0100
0010
0000
,
0100
0000
0100
0000
,
0010
0100
0010
0000
;

//---------------dance-single - ----------------
#NOTEDATA:;
#CHARTNAME:;
#STEPSTYPE:dance-single;
#DESCRIPTION:;
#CHARTSTYLE:;
#DIFFICULTY:Hard;
#METER:6;
#RADARVALUES:0.339068,0.442664,0.220544,0.094519,0.199540,226.000000,205.000000,21.000000,9.000000,0.000000,0.000000,0.000000,0.000000,0.000000,0.339068,0.442664,0.220544,0.094519,0.199540,226.000000,205.000000,21.000000,9.000000,0.000000,0.000000,0.000000,0.000000,0.000000;
#CREDIT:;
#NOTES:
// measure 0
0000
0000
0000
0000
,  // measure 1
2000
0000
0000
0000
0100
0100
0100
0100
3000
0000
0100
0000
1000
0100
0010
0001
,  // measure 2
0002
1000
1003
1001
,  // measure 3
2002
0000
0000
0000
0000
0000
0000
0000
3003
0000
0000
0000
1000
0100
0010
0001
,  // measure 4
1000
0000
0000
0100
1000
0000
0000
0000
0000
0000
0000
0000
1000
0000
0000
0000
0000
0000
0100
0000
0000
0000
0000
0000
0010
0000
0000
0001
0000
0000
0010
0000
0000
0000
0000
0000
1000
0000
0000
0000
0000
0000
0100
0000
0000
0000
0000
0000
,  // measure 5
0001
0010
0001
0000
0001
0000
0010
0100
0010
0100
0010
0000
0001
0000
0001
1000
,  // measure 6
0001
0000
0000
0000
1000
0000
1000
0001
1000
0000
0000
0000
0100
0000
0010
0000
,  // measure 7
2001
0000
0100
0000
0001
0000
0100
0000
3001
0000
0000
0000
0001
0001
0001
0001
,  // measure 8
0001
0000
0000
0100
0000
0000
0010
0000
0000
0000
0000
0000
0001
0000
0000
0000
0000
0000
0001
0000
0010
0000
0000
0000
0001
0000
0000
0000
0000
0000
0010
0000
0000
0000
0000
0000
0001
0000
0000
0000
0000
0000
0010
0000
0000
0000
0000
0000
,  // measure 9
0010
0000
1000
0100
0001
0000
0001
0000
0001
0010
0100
1000
0001
0000
0100
0000
,  // measure 10
1000
0100
0010
0001
0010
0100
1000
0100
,  // measure 11
0010
0001
1000
0000
1001
0000
1001
0000
,  // measure 12
2000
0001
0001
0000
0001
0001
0000
0001
,  // measure 13
0001
0000
0001
0001
0000
0001
0001
0000
,  // measure 14
3002
0000
0000
0000
1000
1000
0000
1000
,  // measure 15
1000
0000
1000
1000
0000
1000
1000
0000
,  // measure 16
2003
0000
0000
0000
0100
0010
0000
0010
,  // measure 17
0100
0000
0100
0010
0000
0010
0100
0000
,  // measure 18
3002
0000
1000
0000
,  // measure 19
0100
0000
1000
0000
,  // measure 20
1003
0100
0000
0000
1000
0100
0000
0000
1000
0000
0100
0000
1000
0000
0000
0000
,  // measure 21
0001
0010
0000
0000
0001
0010
0000
0000
0001
0000
0010
0000
0001
0000
0000
0000
,  // measure 22
0010
0100
0000
0000
0010
0100
0000
0000
0010
0000
0100
0000
0010
0000
0000
0000
,  // measure 23
0100
0010
0000
0000
0100
0010
0000
0000
0100
0000
0010
0000
0100
0000
0000
0000
,  // measure 24
1000
0000
1000
0000
1000
0100
1000
0100
,  // measure 25
0000
1000
0000
0100
0000
0010
0000
0000
,  // measure 26
0001
0000
0001
0000
0001
0000
0001
0010
,  // measure 27
0001
0010
0000
0100
0000
1000
0000
0000
,  // measure 28
0110
0000
1001
0000
0000
0000
0000
0000
0000
1001
0000
0110
,  // measure 29
0000
0000
0000
0000
1000
0100
0001
0100
,  // measure 30
1000
0000
0101
0000
0000
0000
0000
0000
0000
0011
0000
1010
,  // measure 31
0000
0000
0010
0100
0010
0100
0010
0100
,  // measure 32
0010
0000
0000
0000
0000
0000
0000
0000
0100
0000
0000
0000
0000
0000
0000
0000
0000
0000
0000
0000
0000
0000
0000
0000
0100
0000
0000
0000
0000
0000
0000
0000
0000
0000
0000
0000
0100
0000
0000
0010
0000
0000
0100
0000
0000
0000
0000
0000
,  // measure 33
0110
0100
0010
0110
,  // measure 34
0110
0000
0000
1100
0000
0000
0110
0000
0000
0101
0000
0000
0110
0000
0000
1001
,  // measure 35
0000
0110
0000
0000
0000
0000
0000
0000
;

//---------------dance-single - ----------------
#NOTEDATA:;
#CHARTNAME:;
#STEPSTYPE:dance-single;
#DESCRIPTION:;
#CHARTSTYLE:;
#DIFFICULTY:Medium;
#METER:4;
#RADARVALUES:0.217544,0.258220,0.231046,0.178536,0.047259,145.000000,123.000000,22.000000,17.000000,0.000000,0.000000,0.000000,0.000000,0.000000,0.217544,0.258220,0.231046,0.178536,0.047259,145.000000,123.000000,22.000000,17.000000,0.000000,0.000000,0.000000,0.000000,0.000000;
#CREDIT:;
#NOTES:
0000
0000
0000
0000
,
2000
0000
0000
0000
0001
0000
0000
0000
3001
0000
0000
0000
0001
0001
0001
0000
,
0002
1000
1003
0110
,
2002
0000
3003
0000
,
1000
0100
0001
0000
1000
0100
0001
0000
,
0001
0100
1000
0000
0001
0100
1000
0000
,
2000
3001
0002
1003
,
2001
0100
3001
1001
,
0010
0100
0010
0000
0100
0010
0100
0000
,
0010
1000
0010
0000
0001
0100
0001
0000
,
1000
0100
0001
0010
,
1000
0001
1001
0000
,
2001
0000
0001
0000
,
0001
0000
0001
0000
,
3002
0000
1000
0000
,
1000
0000
1000
0000
,
2003
0000
0100
0000
,
0001
0000
0100
0000
,
3002
0000
1000
0000
,
0100
0000
1000
0000
,
1003
0000
1000
0000
1000
0000
1000
0200
,
0000
0300
0000
0000
1001
0000
0110
0000
,
0001
0000
0001
0000
0001
0000
0010
0200
,
0000
0300
0000
0000
1001
0000
0110
0000
,
1000
0000
0100
0000
1000
0000
0100
0020
,
0000
0030
0000
0000
0110
0000
0110
0000
,
0010
0000
0100
0000
0010
0000
0100
0020
,
0000
0000
0000
0030
1000
0100
1000
0000
,
1001
0000
0000
0110
0000
0000
0000
0000
0000
0000
0000
0000
1001
0000
0000
0110
,
0000
0000
0000
0000
0001
0100
0001
0000
,
0110
0000
0000
1001
0000
0000
0000
0000
0000
0000
0000
0000
0110
0000
0000
1001
,
0000
0000
0000
0000
0001
0010
0001
0000
,
1001
0000
0000
0110
0000
0000
0000
0000
0100
0000
0000
0000
0010
0000
0100
0000
,
0020
0200
0030
0300
,
0100
0000
0000
1000
0000
0000
0100
0000
0000
0001
0000
0000
0100
0000
0000
1000
,
0000
0010
0000
0000
0000
0000
0000
0000
;
