#TITLE:THE BEAUTY IS GUILTY!?;
#SUBTITLE:;
#ARTIST:EXID;
#TITLETRANSLIT:;
#SUBTITLETRANSLIT:;
#ARTISTTRANSLIT:;
#GENRE:;
#CREDIT:;
#BANNER:bn.png;
#BACKGROUND:;
#LYRICSPATH:;
#CDTITLE:;
#MUSIC:The Beauty is Guilty.ogg;
#OFFSET:-0.083000;
#SAMPLESTART:58.329811;
#SAMPLELENGTH:12.000000;
#SELECTABLE:YES;
#BPMS:0.000000=103.000000
;
#STOPS:
;
#BGCHANGES:;
#KEYSOUNDS:;
#ATTACKS:;

//---------------dance-single - ----------------
#NOTES:
     dance-single:
     :
     Hard:
     6:
     0.312448,0.362744,0.170703,0.117358,0.021338,205.000000,189.000000,16.000000,11.000000,0.000000,0.000000,0.312448,0.362744,0.170703,0.117358,0.021338,205.000000,189.000000,16.000000,11.000000,0.000000,0.000000:
0000
0000
0000
0000
,
0000
0000
0000
0000
,
0000
0000
0000
0000
,
0000
0000
0000
0000
0000
0000
0010
0010
,
0010
0000
1000
0100
1000
0100
0000
0000
,
0000
0000
0001
0010
0001
0010
0000
0000
,
0000
0000
1000
0100
1000
0100
0000
0000
,
0000
0000
0001
0010
0001
0010
0000
0000
,
0110
0000
0000
0000
1000
0100
0010
0001
,
0000
0000
0110
0000
0001
0010
0100
1000
,
0000
0000
0100
0010
0100
0010
0100
0010
,
0100
0010
0100
0010
0110
0000
0110
0000
,
0000
0000
0100
0010
0100
0010
0100
0010
,
0000
0000
1000
0100
0010
0001
0010
0100
,
0000
0000
0100
0000
0100
0000
0100
0100
0000
0000
0010
0000
0010
0000
0010
0010
,
0010
0100
1000
0200
0000
0000
0000
0000
,
0300
0000
0001
0010
0100
1000
0100
0010
,
0000
0000
0100
0001
0100
1000
0100
0001
,
0000
0000
0000
0000
0010
0000
0100
0000
1000
0000
0100
0000
0010
0001
0000
0000
,
0000
0000
0010
0100
0010
0100
0010
0100
,
0000
0000
1000
0100
1000
0100
1000
0200
,
0300
0000
0001
0010
0001
0010
0001
0020
,
0030
0000
0100
0010
0001
0010
0100
1000
,
0000
0000
1001
0000
1000
1000
0100
0100
,
0010
0000
0000
0000
0001
0000
0010
0000
0001
0000
0010
0001
0000
0000
0010
0000
,
0100
0000
0100
1000
0100
0010
0001
0010
,
0100
0000
0100
0010
0100
0010
0100
0000
,
0110
1001
0110
1001
,
1001
0000
0100
1000
0100
1000
0100
0000
,
0110
0000
0010
0001
0010
0001
0010
0000
,
0110
0000
0010
0010
0010
0010
0010
0010
,
0100
0100
0100
0100
0100
0100
0100
0000
,
0220
0000
0000
0330
,
2002
0000
0000
3003
,
0220
0000
0000
0330
,
2002
0000
0000
3003
,
0000
0000
1000
0100
1000
0100
1000
0000
,
0000
0000
0001
0010
0001
0010
0001
0000
,
0000
0000
0100
0001
0100
1000
0100
0001
,
0000
0000
0001
0010
1000
0010
0001
0010
,
0100
0000
0000
0000
;

//---------------dance-single - ----------------
#NOTES:
     dance-single:
     :
     Medium:
     4:
     0.164607,0.213379,0.096020,0.160034,0.000000,108.000000,99.000000,9.000000,15.000000,0.000000,0.000000,0.164607,0.213379,0.096020,0.160034,0.000000,108.000000,99.000000,9.000000,15.000000,0.000000,0.000000:
0000
0000
0000
0000
,
0000
0000
0000
0000
,
0000
0000
0000
0000
,
0000
0000
0000
0010
,
0010
0000
1000
0000
1000
0100
0000
0000
,
0000
0000
0001
0000
0001
0010
0000
0000
,
0000
0000
1000
0000
1000
0100
0000
0000
,
0000
0000
0001
0000
0001
0010
0000
0000
,
0110
0000
0000
0000
1000
0000
0010
0001
,
0000
0000
0110
0000
0001
0000
0100
1000
,
0000
0100
0000
0100
,
0100
0010
0100
0000
0000
0000
0110
0000
,
0000
0000
0100
0000
0000
0000
0100
0010
,
0000
0000
1000
0000
0000
0001
0010
0000
,
0000
0200
0000
0300
0000
0020
0000
0000
,
0030
0000
1000
0200
0000
0000
0000
0000
,
0300
0000
0001
0000
0000
0000
0100
0010
,
0000
0000
0100
0000
0000
0000
0100
0001
,
0000
0010
0000
0010
,
0000
0000
0010
0000
0000
0000
0010
0100
,
0000
0000
1000
0000
0000
0000
1000
0100
,
0000
0001
0000
0001
,
0000
0100
0000
0100
,
0000
0000
1001
0000
2000
3000
0200
0300
,
0010
0000
0001
0000
0001
0010
0000
0000
,
0100
0000
0000
0000
0000
0010
0001
0000
,
0100
0000
0000
0000
0000
0010
0100
0000
,
0010
0010
0010
0010
,
0000
0000
0100
0000
0000
1000
0100
0000
,
0110
0000
0010
0000
0000
0001
0010
0000
,
0100
0000
0020
0000
0000
0000
0000
0030
,
0200
0000
0000
0300
,
0220
0000
0000
0330
,
2002
0000
0000
3003
,
0220
0000
0000
0330
,
2002
0000
0000
3003
,
0000
0000
1000
0000
0000
0100
1000
0000
,
0000
0000
0001
0000
0000
0010
0001
0000
,
0000
0000
0100
0000
0000
0000
0100
0001
,
0000
0000
0001
0000
0000
0000
0000
0010
,
0100
0000
0000
0000
;

//---------------dance-single - ----------------
#NOTES:
     dance-single:
     :
     Easy:
     2:
     0.114310,0.149365,0.096020,0.117358,0.000000,75.000000,66.000000,9.000000,11.000000,0.000000,0.000000,0.114310,0.149365,0.096020,0.117358,0.000000,75.000000,66.000000,9.000000,11.000000,0.000000,0.000000:
0000
0000
0000
0000
,
0000
0000
0000
0000
,
0000
0000
0000
0000
,
0000
0000
0000
0010
,
0010
1000
1000
0000
,
0000
0001
0001
0000
,
0000
1000
1000
0000
,
0000
0001
0001
0000
,
0110
0000
1000
0000
,
0000
0110
0000
0100
,
0000
0100
0000
0100
,
0100
0100
0000
0110
,
0000
0100
0000
0100
,
0000
1000
0000
0010
,
0000
0200
0000
0300
0000
0020
0000
0000
,
0030
0000
1000
0200
0000
0000
0000
0000
,
0300
0001
0000
0100
,
0000
0100
0000
0100
,
0000
0010
0000
0010
,
0000
0010
0000
0010
,
0000
1000
0000
1000
,
0000
0001
0000
0001
,
0000
0100
0000
0100
,
0000
1001
0000
0000
,
0010
0000
0001
0000
,
0100
0000
0000
0000
,
0100
0000
0000
0100
,
0010
0000
0010
0000
,
0000
0100
0000
0000
,
0110
0000
0000
0010
,
0000
0010
0000
0000
,
0100
0000
0000
0000
,
0220
0000
0000
0330
,
2002
0000
0000
3003
,
0220
0000
0000
0330
,
2002
0000
0000
3003
,
0000
1000
0000
1000
,
0000
0001
0000
0001
,
0000
0100
0000
0100
,
0000
0001
0000
0000
,
0100
0000
0000
0000
;

//---------------dance-single - ----------------
#NOTES:
     dance-single:
     :
     Beginner:
     1:
     0.073158,0.128027,0.096020,0.000000,0.000000,48.000000,39.000000,9.000000,0.000000,0.000000,0.000000,0.073158,0.128027,0.096020,0.000000,0.000000,48.000000,39.000000,9.000000,0.000000,0.000000,0.000000:
// measure 0
0000
0000
0000
0000
,  // measure 1
0000
0000
0000
0000
,  // measure 2
0000
0000
0000
0000
,  // measure 3
0000
0000
0000
0000
,  // measure 4
0010
0000
1000
0000
,  // measure 5
0000
0001
0000
0000
,  // measure 6
0000
0000
1000
0000
,  // measure 7
0000
0000
0001
0000
,  // measure 8
0110
0000
0000
0000
,  // measure 9
0000
0110
0000
0100
,  // measure 10
0000
0100
0000
0000
,  // measure 11
0100
0000
0000
0110
,  // measure 12
0000
0000
0000
0100
,  // measure 13
0000
0000
0000
0010
,  // measure 14
0000
0000
0000
0000
,  // measure 15
0000
1000
0000
0000
,  // measure 16
0000
0001
0000
0000
,  // measure 17
0000
0100
0000
0000
,  // measure 18
0000
0000
0000
0010
,  // measure 19
0000
0000
0000
0010
,  // measure 20
0000
0000
0000
1000
,  // measure 21
0000
0000
0000
0001
,  // measure 22
0000
0000
0000
0000
,  // measure 23
0000
1001
0000
0000
,  // measure 24
0010
0000
0000
0000
,  // measure 25
0100
0000
0000
0000
,  // measure 26
0100
0000
0000
0000
,  // measure 27
0010
0000
0000
0000
,  // measure 28
0000
0100
0000
0000
,  // measure 29
0110
0000
0000
0010
,  // measure 30
0000
0010
0000
0000
,  // measure 31
0100
0000
0000
0000
,  // measure 32
0110
0000
0000
0000
,  // measure 33
1001
0000
0000
0000
,  // measure 34
0110
0000
0000
0000
,  // measure 35
1001
0000
0000
0000
,  // measure 36
0000
1000
0000
0000
,  // measure 37
0000
0001
0000
0000
,  // measure 38
0000
0100
0000
0000
,  // measure 39
0000
0001
0000
0000
,  // measure 40
0100
0000
0000
0000
;
