#TITLE:SANDATA;
#SUBTITLE:;
#ARTIST:Sarah Geronimo;
#TITLETRANSLIT:;
#SUBTITLETRANSLIT:;
#ARTISTTRANSLIT:;
#GENRE:;
#CREDIT:;
#BANNER:;
#BACKGROUND:;
#LYRICSPATH:;
#CDTITLE:;
#MUSIC:Sandata.ogg;
#OFFSET:-0.181000;
#SAMPLESTART:35.894135;
#SAMPLELENGTH:12.000000;
#SELECTABLE:YES;
#BPMS:0.000000=167.979004
;
#STOPS:
;
#BGCHANGES:;
#KEYSOUNDS:;
#ATTACKS:;

//---------------dance-single - ----------------
#NOTES:
     dance-single:
     :
     Hard:
     5:
     0.309912,0.552647,0.363583,0.581734,0.000000,179.000000,149.000000,30.000000,48.000000,0.000000,0.000000,0.309912,0.552647,0.363583,0.581734,0.000000,179.000000,149.000000,30.000000,48.000000,0.000000,0.000000:
0000
0000
0000
0000
,
0000
0000
0000
0000
,
0000
0000
0000
0000
,
0000
0000
0000
0000
,
2000
3200
0320
0032
,
2003
3200
0320
0032
,
0003
2000
3002
0003
,
0110
0000
0000
0110
0000
0000
0110
0000
,
2000
3200
0320
0032
,
0023
0230
2300
3000
,
2000
3200
0320
0032
,
0023
0230
2300
3200
,
0320
0030
0020
0030
,
0020
0030
0020
0030
,
0020
0030
0020
0030
,
0110
0000
0000
0110
0000
0000
0110
0000
,
0000
0000
2000
3000
,
2000
3000
2000
3000
,
2000
3200
0320
0032
,
0023
0230
2300
3000
,
1000
0000
1000
0100
0000
1000
0100
0000
,
1000
0100
0000
1000
0100
0000
0000
0000
,
0110
0000
0001
0010
0000
0001
0010
0000
,
0001
0010
0000
0001
0000
0001
0000
0000
,
1000
0000
1001
0000
,
0001
0000
1001
0000
,
1000
0000
0110
0000
,
0001
0000
0110
0000
,
1000
0000
0100
1000
0000
0100
1000
0000
,
0100
1000
0000
0100
1000
0000
0010
0001
,
0010
0100
1000
0100
0010
0001
0010
0100
,
0000
0110
0000
0110
0000
0110
0000
0000
,
0100
0000
0110
0000
,
0010
0000
0110
0000
,
0100
0000
1100
0000
,
0100
0000
0110
0000
,
0010
0000
0001
0010
0000
0001
0010
0000
,
0001
0010
0000
0001
0010
0000
0000
0000
,
0110
0000
1001
0000
,
0110
0000
1001
0000
,
0220
0000
0000
0000
,
0330
0000
1000
0100
,
1000
0000
0000
1000
0000
0000
1000
0000
,
0100
0000
0010
0000
0001
0010
0001
0010
,
0100
0000
0000
0010
0000
0000
0200
0000
,
0000
0000
0300
0000
,
1000
0000
1001
0000
,
0001
0000
1001
0000
,
1000
0000
1001
0000
,
0001
0000
1001
0000
,
1000
0000
0100
0000
,
0010
0000
0001
0000
,
0010
0000
0100
0000
,
1000
0000
1001
0000
,
2002
0000
0000
0000
,
3003
0000
0000
0000
,
0220
0000
0000
0000
,
0330
0000
0000
0000
;

//---------------dance-single - ----------------
#NOTES:
     dance-single:
     :
     Medium:
     3:
     0.207762,0.276323,0.084836,0.290867,0.000000,120.000000,113.000000,7.000000,24.000000,0.000000,0.000000,0.207762,0.276323,0.084836,0.290867,0.000000,120.000000,113.000000,7.000000,24.000000,0.000000,0.000000:
0000
0000
0000
0000
,
0000
0000
0000
0000
,
0000
0000
0000
0000
,
0000
0000
0000
0000
,
2000
3000
2000
3000
,
0002
0003
0002
0003
,
2000
3000
2000
3000
,
1000
0000
0000
1000
0000
0000
1000
0000
,
0020
0030
0020
0030
,
0200
0300
0200
0300
,
0020
0030
0020
0030
,
0200
0300
0200
0300
,
2000
3000
2000
3000
,
0200
0300
0200
0300
,
0020
0030
0020
0030
,
0001
0000
0000
0001
0000
0000
0001
0000
,
1000
0000
1000
0000
,
0001
0000
0001
0000
,
0010
0000
0010
0000
,
0100
0000
0100
0000
,
1000
1000
1000
0000
,
0001
0001
0001
0000
,
1000
0100
1000
0000
,
0001
0010
0001
0000
,
0010
0000
1000
0000
,
0100
0000
0001
0000
,
0010
0000
1000
0000
,
0100
0000
0001
0000
,
0010
0010
0010
0000
,
0100
0100
0100
0000
,
0010
0010
0010
0000
,
0100
0100
0100
0000
,
1000
0000
1100
0000
,
0100
0000
0110
0000
,
0010
0000
0011
0000
,
0010
0000
0110
0000
,
0100
0100
0100
0000
,
0010
0010
0010
0000
,
0100
0100
0100
0000
,
0010
0010
0010
0000
,
0220
0000
0000
0000
,
0330
0000
0000
0000
,
1000
0000
0000
1000
0000
0000
1000
0000
,
0000
0000
0110
0000
,
0001
0000
0000
0001
0000
0000
0001
0000
,
0000
0000
0110
0000
,
1000
0000
0100
0000
,
0001
0000
0100
0000
,
1000
0000
0100
0000
,
0001
0000
0100
0000
,
1000
0000
0010
0000
,
0001
0000
0100
0000
,
1000
0000
0010
0000
,
0001
0000
0100
0000
,
0200
0000
0000
0000
,
0300
0000
0000
0000
,
0020
0000
0000
0000
,
0030
0000
0000
0000
;

//---------------dance-single - ----------------
#NOTES:
     dance-single:
     :
     Easy:
     2:
     0.147165,0.241783,0.048478,0.266628,0.000000,85.000000,81.000000,4.000000,22.000000,0.000000,0.000000,0.147165,0.241783,0.048478,0.266628,0.000000,85.000000,81.000000,4.000000,22.000000,0.000000,0.000000:
0000
0000
0000
0000
,
0000
0000
0000
0000
,
0000
0000
0000
0000
,
0000
0000
0000
0000
,
2000
3000
0000
0000
,
0002
0003
0000
0000
,
2000
3000
0000
0000
,
1000
0000
0000
1000
,
0020
0030
0000
0000
,
0200
0300
0000
0000
,
0020
0030
0000
0000
,
0200
0300
0000
0000
,
2000
3000
0000
0000
,
0200
0300
0000
0000
,
0020
0030
0000
0000
,
0001
0000
0000
0001
,
1000
0000
1000
0000
,
0001
0000
0001
0000
,
0010
0000
0010
0000
,
0100
0000
0100
0000
,
1000
1000
1000
0000
,
0001
0001
0001
0000
,
1000
0000
1000
0000
,
0001
0000
0001
0000
,
0010
0000
1000
0000
,
0100
0000
0001
0000
,
0010
0000
1000
0000
,
0100
0000
0001
0000
,
0020
0000
0030
0000
,
0200
0000
0300
0000
,
0020
0000
0030
0000
,
0200
0000
0300
0000
,
1000
0000
1000
0000
,
0100
0000
0100
0000
,
0010
0000
0010
0000
,
0010
0000
0110
0000
,
0200
0000
0300
0000
,
0020
0000
0030
0000
,
0200
0000
0300
0000
,
0020
0000
0030
0000
,
0220
0000
0000
0000
,
0330
0000
0000
0000
,
1000
0000
0000
1000
,
0000
0000
0110
0000
,
0001
0000
0000
0001
,
0000
0000
0110
0000
,
1000
0000
0100
0000
,
0001
0000
0100
0000
,
1000
0000
0100
0000
,
0001
0000
0100
0000
,
1000
0000
0010
0000
,
0001
0000
0100
0000
,
1000
0000
0010
0000
,
0001
0000
0100
0000
,
0200
0000
0000
0000
,
0300
0000
0000
0000
,
0020
0000
0000
0000
,
0030
0000
0000
0000
;

//---------------dance-single - ----------------
#NOTES:
     dance-single:
     :
     Beginner:
     2:
     0.090030,0.135738,0.036358,0.000000,0.000000,52.000000,49.000000,3.000000,0.000000,0.000000,0.000000,0.090030,0.135738,0.036358,0.000000,0.000000,52.000000,49.000000,3.000000,0.000000,0.000000,0.000000:
// measure 0
0000
0000
0000
0000
,  // measure 1
0000
0000
0000
0000
,  // measure 2
0000
0000
0000
0000
,  // measure 3
0000
0000
0000
0000
,  // measure 4
1000
0000
0000
0000
,  // measure 5
0001
0000
0000
0000
,  // measure 6
1000
0000
0000
0000
,  // measure 7
1000
0000
0000
0000
,  // measure 8
0010
0000
0000
0000
,  // measure 9
0100
0000
0000
0000
,  // measure 10
0010
0000
0000
0000
,  // measure 11
0100
0000
0000
0000
,  // measure 12
1000
0000
0000
0000
,  // measure 13
0100
0000
0000
0000
,  // measure 14
0010
0000
0000
0000
,  // measure 15
0001
0000
0000
0000
,  // measure 16
1000
0000
0000
0000
,  // measure 17
0001
0000
0000
0000
,  // measure 18
0010
0000
0000
0000
,  // measure 19
0100
0000
0000
0000
,  // measure 20
1000
0000
0000
0000
,  // measure 21
0001
0000
0000
0000
,  // measure 22
1000
0000
0000
0000
,  // measure 23
0001
0000
0000
0000
,  // measure 24
0010
0000
0000
0000
,  // measure 25
0100
0000
0000
0000
,  // measure 26
0010
0000
0000
0000
,  // measure 27
0100
0000
0000
0000
,  // measure 28
0010
0000
0000
0000
,  // measure 29
0100
0000
0000
0000
,  // measure 30
0010
0000
0000
0000
,  // measure 31
0100
0000
0000
0000
,  // measure 32
1000
0000
0000
0000
,  // measure 33
0100
0000
0000
0000
,  // measure 34
0010
0000
0000
0000
,  // measure 35
0010
0000
0000
0000
,  // measure 36
0100
0000
0000
0000
,  // measure 37
0010
0000
0000
0000
,  // measure 38
0100
0000
0000
0000
,  // measure 39
0010
0000
0000
0000
,  // measure 40
0110
0000
0000
0000
,  // measure 41
0000
0000
0000
0000
,  // measure 42
1000
0000
0000
0000
,  // measure 43
0000
0000
0110
0000
,  // measure 44
0000
0000
0000
0000
,  // measure 45
0000
0000
0110
0000
,  // measure 46
0000
0000
0000
0000
,  // measure 47
0001
0000
0000
0000
,  // measure 48
1000
0000
0000
0000
,  // measure 49
0001
0000
0000
0000
,  // measure 50
1000
0000
0000
0000
,  // measure 51
0001
0000
0000
0000
,  // measure 52
1000
0000
0000
0000
,  // measure 53
0001
0000
0000
0000
,  // measure 54
0100
0000
0000
0000
,  // measure 55
0000
0000
0000
0000
,  // measure 56
0010
0000
0000
0000
;
