#TITLE:Make Me Ah;
#SUBTITLE:;
#ARTIST:BP Rania;
#TITLETRANSLIT:;
#SUBTITLETRANSLIT:;
#ARTISTTRANSLIT:;
#GENRE:;
#CREDIT:;
#BANNER:;
#BACKGROUND:;
#LYRICSPATH:;
#CDTITLE:;
#MUSIC:Make Me Ah.ogg;
#OFFSET:-0.234000;
#SAMPLESTART:52.500000;
#SAMPLELENGTH:12.000000;
#SELECTABLE:YES;
#BPMS:0.000000=200.000000
;
#STOPS:
;
#BGCHANGES:;
#KEYSOUNDS:;
#ATTACKS:;

//---------------dance-single - ----------------
#NOTES:
     dance-single:
     :
     Hard:
     7:
     0.458929,0.575680,0.346950,0.102800,0.000000,250.000000,223.000000,27.000000,8.000000,0.000000,0.000000,0.458929,0.575680,0.346950,0.102800,0.000000,250.000000,223.000000,27.000000,8.000000,0.000000,0.000000:
0000
0000
0000
0000
,
0000
0000
0000
0000
,
0000
0000
0000
0000
,
0000
0000
0000
0000
,
0000
0000
0000
0000
0000
0000
0001
0010
,
1000
0100
0010
0001
0010
0100
1000
0000
,
0010
0000
0010
0000
1000
0100
0010
0001
,
0010
0100
0010
0100
0100
0000
0100
0000
,
0100
0000
0000
0000
0010
0000
0010
0001
,
0010
0100
0010
0001
0010
0000
0100
0000
,
0010
0000
0100
0000
0100
1000
0100
0010
,
0001
0010
0100
0000
0100
0000
0100
0000
,
0110
0000
0100
0010
,
0100
0010
0100
0000
,
0100
0010
0100
0010
,
1000
0001
1000
0000
,
0001
0000
0000
0000
1000
0010
0100
0000
,
0100
0000
0010
0001
0010
0000
0000
0000
,
0100
0000
0010
0000
0100
0100
0010
0010
,
0100
0100
0010
0010
0010
0000
0000
0000
,
0100
0010
0100
0010
1000
0000
1000
0000
,
0000
1001
0000
1000
,
1000
0100
0010
0000
0110
0000
0110
0000
,
0000
0110
0000
1000
,
1000
0100
0010
0000
0110
0000
0110
0000
,
0000
0110
0000
0001
,
0001
0010
0100
0000
0110
0000
0110
0000
,
0000
0110
0000
1000
,
1000
0100
0010
0001
0010
0000
0010
0010
,
0000
0000
0100
0000
0100
0000
0100
0100
,
0000
0000
1000
0000
0100
0000
0100
1000
,
0000
0000
0001
0000
0010
0000
0010
0001
,
0000
0000
1000
0000
0100
0000
0100
0100
,
0000
0000
0001
0000
0010
0000
0010
0010
,
0000
0000
0000
0000
0100
0000
0100
1000
,
0000
0000
0000
0110
,
0110
0000
0200
0000
,
0302
0000
0203
0000
,
0320
0000
1030
1000
,
0100
0000
0100
0000
0010
0001
0010
0000
,
0001
0010
0001
0000
0200
0000
0000
0000
,
0320
0000
0230
0000
,
0320
0000
0130
0000
,
0000
0000
0000
0010
,
0100
0010
0110
0000
,
0110
0000
0110
0110
,
0000
1001
0000
1000
,
0100
0001
0010
0100
,
0000
0000
0100
0000
,
0100
0000
0001
0010
,
0110
0110
0000
1000
,
0100
0000
0010
0000
0001
0010
0001
0000
,
0001
1000
0001
0000
0100
0010
0100
0000
,
0010
0100
0010
0000
0100
0000
0100
0000
,
0100
0000
0010
0001
0010
0000
0010
1000
,
0010
0000
0010
0001
0010
0000
0010
1000
,
0010
0000
0110
0000
,
0110
0000
0110
0110
,
0000
0110
0000
1000
,
1000
1000
1000
0100
,
0010
0000
0001
0010
,
0100
1000
0100
0010
,
0100
0000
0000
0000
,
0110
0000
0000
0000
,
0110
0000
0000
0000
;

//---------------dance-single - ----------------
#NOTES:
     dance-single:
     :
     Medium:
     6:
     0.378157,0.452320,0.346950,0.102800,0.000000,206.000000,179.000000,27.000000,8.000000,0.000000,0.000000,0.378157,0.452320,0.346950,0.102800,0.000000,206.000000,179.000000,27.000000,8.000000,0.000000,0.000000:
0000
0000
0000
0000
,
0000
0000
0000
0000
,
0000
0000
0000
0000
,
0000
0000
0000
0000
,
0000
0000
0000
0001
,
1000
0010
0010
1000
,
0010
0010
1000
0010
,
0010
0010
0100
0100
,
0100
0000
0010
0010
,
0010
0010
0010
0100
,
0010
0100
0100
0100
,
0001
0100
0100
0100
,
0110
0000
0100
0010
,
0100
0010
0100
0000
,
0100
0010
0100
0010
,
1000
0001
1000
0000
,
0001
0000
1000
0100
,
0100
0010
0010
0000
,
0100
0010
0100
0010
,
0100
0010
0010
0000
,
0100
0100
1000
1000
,
0000
1001
0000
1000
,
1000
0010
0110
0110
,
0000
0110
0000
1000
,
1000
0010
0110
0110
,
0000
0110
0000
0001
,
0001
0100
0110
0110
,
0000
0110
0000
1000
,
1000
0010
0010
0010
,
0000
0100
0100
0100
,
0000
1000
0100
0100
,
0000
0001
0010
0010
,
0000
1000
0100
0100
,
0000
0001
0010
0010
,
0000
0000
0100
0100
,
0000
0000
0000
0110
,
0110
0000
0200
0000
,
0302
0000
0203
0000
,
0320
0000
1030
1000
,
0100
0100
0010
0010
,
0001
0001
0200
0000
,
0320
0000
0230
0000
,
0320
0000
0130
0000
,
0000
0000
0000
0010
,
0100
0010
0110
0000
,
0110
0000
0110
0110
,
0000
1001
0000
1000
,
0100
0001
0010
0100
,
0000
0000
0100
0000
,
0100
0000
0001
0010
,
0110
0110
0000
1000
,
0100
0010
0001
0001
,
0001
0001
0100
0100
,
0010
0010
0100
0100
,
0100
0010
0010
0010
,
0010
0010
0010
0010
,
0010
0000
0110
0000
,
0110
0000
0110
0110
,
0000
0110
0000
1000
,
1000
1000
1000
0100
,
0010
0000
0001
0010
,
0100
1000
0100
0010
,
0100
0000
0000
0000
,
0110
0000
0000
0000
,
0110
0000
0000
0000
;

//---------------dance-single - ----------------
#NOTES:
     dance-single:
     :
     Easy:
     3:
     0.231300,0.328960,0.205600,0.077100,0.000000,126.000000,110.000000,16.000000,6.000000,0.000000,0.000000,0.231300,0.328960,0.205600,0.077100,0.000000,126.000000,110.000000,16.000000,6.000000,0.000000,0.000000:
0000
0000
0000
0000
,
0000
0000
0000
0000
,
0000
0000
0000
0000
,
0000
0000
0000
0000
,
0000
0000
0000
0001
,
0000
0010
0000
1000
,
0000
0010
0000
0010
,
0000
0010
0000
0100
,
0000
0000
0010
0000
,
0010
0000
0010
0100
,
0010
0000
0100
0000
,
0001
0000
0100
0000
,
0110
0000
0100
0000
,
0100
0000
0100
0000
,
0100
0000
0100
0000
,
1000
0000
1000
0000
,
0001
0000
1000
0000
,
0100
0000
0010
0000
,
0100
0000
0100
0000
,
0100
0000
0010
0000
,
0100
0000
0000
1000
,
0000
1001
0000
1000
,
0000
0010
0010
0010
,
0000
0110
0000
0000
,
1000
0000
0110
0000
,
0000
0110
0000
0001
,
0000
0000
0110
0000
,
0000
0110
0000
1000
,
0000
0000
0010
0000
,
0000
0000
0100
0000
,
0000
1000
0000
0100
,
0000
0001
0000
0010
,
0000
1000
0000
0100
,
0000
0001
0000
0010
,
0000
0000
0000
0100
,
0000
0000
0000
0000
,
0110
0000
0200
0000
,
0300
0000
0200
0000
,
0300
0000
1000
0000
,
0100
0000
0010
0000
,
0001
0000
0200
0000
,
0320
0000
0230
0000
,
0320
0000
0130
0000
,
0000
0000
0000
0010
,
0000
0000
0110
0000
,
0000
0000
0000
0110
,
0000
1001
0000
1000
,
0000
0001
0000
0100
,
0000
0000
0100
0000
,
0100
0000
0001
0000
,
0110
0000
0000
1000
,
0000
0010
0000
0001
,
0000
0001
0100
0000
,
0010
0000
0100
0100
,
0000
0010
0000
0010
,
0010
0000
0010
0010
,
0010
0000
0110
0000
,
0000
0000
0010
0010
,
0000
0110
0000
1000
,
1000
1000
1000
0100
,
0010
0000
0001
0000
,
0100
0000
0100
0000
,
0100
0000
0000
0000
,
0110
0000
0000
0000
,
0110
0000
0000
0000
;

//---------------dance-single - ----------------
#NOTES:
     dance-single:
     :
     Beginner:
     2:
     0.137679,0.205600,0.077100,0.000000,0.000000,75.000000,69.000000,6.000000,0.000000,0.000000,0.000000,0.137679,0.205600,0.077100,0.000000,0.000000,75.000000,69.000000,6.000000,0.000000,0.000000,0.000000:
// measure 0
0000
0000
0000
0000
,  // measure 1
0000
0000
0000
0000
,  // measure 2
0000
0000
0000
0000
,  // measure 3
0000
0000
0000
0000
,  // measure 4
0000
0000
0000
0001
,  // measure 5
0000
0000
0000
1000
,  // measure 6
0000
0010
0000
0000
,  // measure 7
0000
0010
0000
0100
,  // measure 8
0000
0000
0010
0000
,  // measure 9
0000
0000
0010
0000
,  // measure 10
0010
0000
0100
0000
,  // measure 11
0000
0000
0100
0000
,  // measure 12
0100
0000
0100
0000
,  // measure 13
0000
0000
0100
0000
,  // measure 14
0000
0000
0100
0000
,  // measure 15
0000
0000
1000
0000
,  // measure 16
0000
0000
1000
0000
,  // measure 17
0000
0000
0010
0000
,  // measure 18
0000
0000
0000
0000
,  // measure 19
0100
0000
0000
0000
,  // measure 20
0100
0000
0000
1000
,  // measure 21
0000
0000
0000
1000
,  // measure 22
0000
0000
0000
0010
,  // measure 23
0000
0100
0000
0000
,  // measure 24
1000
0000
0010
0000
,  // measure 25
0000
0010
0000
0001
,  // measure 26
0000
0000
0100
0000
,  // measure 27
0000
0100
0000
1000
,  // measure 28
0000
0000
0010
0000
,  // measure 29
0000
0000
0100
0000
,  // measure 30
0000
1000
0000
0000
,  // measure 31
0000
0001
0000
0000
,  // measure 32
0000
1000
0000
0000
,  // measure 33
0000
0001
0000
0000
,  // measure 34
0000
0000
0000
0100
,  // measure 35
0000
0000
0000
0000
,  // measure 36
0110
0000
0100
0000
,  // measure 37
0000
0000
0100
0000
,  // measure 38
0000
0000
1000
0000
,  // measure 39
0000
0000
0000
0000
,  // measure 40
0001
0000
0100
0000
,  // measure 41
0000
0000
0100
0000
,  // measure 42
0000
0000
0100
0000
,  // measure 43
0000
0000
0000
0010
,  // measure 44
0000
0000
0100
0000
,  // measure 45
0000
0000
0000
0100
,  // measure 46
0000
0000
0000
1000
,  // measure 47
0000
0000
0000
0100
,  // measure 48
0000
0000
0000
0000
,  // measure 49
0100
0000
0000
0000
,  // measure 50
0110
0000
0000
1000
,  // measure 51
0000
0000
0000
0001
,  // measure 52
0000
0000
0100
0000
,  // measure 53
0000
0000
0000
0100
,  // measure 54
0000
0000
0000
0010
,  // measure 55
0000
0000
0000
0010
,  // measure 56
0000
0000
0110
0000
,  // measure 57
0000
0000
0010
0000
,  // measure 58
0000
0110
0000
0000
,  // measure 59
1000
0000
1000
0000
,  // measure 60
0000
0000
0001
0000
,  // measure 61
0100
0000
0100
0000
,  // measure 62
0100
0000
0000
0000
,  // measure 63
0110
0000
0000
0000
,  // measure 64
0110
0000
0000
0000
;
