#VERSION:0.83;
#TITLE:ラブ・ドラマティック;
#SUBTITLE:;
#ARTIST:鈴木雅之 (feat. 六花伊原);
#TITLETRANSLIT:LOVE DRAMATIC;
#SUBTITLETRANSLIT:;
#ARTISTTRANSLIT:Masayuki Suzuki (feat. Ihara Rikka);
#GENRE:;
#ORIGIN:;
#CREDIT:;
#BANNER:bn.png;
#BACKGROUND:bg.png;
#PREVIEWVID:;
#JACKET:jacket.png;
#CDIMAGE:;
#DISCIMAGE:;
#LYRICSPATH:;
#CDTITLE:;
#MUSIC:Love is War.ogg;
#OFFSET:-0.050000;
#SAMPLESTART:2.800000;
#SAMPLELENGTH:12.000000;
#SELECTABLE:YES;
#BPMS:0.000=128.000,
27.500=129.500,
102.500=128.000,
142.000=129.500;
#STOPS:;
#DELAYS:;
#WARPS:;
#TIMESIGNATURES:0.000=4=4;
#TICKCOUNTS:0.000=4;
#COMBOS:0.000=1;
#SPEEDS:0.000=1.000=0.000=0;
#SCROLLS:0.000=1.000;
#FAKES:;
#LABELS:0.000=Song Start;
#BGCHANGES:0.000=Love is War.avi=1.000=0=0=0=StretchNoLoop==CrossFade_Fastest==,
99999=-nosongbg-=1.000=0=0=0 // don't automatically add -songbackground-
;
#KEYSOUNDS:;
#ATTACKS:
;

//---------------dance-single - ----------------
#NOTEDATA:;
#CHARTNAME:;
#STEPSTYPE:dance-single;
#DESCRIPTION:;
#CHARTSTYLE:;
#DIFFICULTY:Hard;
#METER:6;
#RADARVALUES:0.382830,0.398649,0.232545,0.077515,0.077515,242.000000,221.000000,21.000000,7.000000,0.000000,0.000000,0.000000,0.000000,0.000000,0.382830,0.398649,0.232545,0.077515,0.077515,242.000000,221.000000,21.000000,7.000000,0.000000,0.000000,0.000000,0.000000,0.000000;
#CREDIT:;
#NOTES:
0000
0000
0000
0000
,
0000
0000
0000
0000
,
1000
0000
1000
1000
0100
0000
0010
0001
,
0010
0001
0000
0001
0000
0000
0000
1000
,
1000
1000
0000
0001
0001
0001
0000
1000
,
0100
0010
0001
0010
0100
1000
0000
1000
,
1000
1000
0000
0001
0001
0001
0000
1000
,
0100
0010
0001
0010
0100
1000
0000
1000
,
1000
1000
0000
0001
0001
0001
0000
1000
,
1000
2002
0000
0000
0000
0000
0000
0000
,
3003
1000
1001
0001
,
1001
0000
1001
1000
,
1000
0100
0000
0100
0000
0000
0010
0100
,
1000
0100
0000
0000
0010
0100
0000
0000
,
0010
0100
0000
0000
0010
0200
0000
0000
,
0300
0100
0110
0010
,
0010
0001
0000
0001
0000
0000
0100
0010
,
0100
0010
0000
0000
0100
0010
0000
0000
,
0100
0010
0000
0000
0100
0010
0000
1000
,
0100
0000
2000
0000
0000
0000
0000
0000
0000
0000
0000
0000
0001
0000
0000
0001
,
3000
0000
0001
0000
0000
0001
0000
0000
0001
0000
0000
0001
0000
0000
0000
0010
,
0000
0100
0000
0020
0000
0000
0000
0000
0000
0000
0000
0000
0030
0100
0000
0000
,
0010
0000
0000
0000
0100
0000
0000
0100
0000
0000
0100
0000
0000
0000
0000
0000
,
0110
0000
0000
0000
1000
0000
0000
1000
0000
0000
1000
0000
0000
0000
0000
0000
,
1001
0000
0001
0001
0001
0001
0001
0000
,
1001
0000
1000
0000
1000
0000
0000
1000
0000
0000
0100
0000
0001
0000
0000
0001
,
0000
0000
0001
0000
1000
0000
0000
1000
0000
0000
1000
0000
0000
1000
0000
0000
,
1000
0000
0000
1000
0000
0000
0010
0000
0000
0000
1001
0000
0000
0000
0000
0000
,
0110
0000
0000
1001
0000
0000
0110
0000
,
0110
0000
0110
0110
0000
0010
0010
0000
,
0010
0000
0010
0010
0010
0000
1000
0100
,
0010
0100
1000
0100
0000
0000
0001
0010
,
0100
0010
0000
0010
0100
0010
0000
0010
,
0001
0010
0000
0010
0000
0010
0000
0110
,
0000
0110
0000
0110
0000
0000
0000
1001
,
0000
1001
0000
1001
0000
0000
0100
1000
,
0100
1000
0000
0001
0010
0001
0000
1000
,
0100
0010
0000
0100
0000
0100
0000
1000
,
1000
1000
0000
0100
0100
0100
0000
0010
,
0010
0010
0000
0000
0010
0010
0000
1000
,
0100
1000
0000
0001
0010
0001
0000
1000
,
0100
0010
0000
0010
0000
0010
0000
1000
,
1000
1000
0000
0100
0100
0100
0000
0010
,
0001
0010
0000
0010
0000
0010
0000
0100
,
0100
0100
0000
0010
0010
0010
0000
0100
,
0100
0200
0000
0000
0000
0000
0000
0010
,
0310
0010
0000
0100
0100
0100
0000
0010
,
0010
0020
0000
0000
0000
0000
0000
0000
,
0030
0000
0000
0000
;

//---------------dance-single - ----------------
#NOTEDATA:;
#CHARTNAME:;
#STEPSTYPE:dance-single;
#DESCRIPTION:;
#CHARTSTYLE:;
#DIFFICULTY:Medium;
#METER:4;
#RADARVALUES:0.211980,0.265766,0.077515,0.321134,0.000000,134.000000,127.000000,7.000000,29.000000,0.000000,0.000000,0.000000,0.000000,0.000000,0.211980,0.265766,0.077515,0.321134,0.000000,134.000000,127.000000,7.000000,29.000000,0.000000,0.000000,0.000000,0.000000,0.000000;
#CREDIT:;
#NOTES:
0000
0000
0000
0000
,
0000
0000
0000
0000
,
1000
0000
1000
1000
0000
0000
0000
2000
,
0000
0000
0000
3001
0000
0000
0000
2000
,
0000
3000
0000
0002
0000
0003
0000
1000
,
0100
0010
0000
0010
0000
0010
0000
2000
,
0000
3000
0000
0002
0000
0003
0000
1000
,
0100
0010
0000
0010
0000
0010
0000
2000
,
0000
3000
0000
0002
0000
0003
0000
1000
,
0000
2002
0000
0000
0000
0000
0000
0000
,
3003
1000
1001
0001
,
1001
0000
1001
0000
,
1000
0000
1000
0000
,
1000
0100
0000
0000
0010
0000
0000
0000
,
0010
0000
0000
0000
0010
0200
0000
0000
,
0300
0100
0000
0010
,
0010
0000
0010
0000
,
0100
0010
0000
0000
0100
0010
0000
0000
,
0100
0010
0000
0000
0100
0010
0000
1000
,
0100
2000
0000
0000
0000
0000
0001
0000
,
3000
0000
0001
0000
,
0020
0000
0000
0030
,
0010
0000
0200
0000
0000
0300
0000
0000
,
0110
0000
2000
0000
0000
3000
0000
0000
,
1001
0000
0000
0000
,
1001
1000
1000
0000
0000
0100
0002
0000
,
0000
0003
2000
0000
0000
0000
0000
0000
,
0000
0000
0000
3000
0000
0000
0010
0000
0000
0000
0001
0000
0000
0000
0000
0000
,
0100
0000
0000
1000
0000
0000
0100
0000
,
0010
0000
0100
0010
0000
0000
0010
0000
,
0010
0000
0010
0100
0000
0000
0000
0100
,
0000
0100
0000
0100
0000
0000
0000
0000
,
0100
0010
0000
0000
0100
0010
0000
0000
,
0001
0010
0000
0010
0000
0010
0000
0000
,
0000
0100
0000
0100
0000
0000
0000
0000
,
0000
0001
0000
0001
0000
0000
0000
0000
,
0100
1000
0000
0000
0010
0001
0000
1000
,
0100
0000
0000
0100
0000
0100
0000
2000
,
0000
3000
0000
0200
0000
0300
0000
0020
,
0000
0030
0000
0000
0010
0010
0000
2000
,
0000
3000
0000
0002
0000
0003
0000
1000
,
0100
0010
0000
0010
0000
0010
0000
2000
,
0000
3000
0000
0200
0000
0300
0000
0010
,
0001
0010
0000
0010
0000
0010
0000
0200
,
0000
0300
0000
0020
0000
0030
0000
0100
,
0100
0200
0000
0000
0000
0000
0000
0020
,
0300
0030
0000
0200
0000
0300
0000
0020
,
0000
0000
0000
0000
,
0030
0000
0000
0000
;

//---------------dance-single - ----------------
#NOTEDATA:;
#CHARTNAME:;
#STEPSTYPE:dance-single;
#DESCRIPTION:;
#CHARTSTYLE:;
#DIFFICULTY:Easy;
#METER:2;
#RADARVALUES:0.158194,0.239189,0.077515,0.321134,0.000000,100.000000,93.000000,7.000000,29.000000,0.000000,0.000000,0.000000,0.000000,0.000000,0.158194,0.239189,0.077515,0.321134,0.000000,100.000000,93.000000,7.000000,29.000000,0.000000,0.000000,0.000000,0.000000,0.000000;
#CREDIT:;
#NOTES:
0000
0000
0000
0000
,
0000
0000
0000
0000
,
1000
0000
1000
0000
0000
0000
0000
2000
,
0000
0000
0000
3000
0000
0000
0000
2000
,
0000
3000
0000
0002
0000
0003
0000
0000
,
0000
0010
0000
0010
0000
0010
0000
2000
,
0000
3000
0000
0002
0000
0003
0000
0000
,
0100
0000
0100
0000
0100
0000
0000
2000
,
0000
3000
0000
0002
0000
0003
0000
1000
,
0000
2002
0000
0000
0000
0000
0000
0000
,
3003
1000
1001
0001
,
1001
0000
1001
0000
,
1000
0000
1000
0000
,
1000
0000
0010
0000
,
0010
0000
0010
0000
,
0000
0100
0000
0010
,
0010
0000
0010
0000
,
0100
0000
0100
0000
,
0100
0000
0100
0000
,
0000
2000
0000
0000
0000
0000
0001
0000
,
3000
0000
0001
0000
,
0020
0000
0000
0030
,
0010
0000
0200
0000
0000
0300
0000
0000
,
0110
0000
2000
0000
0000
3000
0000
0000
,
1001
0000
0000
0000
,
1001
1000
0000
0002
,
0000
0003
2000
0000
0000
0000
0000
0000
,
0000
0000
0000
3000
0000
0000
0000
0000
0000
0000
0000
0000
0000
0000
0000
0000
,
0100
0000
0000
0100
,
0010
0100
0000
0010
,
0010
0000
0010
0000
0000
0000
0000
0100
,
0000
0100
0000
0100
0000
0000
0000
0000
,
0100
0000
0100
0000
,
0001
0000
0000
0010
0000
0010
0000
0000
,
0000
0100
0000
0100
0000
0000
0000
0000
,
0000
0001
0000
0001
0000
0000
0000
0000
,
0100
0000
0010
0000
,
0100
0000
0000
0200
0000
0300
0000
2000
,
0000
3000
0000
0200
0000
0300
0000
0020
,
0000
0030
0000
0000
0010
0010
0000
2000
,
0000
3000
0000
0002
0000
0003
0000
0000
,
0100
0000
0000
0010
0000
0010
0000
2000
,
0000
3000
0000
0200
0000
0300
0000
0000
,
0001
0000
0000
0010
0000
0010
0000
0200
,
0000
0300
0000
0020
0000
0030
0000
0200
,
0000
0000
0000
0000
0000
0000
0000
0020
,
0300
0030
0000
0200
0000
0300
0000
0020
,
0000
0000
0000
0000
,
0030
0000
0000
0000
;

//---------------dance-single - ----------------
#NOTEDATA:;
#CHARTNAME:;
#STEPSTYPE:dance-single;
#DESCRIPTION:;
#CHARTSTYLE:;
#DIFFICULTY:Beginner;
#METER:1;
#RADARVALUES:0.110736,0.183129,0.077515,0.000000,0.000000,70.000000,63.000000,7.000000,0.000000,0.000000,0.000000,0.000000,0.000000,0.000000,0.110736,0.183129,0.077515,0.000000,0.000000,70.000000,63.000000,7.000000,0.000000,0.000000,0.000000,0.000000,0.000000,0.000000;
#CREDIT:;
#NOTES:
// measure 0
0000
0000
0000
0000
,  // measure 1
0000
0000
0000
0000
,  // measure 2
1000
1000
0000
1000
,  // measure 3
0000
0000
0000
1000
,  // measure 4
0000
0001
0000
0000
,  // measure 5
0010
0000
0000
0000
0000
0000
0000
1000
,  // measure 6
0000
0000
0000
0001
0000
0000
0000
0000
,  // measure 7
0100
0000
0000
0000
,  // measure 8
1000
0000
0001
0000
,  // measure 9
0000
1001
0000
0000
,  // measure 10
0000
0000
1001
0000
,  // measure 11
1001
0000
1001
0000
,  // measure 12
1000
0000
0000
0000
,  // measure 13
1000
0000
0000
0000
,  // measure 14
0010
0000
0000
0000
,  // measure 15
0000
0100
0000
0000
,  // measure 16
0010
0000
0000
0000
,  // measure 17
0100
0000
0000
0000
,  // measure 18
0100
0000
0000
0000
,  // measure 19
1000
0000
0000
0001
,  // measure 20
0000
0000
0001
0000
,  // measure 21
0010
0000
0000
0000
,  // measure 22
0010
0000
0000
0000
,  // measure 23
0110
0000
0000
0000
,  // measure 24
1001
0000
0000
0000
,  // measure 25
1001
0000
0000
0001
,  // measure 26
0000
1000
0000
0000
,  // measure 27
0000
0000
0000
0000
,  // measure 28
0100
0000
0000
0100
,  // measure 29
0000
0100
0000
0000
,  // measure 30
0010
0000
0000
0100
,  // measure 31
0000
0000
0000
0000
,  // measure 32
0100
0000
0000
0000
,  // measure 33
0001
0000
0000
0010
,  // measure 34
0000
0000
0100
0000
,  // measure 35
0000
0000
0001
0000
,  // measure 36
0100
0000
0010
0000
,  // measure 37
0100
0000
0100
0000
,  // measure 38
0000
1000
0000
0100
,  // measure 39
0000
0010
0010
0000
,  // measure 40
0000
1000
0000
0001
,  // measure 41
0000
0000
0000
0010
,  // measure 42
0000
1000
0000
0100
,  // measure 43
0000
0010
0000
0010
,  // measure 44
0000
0100
0000
0010
,  // measure 45
0000
0000
0100
0000
,  // measure 46
0000
0010
0000
0100
,  // measure 47
0000
0010
0000
0000
;
