#TITLE:Kill This Love X DDU-DU DDU-DU;
#SUBTITLE:;
#ARTIST:BLACKPINK;
#TITLETRANSLIT:;
#SUBTITLETRANSLIT:;
#ARTISTTRANSLIT:;
#GENRE:;
#CREDIT:;
#BANNER:;
#BACKGROUND:;
#LYRICSPATH:;
#CDTITLE:;
#MUSIC:Kill This Love X DDU-DU DDU-DU.ogg;
#OFFSET:-0.393000;
#SAMPLESTART:43.260456;
#SAMPLELENGTH:12.000000;
#SELECTABLE:YES;
#BPMS:0.000000=139.947998
;
#STOPS:
;
#BGCHANGES:0.000=Kill This Love X DDU-DU DDU-DU.avi=1.000=0=0=0=StretchNoLoop==CrossFade_Fastest==,
99999=-nosongbg-=1.000=0=0=0 // don't automatically add -songbackground-
;
#KEYSOUNDS:;
#ATTACKS:;

//---------------dance-single - ----------------
#NOTES:
     dance-single:
     :
     Hard:
     9:
     0.476007,0.646890,0.372245,0.118029,0.585605,367.000000,326.000000,41.000000,13.000000,0.000000,0.000000,0.476007,0.646890,0.372245,0.118029,0.585605,367.000000,326.000000,41.000000,13.000000,0.000000,0.000000:
0000
0000
0000
0000
,
0000
0000
0000
0000
,
0000
0000
0000
0000
,
0000
0000
0000
0000
,
0000
0000
0000
0000
,
1000
0000
0000
0001
0000
0100
1000
0000
0000
0000
0000
0100
,
0001
0000
0100
1000
0000
0100
0001
0000
0000
0101
0000
0000
,
0100
1000
0100
0010
0001
0010
0100
1000
0100
0010
0001
0010
,
0100
0110
0110
0110
,
0110
0000
0000
0010
0000
0001
0010
0000
0100
1000
0000
0100
,
0010
0000
0001
0010
0000
0010
0100
0000
0000
0110
0000
0000
,
0110
0000
0000
0100
0000
0010
0100
0000
0010
0100
0000
0010
,
0100
0000
0010
0100
0000
0010
0100
0000
0000
0110
0000
0000
,
0110
0000
0000
1000
0000
0100
0010
0000
0100
0001
0000
0100
,
0010
0000
0100
0010
0000
0100
0010
0000
0000
0110
0000
0000
,
0110
0000
0000
1000
0010
0100
0010
0000
0001
0010
0000
0001
,
0010
0000
0001
0010
0001
0010
0100
0010
0100
1000
0100
0010
,
0001
0000
0100
1000
0000
0100
1000
0000
0000
1001
0000
0001
,
0010
0000
0001
0010
0000
0001
0010
0000
0000
1001
0000
1000
,
0100
0000
0010
0001
0000
0010
0100
0000
0100
1000
0000
0100
,
0010
0000
0010
0001
0000
0010
0100
0000
0000
0110
0000
0000
,
1000
0000
0010
0001
0000
0010
0001
0000
0000
1001
0000
0001
,
0010
0000
0001
0010
0000
0001
0010
0000
0000
0110
0000
1000
,
0100
0000
0010
0001
0000
0010
0100
0000
0100
0010
0000
0010
,
0100
0000
0010
0100
0000
0010
0100
0000
0000
0110
0000
0000
,
0110
0000
0001
0010
0100
1000
0100
0000
0000
0110
0000
0001
,
0010
0100
1000
0100
0010
0001
0110
0000
0000
0110
0000
0001
,
0010
0100
1000
0100
0010
0001
0110
0000
0000
0110
0000
1000
,
0100
0010
0001
0010
0100
1000
0110
0000
0000
0110
0000
0001
,
0010
0001
0010
0001
0010
0001
0010
0000
0000
0110
0000
1000
,
0100
1000
0100
1000
0100
0000
0110
0000
0000
0110
0000
0000
,
0001
0010
0100
1000
0100
0010
0001
0010
0100
1000
0100
0010
,
0001
0010
0100
1000
0100
0010
0001
0010
0100
1000
0100
0010
,
2000
0000
0000
0000
0100
0100
0100
0100
,
0100
0100
3100
0000
0110
0000
0010
0001
,
0010
0000
0000
0010
0000
0000
0010
0000
0000
0010
0000
0000
0010
0000
0001
0000
,
0010
0000
0100
0000
1000
0000
0000
0000
1000
0000
0000
1000
0000
0000
1000
0000
,
0001
0000
0000
0000
0000
0000
0000
0000
0010
0000
0001
0000
0010
0000
0000
0010
,
0000
0010
0000
0000
0110
0000
0100
0010
,
0100
0000
0000
0100
0000
0000
0100
0000
0110
0000
0110
0000
0010
0000
0000
0010
,
0000
0000
0010
0000
0000
0010
0000
0000
0010
0000
0000
0010
0000
0000
0010
0000
,
2000
0000
3200
0000
,
0320
0000
0032
0000
,
0023
0000
0230
0000
,
2300
0000
0001
0001
3001
0000
1001
0000
,
0110
0000
1001
0000
,
0110
0000
1001
0000
,
1000
0100
0000
0000
1000
0100
0000
0000
1000
0010
0000
0000
1000
0001
0000
0000
,
1000
0000
0100
0000
0010
0000
0001
0000
0001
0010
0000
0000
0010
0100
0000
0000
,
2002
0000
0000
0000
,
3003
0000
1000
0100
0000
1000
0100
0000
1000
0100
0000
1000
,
0200
0000
0000
0000
,
0310
0000
0001
0000
0010
0000
0100
0000
1000
0100
0000
0000
0001
0010
0000
0000
,
2002
0000
0000
0000
,
3003
0000
1000
0100
0000
0010
0001
0000
0010
0100
0000
0010
,
0100
0000
0110
0000
,
1000
0100
0001
0100
1000
0100
0001
0000
,
1001
0000
0000
0000
;

//---------------dance-single - ----------------
#NOTES:
     dance-single:
     :
     Easy:
     3:
     0.259404,0.334907,0.345008,0.036317,0.009079,200.000000,162.000000,38.000000,4.000000,0.000000,0.000000,0.259404,0.334907,0.345008,0.036317,0.009079,200.000000,162.000000,38.000000,4.000000,0.000000,0.000000:
0000
0000
0000
0000
,
0000
0000
0000
0000
,
0000
0000
0000
0000
,
0000
0000
0000
0000
,
0000
0000
0000
0000
,
1000
1000
0001
0001
,
1000
1000
0001
0001
,
1000
0100
0010
0001
,
0010
0100
1000
1000
,
1001
0000
0110
0000
,
1001
1000
1000
1000
,
1000
1001
0001
0001
,
0001
0000
0010
0001
0010
0000
0000
0000
,
0110
0000
1001
0000
,
1000
0100
1000
0100
0010
0001
0010
0001
,
0010
0000
0110
0000
,
0100
0100
0100
0100
,
0100
0000
0100
0000
,
0100
0000
0100
0010
,
0100
0000
0010
0000
,
0010
0000
0010
0100
,
0010
0000
1000
0000
,
1001
0000
0001
0000
,
1001
0000
1000
0000
,
1001
0000
0001
0000
,
1001
0000
1000
0100
1000
0000
0000
0000
,
1001
0000
0001
0010
0001
0000
0000
0000
,
1001
0000
1000
0100
1000
0000
0000
0000
,
1001
0000
0001
0010
0001
0000
0000
0000
,
1001
0100
0010
0100
,
1001
0010
0100
0010
,
1000
0100
0010
0001
,
0001
0010
0100
1000
,
1001
0000
1001
0000
,
0110
0000
0110
0000
,
1001
0000
1001
0000
,
0110
0000
0110
0000
,
1000
0000
1001
0000
,
0001
0000
1001
0000
,
1000
0000
1001
0000
,
0001
0000
1001
0000
,
1000
0000
1001
0000
,
0001
0000
1001
0000
,
1000
0100
0010
0001
,
0010
0100
1000
0100
,
1001
0000
0110
0000
,
1001
0000
0110
0000
,
1000
0100
0010
0001
,
0010
0000
0000
0000
0100
0000
0000
0000
0100
0010
0000
0000
0100
0010
0000
0000
,
0220
0000
0000
0000
,
0330
1000
1000
1000
,
2000
0000
3002
0000
,
1003
0100
0010
0001
,
1001
0000
1001
0000
,
0001
0010
0100
1000
,
1001
0001
0010
0001
,
0010
0100
1000
0100
;

//---------------dance-single - ----------------
#NOTES:
     dance-single:
     :
     Medium:
     6:
     0.342414,0.465761,0.354087,0.118029,0.167964,264.000000,225.000000,39.000000,13.000000,0.000000,0.000000,0.342414,0.465761,0.354087,0.118029,0.167964,264.000000,225.000000,39.000000,13.000000,0.000000,0.000000:
0000
0000
0000
0000
,
0000
0000
0000
0000
,
0000
0000
0000
0000
,
0000
0000
0000
0000
,
0000
0000
0000
0000
,
1000
0001
1000
0000
,
0001
1000
0001
0101
,
0100
0010
0100
0010
,
0100
0110
0110
0110
,
0110
0010
0010
1000
,
0010
0010
0100
0110
,
0110
0100
0100
0100
,
0100
0100
0100
0110
,
0110
0000
0000
1000
0000
0000
0010
0000
0000
0001
0000
0100
,
0010
0000
0100
0010
0000
0100
0010
0000
0000
0110
0000
0000
,
0110
0000
0000
1000
0000
0000
0010
0000
0001
0010
0000
0001
,
0010
0000
0001
0010
0000
0000
0100
0000
0000
1000
0000
0000
,
0001
1000
1000
1001
,
0010
0000
0000
0010
0000
0000
0010
0000
0000
0001
0000
1000
,
0100
0000
0000
0000
0000
0010
0100
0000
0000
0000
0000
0100
,
0010
0000
0000
0000
0000
0010
0100
0000
0000
0110
0000
0000
,
1000
0000
0000
0000
0000
0010
0001
0000
0000
0000
0000
0000
,
0000
0000
0001
0010
0000
0000
0000
0000
0000
0110
0000
0000
,
0100
0001
0100
0010
,
0000
0000
0010
0100
0000
0000
0000
0000
0000
0110
0000
0000
,
0110
0010
0100
0110
,
0010
0100
0110
0110
,
0010
0100
0110
0110
,
0100
0010
0110
0110
,
0010
0001
0010
0110
,
0100
1000
0110
0110
,
0001
1000
0001
1000
,
0001
1000
0001
1000
,
2000
0000
0000
0000
0100
0100
0100
0100
,
0100
0100
3100
0000
0110
0000
0010
0001
,
0010
0000
0000
0010
0000
0000
0010
0000
0000
0010
0000
0000
0010
0000
0001
0000
,
0010
0000
0100
0000
1000
0000
0000
0000
1000
0000
0000
1000
0000
0000
1000
0000
,
0001
0000
0000
0000
0000
0000
0000
0000
0010
0000
0001
0000
0010
0000
0000
0010
,
0000
0010
0000
0000
0110
0000
0100
0010
,
0100
0000
0000
0100
0000
0000
0100
0000
0110
0000
0110
0000
0010
0000
0000
0010
,
0000
0000
0010
0000
0000
0010
0000
0000
0010
0000
0000
0010
0000
0000
0010
0000
,
2000
0000
3200
0000
,
0320
0000
0032
0000
,
0023
0000
0230
0000
,
2300
0000
0001
0001
3001
0000
1001
0000
,
0110
0000
1001
0000
,
0110
0000
1001
0000
,
1000
0100
0000
0000
1000
0100
0000
0000
1000
0010
0000
0000
1000
0001
0000
0000
,
1000
0000
0100
0000
0010
0000
0001
0000
0001
0010
0000
0000
0010
0100
0000
0000
,
2002
0000
0000
0000
,
3003
0000
1000
0100
0000
1000
0100
0000
1000
0100
0000
1000
,
0200
0000
0000
0000
,
0310
0000
0001
0000
0010
0000
0100
0000
1000
0100
0000
0000
0001
0010
0000
0000
,
2002
0000
0000
0000
,
3003
0000
1000
0100
0000
0010
0001
0000
0010
0100
0000
0010
,
0100
0000
0110
0000
,
1000
0100
0001
0100
1000
0100
0001
0000
,
1001
0000
0000
0000
;

//---------------dance-single - ----------------
#NOTES:
     dance-single:
     :
     Beginner:
     2:
     0.127108,0.152530,0.208821,0.000000,0.000000,98.000000,75.000000,23.000000,0.000000,0.000000,0.000000,0.127108,0.152530,0.208821,0.000000,0.000000,98.000000,75.000000,23.000000,0.000000,0.000000,0.000000:
// measure 0
0000
0000
0000
0000
,  // measure 1
0000
0000
0000
0000
,  // measure 2
0000
0000
0000
0000
,  // measure 3
0000
0000
0000
0000
,  // measure 4
0000
0000
0000
0000
,  // measure 5
1000
0000
1000
0000
,  // measure 6
0001
0000
0001
0000
,  // measure 7
1000
0000
1000
0000
,  // measure 8
0001
0000
0001
0000
,  // measure 9
1001
0000
0000
0000
,  // measure 10
0110
0000
0000
0000
,  // measure 11
1001
0000
0000
0000
,  // measure 12
0110
0000
0000
0000
,  // measure 13
1001
0000
0000
0000
,  // measure 14
0110
0000
0000
0000
,  // measure 15
1001
0000
0000
0000
,  // measure 16
0110
0000
0000
0000
,  // measure 17
1000
0000
1000
0000
,  // measure 18
0001
0000
0001
0000
,  // measure 19
1000
0000
1000
0000
,  // measure 20
0001
0000
0001
0000
,  // measure 21
0100
0000
0100
0000
,  // measure 22
0010
0000
0010
0000
,  // measure 23
0100
0000
0100
0000
,  // measure 24
0010
0000
0010
0000
,  // measure 25
0100
0000
0000
0000
,  // measure 26
0100
0000
0000
0000
,  // measure 27
0010
0000
0000
0000
,  // measure 28
0010
0000
0000
0000
,  // measure 29
0100
0000
0100
0000
,  // measure 30
0010
0000
0010
0000
,  // measure 31
0100
0000
0100
0000
,  // measure 32
0010
0000
0010
0000
,  // measure 33
0110
0000
0000
0000
,  // measure 34
1001
0000
0000
0000
,  // measure 35
0110
0000
0000
0000
,  // measure 36
1001
0000
0000
0000
,  // measure 37
0110
0000
0000
0000
,  // measure 38
1001
0000
0000
0000
,  // measure 39
0110
0000
0000
0000
,  // measure 40
1001
0000
0000
0000
,  // measure 41
1000
0000
1000
0000
,  // measure 42
0001
0000
0001
0000
,  // measure 43
1000
0000
1000
0000
,  // measure 44
0001
0000
0001
0000
,  // measure 45
0100
0000
0100
0000
,  // measure 46
0010
0000
0010
0000
,  // measure 47
0100
0000
0100
0000
,  // measure 48
0010
0000
0010
0000
,  // measure 49
0110
0000
0000
0000
,  // measure 50
0000
0000
0000
0000
,  // measure 51
1001
0000
0000
0000
,  // measure 52
0110
0000
0000
0000
,  // measure 53
0110
0000
0000
0000
,  // measure 54
0110
0000
0000
0000
,  // measure 55
0110
0000
0000
0000
,  // measure 56
1001
0000
0000
0000
;
