#TITLE:IDOL x BAAM (Remixed by GMIXMASHUP);
#SUBTITLE:;
#ARTIST:BTS vs. MOMOLAND;
#TITLETRANSLIT:;
#SUBTITLETRANSLIT:;
#ARTISTTRANSLIT:;
#GENRE:;
#CREDIT:;
#BANNER:;
#BACKGROUND:;
#LYRICSPATH:;
#CDTITLE:;
#MUSIC:IDOL X BAAM.ogg;
#OFFSET:-0.341000;
#SAMPLESTART:67.000000;
#SAMPLELENGTH:12.000000;
#SELECTABLE:YES;
#BPMS:0.000000=126.999992
;
#STOPS:
;
#BGCHANGES:;
#KEYSOUNDS:;
#ATTACKS:;

//---------------dance-single - ----------------
#NOTES:
     dance-single:
     :
     Hard:
     7:
     0.422300,0.550864,0.504454,0.080713,0.070624,293.000000,243.000000,50.000000,8.000000,0.000000,0.000000,0.422300,0.550864,0.504454,0.080713,0.070624,293.000000,243.000000,50.000000,8.000000,0.000000,0.000000:
0000
0000
0000
0000
,
0000
0000
0000
0000
,
0000
0000
0000
0000
,
0000
0000
0000
0000
,
1000
1100
0100
1100
,
0001
0011
0001
0011
,
1000
1001
0001
1001
,
0000
1001
0000
1001
,
1000
1100
0100
0101
,
0001
0011
0010
0110
,
0100
1100
0100
0110
,
0000
0110
0000
0110
,
1000
1100
0000
0010
0001
1000
0100
0010
,
1000
0000
1100
0000
0000
0000
0010
0000
0001
0000
1000
0100
0010
0000
0100
0000
,
1000
1100
0000
0100
1100
0000
1000
0100
,
0010
0001
0000
0000
0010
0100
0010
0000
,
1000
0000
0000
1000
0000
0000
1000
0000
0001
0000
1000
0000
0001
0000
0000
0000
,
0001
0000
0000
0001
0000
0000
0001
0000
1000
0000
0001
0000
1000
0000
0000
0000
,
1000
0000
0000
0100
0000
0000
0001
0000
1000
0000
0000
0100
0000
0000
0001
0000
,
1000
0000
0000
0010
0000
0000
0001
0000
1000
0000
0000
0010
0000
0000
0001
0000
,
1000
0100
1000
0000
1000
0001
1000
0000
,
1000
0010
1000
0000
1000
0100
1000
0000
,
1001
0110
0000
0000
0110
1001
0000
0000
,
1000
0100
1000
0000
0001
0010
0001
0000
1000
0100
1000
0000
0001
0010
0001
0000
,
1000
0100
0001
0000
0001
0100
1000
0000
,
1000
0010
0001
0000
0001
0010
1000
0000
,
1000
0100
1000
0100
1000
0000
1001
0000
,
0001
0010
0001
0010
0001
0000
1001
0000
,
2000
0000
3002
0000
,
2003
0000
3002
0000
,
0003
1001
0000
0110
,
0000
1001
0000
0110
,
2000
0000
3002
0000
,
2003
0000
3002
0000
,
0003
0000
1001
0000
0110
0000
1000
0100
,
0010
0001
0010
0100
1000
0000
1001
0000
,
1000
0100
1000
0100
1000
0000
1000
0100
,
0001
0000
0001
0010
0001
0010
0001
0000
,
1000
0100
0001
0100
1000
0100
0001
0100
,
1000
1001
0110
1001
,
0001
0010
0001
0010
0001
0000
0001
0010
,
0100
1000
0100
0010
0001
0010
0100
0000
,
1000
0100
1000
0000
0001
0010
0001
0000
,
1000
0100
0001
0100
1000
0100
0001
0100
,
1000
1000
1100
0100
,
0101
0001
0011
0010
,
0110
0100
1100
1000
,
1100
0100
0110
0010
,
0001
0000
0000
0001
0000
0000
0001
0000
0001
0000
0000
0000
1001
0000
0000
0000
,
1000
0000
0000
1000
0000
0000
1000
0000
1000
0000
0100
0000
0010
0000
0001
0000
,
0001
0000
0000
0001
0000
0000
0001
0000
0001
0000
0000
0000
1001
0000
0000
0000
,
1001
1001
0110
1001
,
0110
0000
0000
0000
;

//---------------dance-single - ----------------
#NOTES:
     dance-single:
     :
     Medium:
     5:
     0.332940,0.419706,0.544811,0.100891,0.000000,231.000000,177.000000,54.000000,10.000000,0.000000,0.000000,0.332940,0.419706,0.544811,0.100891,0.000000,231.000000,177.000000,54.000000,10.000000,0.000000,0.000000:
0000
0000
0000
0000
,
0000
0000
0000
0000
,
0000
0000
0000
0000
,
0000
0000
0000
0000
,
1001
0000
1001
0000
,
0110
0000
0110
0000
,
1001
0000
1001
0000
,
1000
1100
0001
0101
,
0110
0000
0110
0000
,
1001
0000
1001
0000
,
0110
0000
0110
0000
,
0110
1001
0110
1001
,
1000
1000
0000
0001
0001
0000
0000
0000
,
1000
1000
0000
0001
0001
0000
0000
0000
,
0001
0001
0000
1000
1000
0100
0010
0100
,
0010
0010
0000
0100
0100
0000
0000
0000
,
0100
0100
0100
0010
,
0010
0010
0100
0100
,
0100
0010
0010
0010
,
0110
0000
0110
0000
,
1000
0000
0100
0000
0010
0001
0010
0000
,
0010
0000
0100
0000
1000
0100
1000
0000
,
1001
0000
1001
0000
,
1000
0100
0010
0001
,
1000
0100
1000
0000
0000
0000
0100
0010
,
0001
0001
0001
0001
,
1000
1100
0100
0101
,
0001
0011
0010
0110
,
2000
3000
0002
0003
,
2000
3000
0002
0003
,
0110
0000
1000
0100
0000
0000
0001
0010
,
0000
0000
1000
0100
0000
0000
0001
0010
,
0200
0300
0020
0030
,
0200
0300
0020
0030
,
2002
0000
0000
0000
3003
0000
1000
0100
,
1000
1001
0110
1001
,
0100
0000
0100
0100
0100
0000
0010
0000
,
0010
0000
0010
0010
0010
0000
0100
0000
,
1000
0100
0010
0001
,
0010
0100
1000
1001
,
1000
0000
1000
1000
1000
0000
1001
0000
,
0001
0000
0001
0000
0001
0001
0001
0000
,
1000
1100
0001
0101
,
0100
0110
0010
0110
,
1000
1000
1000
1001
,
0001
0001
0001
1001
,
1000
1001
0001
1001
,
0000
0110
0000
0110
,
0100
0110
0010
0110
,
0100
0110
0010
0110
,
1000
1100
0001
0101
,
0110
1001
0110
1001
,
0110
0000
0000
0000
;

//---------------dance-single - ----------------
#NOTES:
     dance-single:
     :
     Easy:
     2:
     0.181604,0.262316,0.191693,0.040356,0.000000,126.000000,107.000000,19.000000,4.000000,0.000000,0.000000,0.181604,0.262316,0.191693,0.040356,0.000000,126.000000,107.000000,19.000000,4.000000,0.000000,0.000000:
0000
0000
0000
0000
,
0000
0000
0000
0000
,
0000
0000
0000
0000
,
0000
0000
0000
0000
,
1000
0000
1000
0000
,
0001
0000
0001
0000
,
1000
0000
1000
0000
,
1001
0000
1001
0000
,
0001
0000
0001
0000
,
1000
0000
1000
0000
,
0001
0000
0001
0000
,
1001
0000
1001
0000
,
1000
0000
0001
0000
,
1000
0000
0001
0000
,
0010
0000
0100
0000
,
0010
0000
0100
0000
,
2000
0000
3000
0000
,
0002
0000
0003
0000
,
2000
0000
3000
0000
,
0002
0000
0003
0000
,
1100
0000
0100
0000
,
0101
0000
0001
0000
,
0001
0000
0001
0000
,
1000
0000
1000
0000
,
1000
0000
1100
0000
,
0001
0000
0101
0000
,
1000
1000
1000
0000
,
0001
0001
0001
0000
,
1001
0000
0110
0000
,
1001
0000
0110
0000
,
1001
1000
0000
1000
,
0000
0001
0000
0001
,
1001
0000
0110
0000
,
1001
0000
0110
0000
,
0001
0000
1001
0000
,
1000
1000
1000
1000
,
1000
0000
1000
0000
,
0001
0000
0001
0000
,
1000
0000
1000
0000
,
0001
0000
0001
0000
,
0010
0000
0100
0000
,
0010
0000
0100
0000
,
0010
0000
0100
0000
,
0010
0000
0100
0000
,
1000
1000
1000
0000
,
0001
0001
0001
0000
,
1000
1000
1000
0000
,
0001
0001
0001
0001
,
1000
1000
1000
0000
,
0001
0001
0001
0000
,
1000
1000
1000
0000
,
0001
0001
0001
0000
,
1001
0000
0000
0000
;

//---------------dance-single - ----------------
#NOTES:
     dance-single:
     :
     Beginner:
     1:
     0.108097,0.157390,0.171514,0.000000,0.000000,75.000000,58.000000,17.000000,0.000000,0.000000,0.000000,0.108097,0.157390,0.171514,0.000000,0.000000,75.000000,58.000000,17.000000,0.000000,0.000000,0.000000:
// measure 0
0000
0000
0000
0000
,  // measure 1
0000
0000
0000
0000
,  // measure 2
0000
0000
0000
0000
,  // measure 3
0000
0000
0000
0000
,  // measure 4
1000
0000
0000
0000
,  // measure 5
0001
0000
0000
0000
,  // measure 6
1000
0000
0000
0000
,  // measure 7
1001
0000
0000
0000
,  // measure 8
0001
0000
0000
0000
,  // measure 9
1000
0000
0000
0000
,  // measure 10
0001
0000
0000
0000
,  // measure 11
1000
0000
0000
0000
,  // measure 12
1000
0000
0000
0000
,  // measure 13
1000
0000
0000
0000
,  // measure 14
0001
0000
0000
0000
,  // measure 15
0001
0000
0000
0000
,  // measure 16
1000
0000
0000
0000
,  // measure 17
1000
0000
0000
0000
,  // measure 18
0100
0000
0000
0000
,  // measure 19
0100
0000
0000
0000
,  // measure 20
0010
0000
0000
0000
,  // measure 21
0010
0000
0000
0000
,  // measure 22
0100
0100
0000
0000
,  // measure 23
0010
0000
0010
0000
,  // measure 24
0010
0000
0000
0000
,  // measure 25
0100
0000
0000
0000
,  // measure 26
0010
0000
0000
0000
,  // measure 27
0100
0000
0000
0000
,  // measure 28
1000
0000
1000
0000
,  // measure 29
0001
0000
0001
0000
,  // measure 30
1001
0000
0000
0000
,  // measure 31
0000
0000
0000
0000
,  // measure 32
0100
0000
0100
0000
,  // measure 33
0010
0000
0010
0000
,  // measure 34
0110
0000
0000
0000
,  // measure 35
0110
0000
0000
0000
,  // measure 36
1001
0000
0000
0000
,  // measure 37
0110
0000
0000
0000
,  // measure 38
1001
0000
0000
0000
,  // measure 39
0110
0000
0000
0000
,  // measure 40
1000
0000
1000
0000
,  // measure 41
0001
0000
0001
0000
,  // measure 42
1000
0000
1000
0000
,  // measure 43
0001
0000
0001
0000
,  // measure 44
1001
0000
0000
0000
,  // measure 45
0110
0000
0000
0000
,  // measure 46
1001
0000
0000
0000
,  // measure 47
0110
0000
0000
0000
,  // measure 48
0110
0000
0000
0000
,  // measure 49
1001
0000
0000
0000
,  // measure 50
0110
0000
0000
0000
,  // measure 51
0110
0000
0000
0000
,  // measure 52
1001
0000
0000
0000
;
