#VERSION:0.83;
#TITLE:I'm So Hot x WOOWA;
#SUBTITLE:;
#ARTIST:MOMOLAND vs. DIA;
#TITLETRANSLIT:;
#SUBTITLETRANSLIT:;
#ARTISTTRANSLIT:;
#GENRE:;
#ORIGIN:;
#CREDIT:;
#BANNER:;
#BACKGROUND:;
#PREVIEWVID:;
#JACKET:;
#CDIMAGE:;
#DISCIMAGE:;
#LYRICSPATH:;
#CDTITLE:;
#MUSIC:I'm So Hot x WOOWA.ogg;
#OFFSET:-0.424000;
#SAMPLESTART:47.662483;
#SAMPLELENGTH:12.000000;
#SELECTABLE:YES;
#BPMS:0.000=127.000;
#STOPS:;
#DELAYS:;
#WARPS:;
#TIMESIGNATURES:0.000=4=4;
#TICKCOUNTS:0.000=4;
#COMBOS:0.000=1;
#SPEEDS:0.000=1.000=0.000=0;
#SCROLLS:0.000=1.000;
#FAKES:;
#LABELS:0.000=Song Start;
#BGCHANGES:0.000=I'm So Hot X WOOWA.mp4=1.000=1=0=1===CrossFade==,
99999=-nosongbg-=1.000=0=0=0 // don't automatically add -songbackground-
;
#KEYSOUNDS:;
#ATTACKS:
;

//---------------dance-single - ----------------
#NOTEDATA:;
#CHARTNAME:;
#STEPSTYPE:dance-single;
#DESCRIPTION:;
#CHARTSTYLE:;
#DIFFICULTY:Hard;
#METER:8;
#RADARVALUES:0.507920,0.655936,0.203474,0.192765,0.246311,332.000000,313.000000,19.000000,18.000000,0.000000,0.000000,0.000000,0.000000,0.000000,0.507920,0.655936,0.203474,0.192765,0.246311,332.000000,313.000000,19.000000,18.000000,0.000000,0.000000,0.000000,0.000000,0.000000;
#CREDIT:;
#NOTES:
// measure 0
0000
0000
0000
0000
,  // measure 1
2000
0000
0100
0000
0100
0100
3100
0000
,  // measure 2
0002
0000
0010
0000
0010
0010
0013
0000
,  // measure 3
2000
0000
0001
0000
0001
0001
3001
0000
,  // measure 4
0002
0000
1000
0000
1000
1000
1003
0000
,  // measure 5
1000
0000
0100
0000
1000
0000
0100
1000
0100
1000
0100
0000
1000
0000
0000
0000
,  // measure 6
0001
0000
0010
0000
0001
0000
0010
0001
0010
0001
0010
0000
0001
0000
0000
0000
,  // measure 7
1000
0000
0100
0000
0010
0000
0001
0010
0001
0010
0001
0000
0010
0000
0000
0000
,  // measure 8
0100
0000
1000
0000
0100
0010
0001
0010
0100
1000
0100
0000
0010
0000
0000
0000
,  // measure 9
0020
0000
0000
0000
0100
0100
0100
0100
,  // measure 10
0230
0000
0000
0000
0010
0010
0010
0010
,  // measure 11
0320
0000
0000
0000
1000
1000
1000
1030
,  // measure 12
1000
0000
0000
0100
0000
0000
0010
0000
0001
0000
0000
0000
0010
0000
0000
0000
,  // measure 13
0200
0000
0000
0000
1000
1000
1000
1000
,  // measure 14
2300
0000
0000
0000
0001
0001
0001
0001
,  // measure 15
3002
0000
0100
0100
,  // measure 16
0103
0000
0000
1000
0000
0000
0100
0000
0010
0000
0000
0000
0001
0000
0000
0000
,  // measure 17
0010
0100
0010
0000
0010
0001
0010
0000
,  // measure 18
0010
1000
0010
0000
0010
0001
0010
0000
,  // measure 19
0010
0100
0010
0000
0010
1000
0010
0000
,  // measure 20
0010
0001
0010
0000
0010
0100
0010
0000
,  // measure 21
0000
0100
0010
0100
0000
0010
0100
0010
,  // measure 22
0000
0100
0010
0100
0000
0010
0100
0010
,  // measure 23
0110
1001
0110
1001
,  // measure 24
0100
0000
0010
0000
0001
0000
0010
0000
0100
0000
1000
0100
0010
0001
0010
0100
,  // measure 25
2000
0000
0001
0001
,  // measure 26
3002
0000
1000
1000
,  // measure 27
2003
0000
0100
0010
0100
0010
0100
0010
,  // measure 28
3100
0000
0100
0100
0200
0000
0000
0000
,  // measure 29
0320
0001
1000
0001
,  // measure 30
2030
0100
0010
0001
,  // measure 31
3020
0000
0100
0100
,  // measure 32
0200
0000
0000
0330
,  // measure 33
1000
0100
1000
0000
0001
0010
0001
0000
1000
0100
0010
0000
0001
0010
0100
0000
,  // measure 34
1000
0100
1000
0100
1000
0100
1000
0100
1000
0000
0000
0000
1001
0000
0000
0000
,  // measure 35
0001
0010
0100
0000
1000
0100
0010
0000
0001
0010
0100
0000
1000
0100
0010
0000
,  // measure 36
0001
0010
0001
0010
0001
0010
0001
0010
0001
0000
0000
0000
1001
0000
0000
0000
,  // measure 37
1000
0100
0010
0000
0001
0010
0100
0000
1000
0100
0010
0000
0001
0010
0100
0000
,  // measure 38
1000
0100
1000
0100
1000
0100
1000
0100
1000
0000
0000
0000
1001
0000
0000
0000
,  // measure 39
0001
0010
0100
1000
0001
0010
0100
1000
,  // measure 40
1001
1001
1001
1001
,  // measure 41
1000
0000
0000
0000
1000
0000
1000
0000
1000
0000
1000
0000
1000
0100
1000
0100
,  // measure 42
1000
0000
0000
0000
0001
0000
0001
0000
0001
0000
0001
0000
0001
0010
0001
0010
,  // measure 43
0001
0000
1000
0100
0010
0001
0010
0100
,  // measure 44
1001
0110
1001
0110
,  // measure 45
1000
0000
0100
0000
0010
0000
0001
0000
0010
0000
0100
0000
1000
0100
0010
0001
,  // measure 46
0010
0000
0000
0000
0010
0000
0100
0000
0010
0000
0100
0000
0010
0100
0010
0100
,  // measure 47
0010
0000
0010
0001
0010
0100
1000
0100
,  // measure 48
0010
0110
0110
0110
,  // measure 49
0110
0000
0000
0000
;

//---------------dance-single - ----------------
#NOTEDATA:;
#CHARTNAME:;
#STEPSTYPE:dance-single;
#DESCRIPTION:;
#CHARTSTYLE:;
#DIFFICULTY:Medium;
#METER:6;
#RADARVALUES:0.272319,0.341087,0.085673,0.214183,0.010709,178.000000,170.000000,8.000000,20.000000,0.000000,0.000000,0.000000,0.000000,0.000000,0.272319,0.341087,0.085673,0.214183,0.010709,178.000000,170.000000,8.000000,20.000000,0.000000,0.000000,0.000000,0.000000,0.000000;
#CREDIT:;
#NOTES:
0000
0000
0000
0000
,
2000
0100
0100
3100
,
0002
0010
0010
0013
,
2000
0001
0001
3001
,
0002
1000
1000
1003
,
1000
0100
1000
0000
1000
0000
1000
0000
,
0001
0010
0001
0000
0001
0000
0001
0000
,
1000
0100
0010
0000
0010
0000
0010
0000
,
0100
1000
0100
0000
0100
0000
0100
0000
,
0020
0000
0000
0000
,
0230
0000
0000
0000
,
0320
0000
0000
0000
0000
0000
0000
0030
,
1000
0000
0000
0100
0000
0000
0010
0000
0001
0000
0000
0000
0010
0000
0000
0000
,
0200
0000
0000
0000
,
2300
0000
0000
0000
,
3002
0000
0000
0000
,
0103
0000
0000
1000
0000
0000
0100
0000
0010
0000
0000
0000
0001
0000
0000
0000
,
0010
0000
0010
0000
0010
0001
0010
0000
,
0010
0000
0010
0000
0010
0001
0010
0000
,
0010
0000
0010
0000
0010
1000
0010
0000
,
0010
0000
0010
0000
0010
0100
0010
0000
,
0000
0100
0000
0100
0000
0010
0000
0010
,
0000
0100
0000
0100
0000
0010
0000
0010
,
0000
1001
0000
1001
,
0000
0001
0100
0010
,
2000
0000
0000
0000
,
3002
0000
0000
0000
,
2003
0100
0100
0100
,
3100
0100
0200
0000
,
0320
0000
0000
0000
,
2030
0000
0000
0000
,
3020
0000
0100
0100
,
0200
0000
0000
0330
,
1000
0000
0001
0000
1000
0010
0001
0000
,
1000
0000
1000
1000
1000
0000
1001
0000
,
0001
0000
1000
0000
0001
0000
1000
0010
,
0001
0000
0001
0001
0001
0000
1001
0000
,
1000
0000
0001
0000
1000
0000
0001
0100
,
1000
1000
1000
1001
,
0001
0100
0001
0100
,
2002
0000
0000
3003
,
1000
0000
1000
0000
1000
0000
1000
1000
,
1000
0000
0001
0000
0001
0000
0001
0001
,
0001
0000
1000
0000
0010
0000
0010
0100
,
1001
0000
1001
0000
,
1000
0010
0010
1000
,
0010
0000
0010
0000
0010
0000
0010
0010
,
0010
0000
0010
0000
0010
0000
1000
0100
,
0010
0010
0010
0010
,
0010
0000
0000
0000
;

//---------------dance-single - ----------------
#NOTEDATA:;
#CHARTNAME:;
#STEPSTYPE:dance-single;
#DESCRIPTION:;
#CHARTSTYLE:;
#DIFFICULTY:Easy;
#METER:4;
#RADARVALUES:0.201944,0.288612,0.064255,0.214183,0.000000,132.000000,126.000000,6.000000,20.000000,0.000000,0.000000,0.000000,0.000000,0.000000,0.201944,0.288612,0.064255,0.214183,0.000000,132.000000,126.000000,6.000000,20.000000,0.000000,0.000000,0.000000,0.000000,0.000000;
#CREDIT:;
#NOTES:
0000
0000
0000
0000
,
2000
0000
0000
3000
,
0002
0000
0000
0003
,
2000
0000
0000
3000
,
0002
1000
1000
1003
,
1000
1000
1000
1000
,
0001
0001
0001
0001
,
1000
0010
0010
0010
,
0100
0100
0100
0100
,
0020
0000
0000
0000
,
0230
0000
0000
0000
,
0320
0000
0000
0000
0000
0000
0000
0030
,
1000
0000
0001
0010
,
0200
0000
0000
0000
,
2300
0000
0000
0000
,
3002
0000
0000
0000
,
0103
0000
0010
0001
,
0010
0000
0010
0010
,
0010
0000
0010
0010
,
0010
0000
0010
0010
,
0010
0010
0010
0010
,
0000
0100
0000
0100
0000
0010
0000
0010
,
0000
0100
0000
0100
0000
0010
0000
0010
,
0000
1000
0000
0001
,
0000
0000
0000
0000
,
2000
0000
0000
0000
,
3002
0000
0000
0000
,
2003
0000
0000
0000
,
3000
0000
0200
0000
,
0320
0000
0000
0000
,
2030
0000
0000
0000
,
3020
0000
0000
0000
,
0200
0000
0000
0330
,
1000
0001
1000
0001
,
1000
1000
1000
1001
,
0001
1000
0001
1000
,
0001
0001
0001
1001
,
1000
0001
1000
0001
,
1000
1000
1000
1001
,
0001
0100
0001
0100
,
2002
0000
0000
3003
,
1000
1000
1000
1000
,
1000
0001
0001
0001
,
0001
1000
0010
0010
,
1001
0000
1001
0000
,
1000
0010
0010
1000
,
0010
0010
0010
0010
,
0010
0010
0010
1000
,
0010
0010
0010
0010
,
0010
0000
0000
0000
;

//---------------dance-single - ----------------
#NOTEDATA:;
#CHARTNAME:;
#STEPSTYPE:dance-single;
#DESCRIPTION:;
#CHARTSTYLE:;
#DIFFICULTY:Beginner;
#METER:2;
#RADARVALUES:0.079554,0.104950,0.021418,0.000000,0.000000,52.000000,50.000000,2.000000,0.000000,0.000000,0.000000,0.000000,0.000000,0.000000,0.079554,0.104950,0.021418,0.000000,0.000000,52.000000,50.000000,2.000000,0.000000,0.000000,0.000000,0.000000,0.000000,0.000000;
#CREDIT:;
#NOTES:
0000
0000
0000
0000
,
1000
0000
0000
0000
,
0001
0000
0000
0000
,
1000
0000
0000
0000
,
0001
0000
0000
0000
,
1000
0000
0000
0000
,
0001
0000
0000
0000
,
1000
0000
0000
0000
,
0100
0000
0000
0000
,
0010
0000
0000
0000
,
0100
0000
0000
0000
,
0010
0000
0000
0000
,
1000
0000
0000
0000
,
0100
0000
0000
0000
,
1000
0000
0000
0000
,
0001
0000
0000
0000
,
0100
0000
0000
0000
,
0010
0000
0000
0000
,
0010
0000
0000
0000
,
0010
0000
0000
0000
,
0010
0000
0000
0000
,
0000
0100
0000
0000
0000
0010
0000
0000
,
0000
0100
0000
0000
0000
0010
0000
0000
,
0000
1000
0000
0000
,
0001
0000
0000
0000
,
1000
0000
0000
0000
,
0001
0000
0000
0000
,
1000
0000
0000
0000
,
0000
0000
0000
0000
,
0010
0000
0000
0000
,
1000
0000
0000
0000
,
0010
0000
0000
0000
,
0100
0000
0000
0000
,
1000
0000
0000
0000
,
1000
0000
0000
0000
,
0001
0000
0000
0000
,
0001
0000
0000
0000
,
1000
0000
0000
0000
,
1000
0000
0000
0000
,
0001
0000
0000
0000
,
1001
0000
0000
0000
,
1000
0000
0000
0000
,
1000
0000
0000
0000
,
0001
0000
0000
0000
,
1001
0000
0000
0000
,
1000
0000
0000
0000
,
0010
0000
0000
0000
,
0010
0000
0000
0000
,
0010
0000
0000
0000
,
0010
0000
0000
0000
;
