#VERSION:0.83;
#TITLE:Hurts Like Hell;
#SUBTITLE:;
#ARTIST:Madison Beer;
#TITLETRANSLIT:;
#SUBTITLETRANSLIT:;
#ARTISTTRANSLIT:;
#GENRE:;
#ORIGIN:;
#CREDIT:;
#BANNER:;
#BACKGROUND:;
#PREVIEWVID:;
#JACKET:;
#CDIMAGE:;
#DISCIMAGE:;
#LYRICSPATH:;
#CDTITLE:;
#MUSIC:Hurts Like Hell.ogg;
#OFFSET:-0.298000;
#SAMPLESTART:50.000000;
#SAMPLELENGTH:12.000000;
#SELECTABLE:YES;
#BPMS:0.000=150.000;
#STOPS:;
#DELAYS:;
#WARPS:;
#TIMESIGNATURES:0.000=4=4;
#TICKCOUNTS:0.000=4;
#COMBOS:0.000=1;
#SPEEDS:0.000=1.000=0.000=0;
#SCROLLS:0.000=1.000;
#FAKES:;
#LABELS:0.000=Song Start;
#BGCHANGES:;
#KEYSOUNDS:;
#ATTACKS:
;

//---------------dance-single - ----------------
#NOTEDATA:;
#CHARTNAME:;
#STEPSTYPE:dance-single;
#DESCRIPTION:;
#CHARTSTYLE:;
#DIFFICULTY:Hard;
#METER:6;
#RADARVALUES:0.402234,0.516861,0.449444,0.277598,0.000000,213.000000,179.000000,34.000000,21.000000,0.000000,0.000000,0.000000,0.000000,0.000000,0.402234,0.516861,0.449444,0.277598,0.000000,213.000000,179.000000,34.000000,21.000000,0.000000,0.000000,0.000000,0.000000,0.000000;
#CREDIT:;
#NOTES:
// measure 0
0000
0000
0000
0000
,  // measure 1
0000
0000
0000
0000
,  // measure 2
0000
0000
0000
0000
,  // measure 3
0000
0000
0000
0000
,  // measure 4
0000
0000
0010
0100
1000
0100
0010
0001
,  // measure 5
0010
0010
0010
0010
,  // measure 6
0010
0100
0010
0100
0010
0000
0010
0000
,  // measure 7
0010
0100
0010
0000
0110
0000
0110
0000
,  // measure 8
1001
2002
0000
3003
,  // measure 9
1001
0000
1000
0100
0001
0100
1000
0100
,  // measure 10
0001
1001
2002
0000
,  // measure 11
3003
0000
1000
0100
0001
0000
0001
0100
,  // measure 12
1000
0000
1001
0000
1001
0000
1000
0100
,  // measure 13
0001
0000
0001
0100
1000
0000
2002
0000
,  // measure 14
0000
0000
0000
3003
0220
0000
0000
0000
,  // measure 15
0330
1001
0000
1001
,  // measure 16
0110
2002
0000
3003
,  // measure 17
1001
0000
1000
0100
0001
0100
1000
0100
,  // measure 18
0001
1001
1001
0110
,  // measure 19
0110
0000
1000
0100
1000
0000
1000
0000
,  // measure 20
1000
0001
0200
0000
,  // measure 21
0310
0001
0010
0001
0020
0000
0000
0000
,  // measure 22
0130
0000
0220
0000
,  // measure 23
0330
0000
0001
0000
0001
0000
0001
0100
,  // measure 24
1000
0000
0001
0000
1000
0000
1000
0100
,  // measure 25
0010
0000
0010
0000
0010
0000
0010
0001
,  // measure 26
0010
0000
0010
0000
0010
0000
0010
0100
,  // measure 27
0010
0000
0010
0000
0010
0000
0010
1000
,  // measure 28
0010
0001
0010
1000
0010
0001
0010
0100
,  // measure 29
0010
0100
0010
0000
0110
0000
1001
0000
,  // measure 30
0110
0000
0110
0000
,  // measure 31
0110
0000
0110
0000
,  // measure 32
0200
0000
0000
0000
,  // measure 33
0010
0000
0010
0000
,  // measure 34
0310
0000
0010
0000
0010
0100
0010
0000
,  // measure 35
0110
0000
0110
0000
0010
0001
0010
0100
,  // measure 36
1000
0100
0010
0002
,  // measure 37
0020
0030
0200
0300
,  // measure 38
1003
1000
1001
0001
,  // measure 39
1001
0001
0100
1000
,  // measure 40
1001
0000
0001
0010
0001
0010
0001
0010
,  // measure 41
0100
0100
0100
0110
,  // measure 42
0010
0001
0010
0001
0010
0000
0010
0000
,  // measure 43
0010
0000
0110
0000
1000
0100
0001
0100
,  // measure 44
1000
0100
0001
0100
2000
0000
0000
0000
,  // measure 45
3200
0000
0000
0000
0320
0000
0000
0030
,  // measure 46
0001
0000
0000
0000
;

//---------------dance-single - ----------------
#NOTEDATA:;
#CHARTNAME:;
#STEPSTYPE:dance-single;
#DESCRIPTION:;
#CHARTSTYLE:;
#DIFFICULTY:Easy;
#METER:3;
#RADARVALUES:0.215280,0.334439,0.158627,0.211503,0.000000,114.000000,102.000000,12.000000,16.000000,0.000000,0.000000,0.000000,0.000000,0.000000,0.215280,0.334439,0.158627,0.211503,0.000000,114.000000,102.000000,12.000000,16.000000,0.000000,0.000000,0.000000,0.000000,0.000000;
#CREDIT:;
#NOTES:
0000
0000
0000
0000
,
0000
0000
0000
0000
,
0000
0000
0000
0000
,
0000
0000
0000
0000
,
1000
0000
1000
0000
,
1000
0100
0001
0000
,
0001
0000
0001
0000
,
0001
0100
1000
0000
,
1000
0100
1000
0000
,
0001
0010
0001
0000
,
1000
0100
1000
0000
,
0001
0010
0001
0000
,
1000
0100
0001
0000
,
0001
0000
0001
0100
,
1000
0000
1001
0000
,
0110
0000
1001
0000
,
1000
0000
0100
0000
,
1000
0000
0100
0000
,
0001
0000
0010
0000
,
0001
0000
0010
0000
,
1000
0000
0100
0000
,
0001
0000
0010
0000
,
1000
0000
0010
0000
,
0001
0000
0100
0000
,
0110
0000
1001
0000
,
0110
0000
1001
0000
,
1000
0000
1001
0000
,
0001
0000
1001
0000
,
0001
0000
0100
0000
,
1000
0000
0100
0000
,
0001
0000
1000
0000
,
2002
0000
0000
0000
,
3003
0000
0000
0000
,
2000
0000
3200
0000
,
0310
0010
0110
0010
,
0010
0110
0100
1000
,
0100
0010
0001
0010
,
0100
1000
0100
0010
,
0001
0010
0100
1000
,
0100
1000
0100
0010
,
0002
0003
0200
0300
,
2000
3000
0200
0300
,
0020
0030
0002
0003
,
0020
0030
0200
0300
,
2000
3000
0200
0300
,
0020
0030
0002
0003
,
0010
0000
0000
0000
;

//---------------dance-single - ----------------
#NOTEDATA:;
#CHARTNAME:;
#STEPSTYPE:dance-single;
#DESCRIPTION:;
#CHARTSTYLE:;
#DIFFICULTY:Medium;
#METER:4;
#RADARVALUES:0.260602,0.456054,0.277598,0.594853,0.000000,138.000000,117.000000,21.000000,45.000000,0.000000,0.000000,0.000000,0.000000,0.000000,0.260602,0.456054,0.277598,0.594853,0.000000,138.000000,117.000000,21.000000,45.000000,0.000000,0.000000,0.000000,0.000000,0.000000;
#CREDIT:;
#NOTES:
0000
0000
0000
0000
,
0000
0000
0000
0000
,
0000
0000
0000
0000
,
0000
0000
0000
0000
,
1000
0000
1000
0000
,
1000
1000
1000
0000
,
0001
0000
0001
0000
,
0001
0000
0001
0000
,
1000
0100
0001
0000
0000
0000
0000
0000
,
1001
0000
0000
0000
,
1000
0100
0001
0000
0000
0000
0000
0000
,
1001
0000
0110
0000
,
1000
1000
1000
0000
,
1001
0000
0001
0100
1000
0000
0000
0000
,
1001
0000
0110
0000
,
1001
0000
0110
0000
,
1000
0100
1000
0000
0000
0000
0000
0000
,
0110
0000
1001
0000
,
0001
0010
0001
0000
0000
0000
0000
0000
,
0110
0000
0100
0100
,
0100
1000
0200
0000
,
0320
0000
0032
0000
,
1003
0000
0110
0000
,
1001
0000
0110
0000
,
2000
0000
3002
0000
,
2003
0000
3002
0000
,
0023
0000
0230
0000
,
2300
0000
3200
0000
,
0320
0000
0032
0000
,
0023
0000
0230
0000
,
2300
0000
3000
0000
,
0220
0000
0000
0330
,
0100
0100
0100
0000
,
0200
0300
0020
0030
,
0200
1000
0001
1000
,
0001
1000
0001
1300
,
1000
0100
0001
0000
1001
0000
1001
0000
,
0002
0203
0320
0030
,
0110
1001
0110
0110
,
0100
0000
0100
0000
0100
0001
0100
1000
,
0100
0200
0320
0230
,
0320
2030
3200
2300
,
3200
0302
0023
0032
,
0023
0032
0023
0230
,
2300
3200
0320
0032
,
0203
0000
0320
0000
,
0130
0000
0000
0000
;

//---------------dance-single - ----------------
#NOTEDATA:;
#CHARTNAME:;
#STEPSTYPE:dance-single;
#DESCRIPTION:;
#CHARTSTYLE:;
#DIFFICULTY:Beginner;
#METER:1;
#RADARVALUES:0.111417,0.182421,0.118971,0.000000,0.000000,59.000000,50.000000,9.000000,0.000000,0.000000,0.000000,0.000000,0.000000,0.000000,0.111417,0.182421,0.118971,0.000000,0.000000,59.000000,50.000000,9.000000,0.000000,0.000000,0.000000,0.000000,0.000000,0.000000;
#CREDIT:;
#NOTES:
0000
0000
0000
0000
,
0000
0000
0000
0000
,
0000
0000
0000
0000
,
0000
0000
0000
0000
,
1000
0000
0000
0000
,
0100
0000
0000
0000
,
0010
0000
0000
0000
,
0001
0000
0000
0000
,
1001
0000
0000
0000
,
0000
0000
0000
0000
,
0110
0000
0000
0000
,
0000
0000
0000
0000
,
1001
0000
0000
0000
,
0000
0000
0000
0000
,
0110
0000
0000
0000
,
0100
0000
0000
0000
,
1000
0000
0000
0000
,
1000
0000
0000
0000
,
0001
0000
0000
0000
,
0001
0000
0000
0000
,
1000
0000
0000
0000
,
1000
0000
0000
0000
,
0001
0000
0000
0000
,
0001
0000
0000
0000
,
1000
0000
1000
0000
,
0001
0000
0001
0000
,
1000
0000
1000
0000
,
0001
0000
0001
0000
,
1000
0000
1000
0000
,
0001
0000
0001
0000
,
1001
0000
0000
0000
,
0110
0000
0000
0000
,
1001
0000
0000
0000
,
0000
0000
0000
0000
,
0110
0000
0000
0000
,
0000
0000
0000
0000
,
1000
0000
0000
0000
,
1000
0000
0000
0000
,
1000
0000
0000
0000
,
1000
0000
0000
0000
,
1000
0000
1000
0000
,
0001
0000
0001
0000
,
1000
0000
1000
0000
,
0001
0000
0001
0000
,
1000
0000
1000
0000
,
0001
0000
0001
0000
,
1001
0000
0000
0000
;
