#TITLE:Gimme! Gimme! Gimme! (A Man After Midnight);
#SUBTITLE:;
#ARTIST:CHER;
#TITLETRANSLIT:;
#SUBTITLETRANSLIT:;
#ARTISTTRANSLIT:;
#GENRE:;
#CREDIT:;
#BANNER:banner.png;
#BACKGROUND:bg.png;
#LYRICSPATH:;
#CDTITLE:;
#MUSIC:Cher - GIMME! GIMME! GIMME! (A Man After Midnight) [Official HD Audio].ogg;
#OFFSET:-0.043642;
#SAMPLESTART:68.307144;
#SAMPLELENGTH:15.000000;
#SELECTABLE:YES;
#BPMS:0.000000=120.000000
;
#STOPS:
;
#BGCHANGES:0.000=Cher - GIMME! GIMME! GIMME! (A Man After Midnight) [Official HD Audio].avi=1.000=0=0=0=StretchNoLoop====,
99999=-nosongbg-=1.000=0=0=0 // don't automatically add -songbackground-
;
#KEYSOUNDS:;
#ATTACKS:;

//---------------dance-single - ----------------
#NOTES:
     dance-single:
     :
     Hard:
     7:
     0.392427,0.436287,0.142577,0.218619,0.251887,289.000000,274.000000,15.000000,23.000000,0.000000,0.000000,0.392427,0.436287,0.142577,0.218619,0.251887,289.000000,274.000000,15.000000,23.000000,0.000000,0.000000:
0000
0000
1000
0100
1000
0000
1000
0100
,
1000
0000
0001
0010
0001
0000
0001
0010
,
0001
0000
1000
0001
1000
0000
1000
0001
,
1000
0000
0001
1000
0001
0000
0001
1000
,
0001
1000
1000
1000
,
1000
0001
0001
0001
,
0001
1000
1000
1000
,
1000
0001
0001
0002
,
0000
0000
0000
0000
0000
0000
0000
1000
0103
0010
0000
0001
0010
0200
0000
0000
,
0000
0000
0000
0000
0300
0000
0000
0001
0010
0100
0000
1000
0100
0010
0001
0010
,
0001
0010
0000
0000
0000
0000
0000
1000
0100
0010
0000
0001
0010
0200
0000
0000
,
0000
0000
0000
0000
0300
0000
0000
1000
0100
0010
0000
0001
0010
0200
0000
0000
,
0000
0000
0000
0000
0300
0000
0000
0010
0100
0010
0000
0100
1000
0200
0000
0000
,
0000
0000
0000
0000
0000
0000
0000
0010
0301
0010
0000
0100
1000
0100
0010
0001
,
0010
0100
0000
0000
0000
0000
0000
0000
0001
0010
0100
0000
1000
0100
0010
0000
,
0000
0110
0000
0000
0000
0110
0000
0000
,
0000
1001
0000
0000
0000
1001
0000
1000
,
0000
1000
0000
0001
0010
0001
0000
1001
,
0000
1001
0000
1001
0000
0001
1000
0001
,
0000
0001
0000
0001
0000
0001
0001
0001
,
0000
0000
0010
0000
0100
0010
0000
0000
0000
0000
0100
0000
0010
0000
0001
0000
,
0010
0000
0100
0000
1000
0100
0000
1000
0000
0000
1001
0000
1001
0000
2002
0000
,
0000
0000
0000
0000
0000
3003
0000
1000
,
0000
0100
0000
0010
0000
0001
0010
0001
,
0010
0010
0010
0010
,
0100
0100
0100
0100
,
1000
0100
0001
0010
,
1000
0100
0001
0220
,
0000
0000
0000
0330
,
1000
0100
1000
0000
1001
0000
1001
0000
,
0001
0010
0001
0000
0001
0100
0001
0000
,
0001
0010
0001
0000
1001
0000
1001
0000
,
0020
0230
0320
0230
,
2300
3200
0320
0032
,
1003
0100
1000
0000
0001
0010
0001
0000
,
1000
0100
0010
0001
0010
0100
1000
0000
,
0010
0001
0010
0000
0100
1000
0100
0000
,
0010
0001
0010
0100
1000
0100
0010
0000
,
0010
0100
0010
0000
1000
0001
1000
0000
,
0100
0010
0100
0010
0100
0010
0100
0000
,
1000
0100
1000
0000
0001
0010
0001
0000
,
1000
0000
0100
0000
0010
0000
0001
0000
0000
0000
0000
0000
0001
0010
0001
0000
,
1000
0100
2000
0000
0000
0000
0000
0000
3000
0000
0000
0000
0010
0001
0010
0000
,
0010
0100
1000
0100
0010
0001
0010
0000
0000
0000
0000
0000
1000
0100
0010
0000
,
0001
0010
0200
0000
0000
0000
0000
0000
0300
0000
0000
0000
1000
0100
0010
0000
,
0001
0010
0200
0000
0000
0000
0000
0000
0300
0000
0000
0000
1000
0100
0010
0000
,
0001
0010
0200
0000
0000
0000
0000
0000
0300
0000
0000
0000
0100
0010
0001
0000
,
0001
0010
0100
1000
0100
0010
0001
0000
0000
0000
0000
0000
1000
0100
0010
0000
,
0001
0010
0002
0000
0000
0000
0000
0000
0000
0003
0000
0000
0010
0100
0010
0000
,
0100
0010
0200
0000
0000
0000
0000
0000
0000
0000
0000
0000
0000
0000
0000
0000
,
0000
0000
0000
0000
,
0300
0000
0000
0000
;

//---------------dance-single - ----------------
#NOTES:
     dance-single:
     :
     Medium:
     5:
     0.271576,0.363572,0.114062,0.171093,0.019010,200.000000,188.000000,12.000000,18.000000,0.000000,0.000000,0.271576,0.363572,0.114062,0.171093,0.019010,200.000000,188.000000,12.000000,18.000000,0.000000,0.000000:
0000
0000
1000
0000
1000
0000
1000
0100
,
1000
0000
0001
0000
0001
0000
0001
0010
,
0001
0000
1000
0000
1000
0000
1000
0001
,
1000
0000
0001
0000
0001
0000
0001
1000
,
0001
2000
0000
0000
,
3000
0002
0000
0000
,
0003
2000
0000
0000
,
3000
0001
0001
0002
,
0000
0000
0000
0000
0000
0000
0000
0000
0103
0000
0000
0000
0000
0200
0000
0000
,
0000
0000
0300
0000
0010
0000
0100
0001
,
0001
0000
0000
0000
0000
0000
0000
0000
0100
0000
0000
0000
0000
0200
0000
0000
,
0000
0000
0000
0000
0300
0000
0000
0000
0100
0000
0000
0000
0000
0200
0000
0000
,
0000
0000
0000
0000
0300
0000
0000
0000
0100
0000
0000
0000
0000
0200
0000
0000
,
0000
0000
0000
0000
0301
0000
1000
0010
,
0010
0000
0000
0000
0001
0100
1000
0010
,
0000
0110
0000
0000
0000
0110
0000
0000
,
0000
1001
0000
0000
0000
1001
0000
1000
,
0000
1000
0000
0001
0010
0001
0000
1001
,
0000
1001
0000
1001
0000
0001
1000
0001
,
0000
0001
0000
0001
0000
0001
0001
0001
,
0000
0010
0100
0000
0000
0100
0010
0001
,
0010
0100
1000
0000
0000
1001
1001
2002
,
0000
0000
0000
0000
0000
3003
0000
1000
,
0000
0100
0000
0010
0000
0001
0010
0001
,
0010
0010
0010
0010
,
0100
0100
0100
0100
,
1000
0100
0001
0010
,
1000
0100
0001
0220
,
0000
0000
0000
0330
,
1000
0100
1000
0000
0000
0000
0000
0000
,
0001
0010
0001
0000
0000
0000
0000
0000
,
0001
0010
0001
0000
0000
0000
1001
0000
,
0010
0010
0100
0100
,
1000
0100
0010
0001
,
1000
0000
1000
0000
0001
0010
0001
0000
,
1000
0000
0010
0000
0010
0100
1000
0000
,
0010
0010
0100
0100
,
0010
0010
1000
0010
,
0010
0010
1000
1000
,
0100
0000
0100
0000
0100
0010
0100
0000
,
1000
1000
0001
0001
,
1000
0100
0010
0001
0000
0000
0001
0001
,
1000
2000
0000
0000
3000
0000
0010
0010
,
0010
1000
0010
0010
0000
0000
1000
0010
,
0001
0200
0000
0000
0300
0000
1000
0010
,
0001
0200
0000
0000
0300
0000
1000
0010
,
0001
0200
0000
0000
0300
0000
0100
0001
,
0001
0100
0100
0001
0000
0000
1000
0010
,
0001
0000
0002
0000
0000
0000
0000
0000
0000
0003
0000
0000
0010
0000
0010
0000
,
0100
0200
0000
0000
0000
0000
0000
0000
,
0000
0000
0000
0000
,
0300
0000
0000
0000
;

//---------------dance-single - ----------------
#NOTES:
     dance-single:
     :
     Easy:
     3:
     0.164304,0.241193,0.066536,0.190103,0.000000,121.000000,114.000000,7.000000,20.000000,0.000000,0.000000,0.164304,0.241193,0.066536,0.190103,0.000000,121.000000,114.000000,7.000000,20.000000,0.000000,0.000000:
0000
2000
0000
0000
,
3000
0002
0000
0000
,
0003
2000
0000
0000
,
3000
0002
0000
0000
,
0003
2000
0000
0000
,
3000
0002
0000
0000
,
0003
2000
0000
0000
,
3000
0001
0001
0002
,
0000
0000
0203
0000
,
0000
0300
0010
0100
,
0001
0000
0200
0000
,
0000
0300
0200
0000
,
0000
0300
0200
0000
,
0000
0000
0301
1000
,
0010
0000
0001
1000
,
0000
0110
0000
0000
0000
0110
0000
0000
,
0000
1001
0000
0000
0000
1001
0000
0000
,
0000
0000
0000
0001
0000
0001
0000
0000
,
0000
0000
0000
0000
0000
0001
0000
0001
,
0000
0001
0000
0001
0000
0002
0000
0003
,
0000
0100
0000
0010
,
0010
0000
1000
0000
0000
0000
0000
2002
,
0000
0000
0000
0000
0000
3003
0000
1000
,
0000
0100
0000
0010
0000
0000
0020
0000
,
0000
0000
0000
0030
,
0200
0000
0000
0300
,
1000
0100
0001
0010
,
1000
0100
0001
0220
,
0000
0000
0000
0330
,
1000
1000
0000
0000
,
0001
0001
0000
0000
,
0001
0001
0000
1001
,
0010
0010
0100
0100
,
1000
0100
0010
0001
,
1000
1000
0001
0001
,
1000
0010
0010
1000
,
0010
0010
0100
0100
,
0010
0010
1000
0010
,
0010
0010
1000
1000
,
0100
0100
0100
0100
,
1000
1000
0001
0001
,
1000
0010
0000
0001
,
1000
0000
0000
0010
,
0010
0010
0000
1000
,
0001
0000
0000
1000
,
0001
0000
0000
1000
,
0001
0000
0000
0100
,
0001
0100
0000
1000
,
0001
0000
0000
0010
,
0200
0000
0000
0000
,
0000
0000
0000
0300
;

//---------------dance-single - ----------------
#NOTES:
     dance-single:
     :
     Beginner:
     2:
     0.085546,0.116438,0.028515,0.000000,0.000000,63.000000,60.000000,3.000000,0.000000,0.000000,0.000000,0.085546,0.116438,0.028515,0.000000,0.000000,63.000000,60.000000,3.000000,0.000000,0.000000,0.000000:
// measure 0
0000
1000
0000
0000
,  // measure 1
0000
0001
0000
0000
,  // measure 2
0000
1000
0000
0000
,  // measure 3
0000
0001
0000
0000
,  // measure 4
0000
1000
0000
0000
,  // measure 5
0000
0001
0000
0000
,  // measure 6
0000
1000
0000
0000
,  // measure 7
0000
0001
0000
0000
,  // measure 8
0000
0000
0100
0000
,  // measure 9
0000
0000
0000
0100
,  // measure 10
0000
0000
0100
0000
,  // measure 11
0000
0000
0100
0000
,  // measure 12
0000
0000
0100
0000
,  // measure 13
0000
0000
0001
0000
,  // measure 14
0010
0000
0000
1000
,  // measure 15
0000
0010
0000
0010
,  // measure 16
0000
0000
0000
0001
,  // measure 17
0000
0001
0000
0000
,  // measure 18
0000
0000
0001
0000
,  // measure 19
0000
0000
0000
0000
,  // measure 20
0000
0100
0000
0010
,  // measure 21
0000
1000
0000
1001
,  // measure 22
0000
0000
0000
0000
0000
0000
0000
1000
,  // measure 23
0000
0000
0000
0010
0000
0000
0010
0000
,  // measure 24
0000
0000
0000
0000
,  // measure 25
0100
0000
0000
0000
,  // measure 26
1000
0000
0001
0000
,  // measure 27
1000
0000
0000
0110
,  // measure 28
0000
0000
0000
0000
,  // measure 29
1000
0000
0000
0000
,  // measure 30
0001
0000
0000
0000
,  // measure 31
0001
0000
0000
1001
,  // measure 32
0000
0010
0000
0100
,  // measure 33
0000
0100
0000
0000
,  // measure 34
1000
0000
0001
0000
,  // measure 35
1000
0000
0010
0000
,  // measure 36
0010
0000
0000
0000
,  // measure 37
0010
0000
0000
0000
,  // measure 38
0010
0000
1000
0000
,  // measure 39
0100
0000
0000
0000
,  // measure 40
1000
0000
0000
0000
,  // measure 41
1000
0000
0000
0000
,  // measure 42
1000
0000
0000
0000
,  // measure 43
0010
0000
0000
1000
,  // measure 44
0000
0000
0000
1000
,  // measure 45
0000
0000
0000
1000
,  // measure 46
0000
0000
0000
0100
,  // measure 47
0000
0100
0000
0000
,  // measure 48
0001
0000
0000
0000
,  // measure 49
0100
0000
0000
0000
;
