#TITLE:Do You Want Some Tea?;
#SUBTITLE:;
#ARTIST:HELLOVENUS;
#TITLETRANSLIT:;
#SUBTITLETRANSLIT:;
#ARTISTTRANSLIT:;
#GENRE:;
#CREDIT:;
#BANNER:Do You Want Some Tea-.png;
#BACKGROUND:Do You Want Some Tea--bg.png;
#LYRICSPATH:;
#CDTITLE:;
#MUSIC:Do You Want Some Tea-.ogg;
#OFFSET:0.200000;
#SAMPLESTART:55.200001;
#SAMPLELENGTH:12.000000;
#SELECTABLE:YES;
#BPMS:0.000000=102.000000
,4.000000=105.000000
,9.000000=107.000000
,17.000000=106.000000
;
#STOPS:
;
#BGCHANGES:0.000=Do You Want Some Tea-.avi=1.000=0=0=1=====,
99999=-nosongbg-=1.000=0=0=0 // don't automatically add -songbackground-
;
#KEYSOUNDS:;
#ATTACKS:;

//---------------dance-single - ----------------
#NOTES:
     dance-single:
     :
     Hard:
     6:
     0.340572,0.350652,0.181740,0.064144,0.010691,223.000000,206.000000,17.000000,6.000000,0.000000,0.000000,0.340572,0.350652,0.181740,0.064144,0.010691,223.000000,206.000000,17.000000,6.000000,0.000000,0.000000:
// measure 0
0000
0000
1000
0000
1000
0001
1000
0000
,  // measure 1
1000
1000
0100
0100
,  // measure 2
0100
0000
0100
0000
0100
0010
0100
0000
,  // measure 3
0100
0010
0010
0010
,  // measure 4
0010
0000
1000
0010
1000
0000
1001
0000
,  // measure 5
1001
0000
0001
0010
0001
0000
1001
0000
,  // measure 6
1001
0000
0100
0010
0100
0000
0110
0000
,  // measure 7
0110
2002
0000
0000
,  // measure 8
3003
0000
1000
0001
1000
0000
1000
0000
,  // measure 9
0001
0000
1000
0000
0001
0000
0010
0100
,  // measure 10
0010
0001
0001
0001
,  // measure 11
0010
0000
0010
0000
0100
0000
1000
0001
,  // measure 12
0100
0010
0001
0010
,  // measure 13
0001
0100
1000
0100
,  // measure 14
1000
0000
1000
0100
1000
0000
0001
0010
,  // measure 15
0001
0000
0100
0010
0100
0000
1001
0000
,  // measure 16
1001
0000
1000
0100
1000
0000
0001
0010
,  // measure 17
0001
0100
0010
0100
,  // measure 18
0010
1000
0001
1000
,  // measure 19
0001
1000
0100
0001
,  // measure 20
0010
0000
1000
0001
1000
0000
0010
0100
,  // measure 21
0010
0000
1000
0100
1000
0000
0001
0010
,  // measure 22
0001
0000
1000
0100
1000
0000
0001
0010
,  // measure 23
0001
2002
0000
0000
,  // measure 24
3003
0000
0000
0000
0100
0000
0000
0000
0100
0010
0000
0000
0010
0000
0100
0000
,  // measure 25
0010
0000
0100
0000
0010
0000
0000
0000
1000
0100
0000
0000
0100
0000
0001
0000
,  // measure 26
0100
1000
0100
0000
0100
0010
0100
0000
,  // measure 27
0100
1000
0100
0000
0100
0001
0100
1000
,  // measure 28
0100
0001
0100
0010
0100
0000
1000
0001
,  // measure 29
1000
0000
0100
0010
0100
0000
0110
0000
,  // measure 30
0110
0000
1000
0100
0001
0000
0001
0100
,  // measure 31
1000
1000
0100
0001
,  // measure 32
0010
0000
0001
0001
0001
0000
1000
1000
,  // measure 33
1000
0000
0100
0100
0100
0000
0001
0001
,  // measure 34
0001
0000
0010
0010
0010
0000
0110
0000
,  // measure 35
0110
0000
1001
0000
1001
0000
1000
0100
,  // measure 36
1000
0000
0100
0001
0100
0000
0001
0010
,  // measure 37
0001
0000
1000
0010
1000
0000
1000
0100
,  // measure 38
1000
0000
0001
0100
0001
0000
1000
0100
,  // measure 39
0001
0100
1000
0100
0001
0100
1000
0100
,  // measure 40
0001
2002
0000
0000
,  // measure 41
3003
0000
0000
0000
;

//---------------dance-single - ----------------
#NOTES:
     dance-single:
     :
     Medium:
     4:
     0.259629,0.350652,0.149669,0.277956,0.000000,170.000000,156.000000,14.000000,26.000000,0.000000,0.000000,0.259629,0.350652,0.149669,0.277956,0.000000,170.000000,156.000000,14.000000,26.000000,0.000000,0.000000:
0000
1000
0000
1000
,
1000
0010
0000
0010
,
0010
0100
0000
0100
,
0100
2002
0000
0000
,
3003
2000
0010
0010
,
3010
0020
0001
0001
,
0031
0002
1000
1000
,
1003
2002
0000
0000
,
3003
0010
0100
0010
,
0100
1000
0001
1000
,
0001
0100
0010
0100
,
0010
0000
1000
0000
0100
0000
0001
0100
,
1000
1000
1000
1000
,
1000
0001
0001
0001
,
0001
0010
0100
0010
,
0100
0000
1000
0000
0100
0000
0001
0100
,
0001
2000
0100
3002
,
0010
0000
2003
0000
0100
0000
3010
0001
,
0010
0200
0010
0302
,
1000
2003
0002
0000
,
3003
2000
0100
3200
,
1000
1300
0100
0010
,
0001
0100
0100
0010
,
0010
2002
0000
0000
,
3003
0100
0010
0100
,
0010
0000
1000
0000
0001
0000
0010
0001
,
0010
0100
0100
0010
,
0010
0000
1000
0001
1000
0000
1001
0000
,
1001
0020
0130
0200
,
0310
2000
3001
0002
,
1003
0200
0310
0020
,
0130
0100
0010
0100
,
0010
0000
1000
0100
1000
0000
1001
0000
,
1001
0001
0010
0100
,
1000
0000
0100
0010
0100
0000
0110
0000
,
0110
0100
0010
0100
,
0010
1000
0100
0001
,
0100
1000
0100
0001
,
0100
0000
1000
0100
1000
0000
1001
0000
,
1001
0000
0010
0100
0010
0000
0110
0000
,
0110
0220
0000
0000
,
0330
0000
0000
0000
;

//---------------dance-single - ----------------
#NOTES:
     dance-single:
     :
     Easy:
     2:
     0.161886,0.197242,0.096216,0.171050,0.000000,106.000000,97.000000,9.000000,16.000000,0.000000,0.000000,0.161886,0.197242,0.096216,0.171050,0.000000,106.000000,97.000000,9.000000,16.000000,0.000000,0.000000:
0000
0001
0000
0001
,
0001
0100
0000
0100
,
0100
0010
0000
0010
,
0010
1001
0000
0000
,
1001
0200
0000
0000
,
0300
0002
0000
0000
,
0003
2000
0000
0000
,
3000
0220
0000
0000
,
0330
0010
0000
0010
,
0000
0100
0000
0100
,
0000
0001
0000
1000
,
0000
1000
0000
0001
,
1000
0100
0000
0100
,
0000
0010
0000
0010
,
0000
0100
0000
0100
,
0000
1000
0000
0001
,
1001
0200
0000
0320
,
0000
0230
0000
0320
,
0030
2000
0000
3020
,
0000
0230
0000
0000
,
0300
1000
0000
0100
,
0000
0010
0000
0010
,
0000
0100
0000
0010
,
0000
0220
0000
0000
,
0330
0100
0010
0100
,
0000
1000
0001
1000
,
0000
0100
0010
0100
,
0000
1000
0001
1000
,
0001
0000
1000
0000
,
0100
0000
0001
0000
,
0100
0000
0010
0000
,
0100
0000
0010
0000
,
0010
1000
1000
1000
,
1000
0010
0010
0010
,
0010
0100
0100
0100
,
0100
1000
0001
1000
,
0001
1000
0100
0001
,
0100
1000
0100
0001
,
0100
1000
0000
1001
,
0000
0110
0000
0110
,
0000
0220
0000
0000
,
0330
0000
0000
0000
;

//---------------dance-single - ----------------
#NOTES:
     dance-single:
     :
     Beginner:
     1:
     0.085525,0.107574,0.064144,0.000000,0.000000,56.000000,50.000000,6.000000,0.000000,0.000000,0.000000,0.085525,0.107574,0.064144,0.000000,0.000000,56.000000,50.000000,6.000000,0.000000,0.000000,0.000000:
0000
0001
0000
0000
,
0000
0100
0000
0000
,
0000
0010
0000
0000
,
0000
1001
0000
0000
,
0000
0100
0000
0000
,
0000
0001
0000
0000
,
0000
1000
0000
0000
,
0000
0110
0000
0000
,
0000
0010
0000
0000
,
0000
0100
0000
0000
,
0000
0001
0000
0000
,
0000
1000
0000
0000
,
1000
0000
0000
0100
,
0000
0000
0000
0010
,
0000
0000
0000
0100
,
0000
0000
0000
0000
,
1001
0000
0000
0010
,
0000
0100
0000
0010
,
0000
1000
0000
0010
,
0000
0100
0000
0000
,
0000
1000
0000
0000
,
0000
0010
0000
0000
,
0000
0100
0000
0000
,
0000
0110
0000
0000
,
0000
0000
0010
0000
,
0000
0000
0001
0000
,
0000
0000
0010
0000
,
0000
0000
0001
0000
,
0001
0000
1000
0000
,
0000
0000
0001
0000
,
0000
0000
0010
0000
,
0000
0000
0010
0000
,
0000
0000
1000
0000
,
1000
0000
0010
0000
,
0010
0000
0100
0000
,
0100
0000
0001
0000
,
0001
0000
0100
0000
,
0100
0000
0100
0000
,
0100
0000
0000
1001
,
0000
0000
0000
0000
,
0000
0110
0000
0000
;
